&title=物凄いヴァイブスで魔理沙が物凄いラップ
&wholebpm=173
&artist=魂音泉
&des=7.3Hz+Jack
&shortid=11202
&genre=東方Project
&cabinet=DX
&version=maimai DX Splash
&chartconverter=Neskol
&lv_2=4
&des_2=
&lv_3=7
&des_3=
&lv_4=9+
&des_4=隅田川星人
&lv_5=13
&des_5=7.3Hz+Jack
&des_6=
&inote_2=
(173){1},
{1},
{1},
{1},
{1}1x,
{1},
{1}1,
{1},
{1}8,
{1},
{1}8,
{1},
{1}1h[1:2]/8h[1:2],
{1},
{1},
{1},
{1}1x,
{1}1,
{1}2,
{1}2,
{1}3,
{1}3,
{1}4,
{1}4b/5b,
{1}5,
{1}5,
{1}6,
{1}6,
{1}7h[1:1],
{1},
{2}7,7,
{1}7x,
{1}B8,
{1}B7,
{1}B6,
{1}B5,
{1}B4,
{1}B3,
{1}C1hf[1:1],
{1},
{2}1x,1,
{2}2,2,
{2}3,3,
{1}4/5,
{2}5,5,
{2}6,6,
{2}7,7,
{1}1x/8x,
{1}1-4[4:3],
{1},
{1}8-5[4:3],
{1},
{1}2-5[4:3],
{1},
{1}7-4[4:3],
{1},
{1}3x,
{2}3,3,
{4}2,2,2,,
{2}1,1,
{4}8,1,8,,
{2}7,7,
{4}6,6,6,,
{2}5,5,
{4}4,5,4x,,
{2}5,5,
{4}6,6,5/6,,
{2}4,4,
{4}3,3,3x/4x,,
{2}2,1/2,
{2}8,7/8,
{2}1,1xh[8:7]/8xh[8:7],
{1},
{1}B1,
{1}B2,
{1}B3,
{1}B4,
{1}B5,
{1}B6,
{1}C1hf[1:1],
{1},
{4}8,8,8,,
{4}7,7,7,,
{4}6,6,6,,
{2}4/5,4x/5x,
{4}3,3,3,,
{4}2,2,2,,
{2}1/8,1h[8:7]/8h[8:7],
{1},
{4}2x,2,2,,
{4}3,3,3x/4x,,
{4}5,5,5,,
{4}6,6,5x/6x,,
{4}7,7,7,,
{4}8,8,1x/8x,,
{4}1,1,8,8,
{4}1x/8x,1x/8x,1b/8b,,
{1},
{1},
{1},
E
&inote_3=
(173){1},
{1},
{1},
{1},
{1}4x>5[4:13],
{1},
{1},
{1},
{1}6<5[4:13],
{1},
{1},
{1},
{1}5pp8[4:5],
{1},
{1}1pp4[4:5],
{1},
{4}6b,6,5,5,
{4}4,4,3/5,,
{4}2,2,1,1,
{4}8,8,1/7,,
{4}6,6,5,5,
{4}4,4,3/5,,
{4}2,2,1,1,
{4}1x/8x,1x/8x,2x/7x,,
{4}3,3,3/4,,
{4}6,6,5/6,,
{4}3,3,3/4,,
{4}5,5,4/6,,
{4}7x,7x,7x/8x,,
{4}2x,2,1/2,,
{4}7,7,7/8,,
{4}1x,8,2/7,,
{1}B1/B2,
{1}B3/B4,
{1}B5/B6,
{1}B7/B8,
{1}E2/E8,
{1}B2/B7,
{1}B3/B6,
{1}C1xh[2:1],
{4}2x,2,1/2,1/2,
{4}3,4,5,6,
{4}7,7,7/8,7/8,
{4}6,5x,4x,3,
{4}2,2,1/2,1/2,
{4}3,4,5,6,
{4}7,7,7/8,7/8,
{4}6,4/5,3b/6b,,
{1}1>6[4:5],
{1},
{1}8<3[4:5],
{1},
{1}2pp5[4:5],
{1},
{1}7qq4[4:5],
{1},
{1},
{2}3h[2:1],4h[2:1],
{2}5h[2:1],6,
{2}7h[2:1],8h[2:1],
{2}1h[2:1],2,
{2}3h[2:1],4h[2:1],
{2}5h[2:1],6,
{2}7h[2:1],8h[2:1],
{2}1h[2:1],2,
{2}3h[2:1],4,
{2}6h[2:1],5,
{2}3h[2:1],4,
{2}5h[4:1]/6h[4:1],5/6,
{2}7h[2:1],8,
{2}2h[2:1],1,
{2}7x/8x,1x/2x,
{2}1x/8x,2x/7x,
{1}B1,
{1}B2,
{1}B3,
{1}B4,
{1}B5,
{1}B6,
{1}B7,
{1}C1xh[2:1],
{4}2x,1/2,2,1/2,
{4}3,4,5,6,
{4}7,7/8,7,7/8,
{4}6,5x,4x,3,
{4}2,1/2,2,1/2,
{4}3,4,5,6,
{4}7,7/8,7,7/8,
{4}6,4/5,3x/6x,,
{4}6,6,5,5,
{4}4,4,3/5,,
{4}2,2,1,1,
{4}8,8,1/7,,
{4}6,6,5,5,
{4}4,4,3/5,,
{4}2,2,1,1,
{4}1x/8x,1x/8x,2b/7b,,
{1},
{1},
{1},
E
&inote_4=
(173){1},
{1},
{1},
{1},
{1}1x>6[8:9]/6x,
{1},
{1}3x/8x<3[8:9],
{1},
{1}2x>7[8:9]/7x,
{1},
{1}2x/7x<2[8:9],
{1},
{1}1pp5[4:5]*qq5[4:5],
{1},
{1}2h[2:3]/7h[1:2],
{1},
{8}3b,3,4,3,5,5,4/6,,
{8}7,8,7,,5/6,,4b/7b,,
{8}6,6,5,6,4,4,3/5,,
{8}2,1,2,,3/4,,2b/5b,,
{8}2,2,1,3,8,8,1/7,,
{8}6,5,6,,3,4,3,,
{8}7,7,8,6,1,1,2/8,,
{4}4b/7b,2b/5b,C1f/B3/B6,,
{8}2xh[4:1],,4,,5,5,3,,
{8}7h[4:1],,5,,4,4,6,,
{8}3,3,4,,6,6,5,,
{8}3/4,,5/6,,4,5,3/6,,
{4}1b/2b,7b/8b,4b/5b,3/6,
{4}4b/7b,6,2/5,3,
{8}5/6,,7,,4,5,4,,
{4}3b/4b,2/5,1/6,7/8,
{2}6x-1[8:1],2-5[8:1],
{4}B6,B8/E8,B3,B1/E2,
{2}7x-4[8:1],3-8[8:1],
{4}B7,B5/E6,B2,B4/E4,
{2}7x<4[8:1],3>8[8:1],
{4}C1,B6/E7,B3/E3,C1,
{2}2x>5[8:1],6<1[8:1],
{4}B4/B5,B1/B8,C1f/B3/B6,,
{4}7x/8x,1x/6x,2x/4x-7[8:1],,
{8}1,1,8,8,2,,4/7,,
{4}1x/2x,3x/8x,5x-2[8:1]/7x,,
{8}8,8,1,8b,2,8b,3/7,,
{4}3x/4x,2x/5x,6x/8x-3[8:1],,
{8}5,5,4,4,6,,3/8,,
{4}5x/6x,4x/7x,1x-6[8:1]/3x,,
{8}4x,4x,5x,5x,2b/7b,,,,
{2}6h[1:1],C1,
{2}3h[1:1],C1,
{2}7h[1:1],C1,
{2}2h[1:1],C1,
{2}8h[1:1],B1/B8,
{2}4h[1:1],B4/B5,
{2}7h[1:1],B6/B7,
{2}3h[1:1],C1xh[2:1],
{1},
{2}2bv4[4:1],6v8[4:1],
{8}1,1,7,,8,8,2,,
{2}3v1[4:1],7v5[4:1],
{8}3,3,8,,6,6,1,,
{2}5-7[8:1],4-2[8:1],
{4}7-4[8:1],8-3[8:1],5,,
{8}7,7,5,,2,2,4,,
{8}6,6,5,5,4/7,,2b/6b,,
{2}3v8[4:1],6v1[4:1],
{8}2,2,8,,7,7,1,,
{2}2v5[4:1],7v4[4:1],
{8}3,3,5,,6,6,4,,
{2}2-4[8:1],8-6[8:1],
{4}2-5[8:1],7-4[8:1],2,3,
{8}4x/5x,,,,1x/8x,,,C1hf[2:1]/B2/B3/B6/B7,
{1},
{1}2xqq5[4:5]/7x,
{1},
{1}3x/6xqq1[4:5],
{1},
{1}2q7[2:1]/7,
{1}3/6q3[2:1],
{2}4-1[8:1],5-8[8:1],
{8}1,1,8,8,2/7,,3/6,,
{4}1b/2b,3/8,5p1[8:1]/7,,
{8}8,8,2,2,3/7,,1/5,,
{4}7b/8b,1/6,2/4q8[8:1],,
{8}1,1,7,1b,6,1b,2/5,,
{4}3b/4b,2/5,6/8>3[8:1],,
{8}5,5,4,4,2/5,,4/7,,
{4}1b/8b,2/7,3>4[8:5]/6h[2:1],,
{4},,,C1f,
{8}7x,7x,8x,6x,2,2,1,3,
{8}7,7,5,5,4/6,,7b/8b,,
{8}2,2,1,3,7,7,8,6,
{8}2,2,4,4,3/5,,1b/2b,,
{8}3,3,5,4,6,6,4,5,
{8}2,2,4,4,3/5,,1b/2b,,
{8}7,7,1,8,2,2,1/8,,
{4}3b/6b,1b/8b,C1f/B2/B3/B6/B7,,
{1},
{1},
{1},
E
&inote_5=
(173){1},
{1},
{1},
{1},
{1}4qq5[4:5]/6h[1:1],
{2},7x,
{1}4h[1:1]/6pp5[4:5],
{2},2x,
{1}3qq4[4:5]/5h[1:1],
{2},7x,
{1}3h[1:1]/5pp4[4:5],
{2},2x,
{1}4>6[8:9]/5h[1:2],
{6},,,,1b,1b,
{8}1b,,,,,C1f/B2/B3/B4/B5/B6/B7,,,
{8}8-2[8:1],2v3[8:1],3-5[8:1],,,,2b/6b,,
{16}7,8,7,,1/6,,3,4,,6,5,,3/4,,8,,
{8}5/6,1,3>8[8:1]/4,8<5[8:1],5,,1x,,
{16}2,1,2,,3/8,,6,5,,3,4,,5/6,,1,,
{8}3/4,8,5/6<1[8:1],1>4[8:1],4,,8x,,
{16}7,8,7,,1/6,,3,4,,6,5,,1/8,,2,5,
{16}3,6,4,7,5h[8:1],,8,8h[8:1],,4,,,1x/5x,,,,
{16}3,7,3,7,2,6,2,6,1-5[8:1],5,1,,,,,,
{4}B4/E4/7b,B5/E6/2b,C1f/8b-4[8:1],,
{8}2h[4:1],,4-6[8:1],4-2[8:1],,,7,7,
{8}3,3,5-7[8:1],5-3[8:1],,,8h[4:1],1,
{8}2h[4:1],7,6h[4:1],3,4>1[8:1],5,5h[4:1],,
{16}8<5[8:1],,1,,2h[16:5],,,,,4,,4,3,,2/5,,
{8}7xh[8:1],8,3xh[8:1],4,2-7[8:1]/5xh[4:1],,,,
{8}1xh[4:1]/6-3[8:1],,,,2/4-1[8:1],5,5,,
{8}7/8,6,4/5,3,1/2q7[8:1],8,8,,
{8}1xh[4:1]/8-5[8:1],,,,2/6,4/5,3b/7b,,
{12}E1,E8,B2,B6,E4,E5,1x,8x,2x,8x,1x,7x,
{12}E1,E8,E2,B6/E7,B3/E3,E5,C1f,,,1x/8x,,,
{12}E1,E8,B2,B6,E4,E5,1x,8x,1x,C1f,,,
{12}B4/E4,B6,B2,E8,E1,E7,3x,5x,4x,C1f,,,
{8}1xh[4:1],8xh[8:3],,2,3h[4:1],4,6h[4:1],5,
{16}E2,B2,B3,E4,E8,B7,B6,E6,E3,B3,B4,E5,C1f,,,,
{12}1x,8x,2xh[3:1],C1f,,,8x,1x,7xh[3:1],C1f,,,
{12}1x,8x,2x,8x,1x,7x,C1hf[4:1],,,8b,,,
{8}1x-4[8:1]/6x>4[8:1],,1/6,,3/8,7,1/6,,
{8}3/4,2,5qq3[8:1]/6q2[8:1],7,,,4x/8x,,
{8}1<4[8:1]/6,,1x/2x,,8,1/7,2/6,,
{4}4-1[8:1]/5-8[8:1],4qq4[8:1]/5pp5[8:1],,2x/7x,
{8}1<3[16:3]/3h[4:1],,,,1,2,3<6[8:1]/8,,
{8}8-5[8:1],8,2-6[8:1],2,4-1[8:1]*-7[8:1],4,,,
{8}8-5[8:1]*z4[8:1],8,,,2x/6x,3x/7x,4x/8b,,
{8}3/6,8,3/6p5[4:1],1,3/6,,1b,,
{4}1h[1:1],,B4/B5,7,
{4}7h[1:1],,B6/E6,3,
{4}3h[1:1],,B2/E2,5,
{2}5h[2:1],C1f,
{4}1>4[2:1],,B3/E3,8,
{4}8<5[2:1],,B6/E7,1,
{4}1>4[2:1],,C1,8,
{4}8h[4:1],2h[4:1],4h[8:7],6h[16:13],
{1},
{8}1b-5[8:1]/2b-5[8:1],,1/2,,3/8-5[8:1],7,6h[4:1]/8,,
{16}1,2,3h[8:1],,1-5[8:1],8,7h[8:1],,1x,,7x,,4x/8x,,,,
{8}7-4[8:1]/8-4[8:1],,7/8,,1-4[8:1]/6,2,1/3h[4:1],,
{16}8,7,6h[8:1],,8,1,2<8[16:1],,7>2[8:1],,,,,,,,
{8}4/8h[8:1],5,3/8h[8:1],4,2-6[8:1]/8,,4x,,
{8}1h[8:1]/5,4,1h[8:1]/6,5,1/7-3[8:1],,5x,,
{16}4x/8x,,6,5,7,,3,4,2,,7/8,,1/6,,,,
{16}2x,3x,4x,5x,8x,7x,6x,5x,8x,1x,2x,3x,4x/8b,,,,
{8}7-4[8:1]/8-4[8:1],,7/8,,1-4[8:1]/6,2,1/3h[4:1],,
{16}8,7,6h[8:1],,8-4[8:1],1,2h[8:1],,8x,,2x,,1x/5x,,,,
{8}1-5[8:1]/2-5[8:1],,1/2,,3/8-5[8:1],7,6h[4:1]/8,,
{16}1,2,3h[8:1],,1,8,7>1[16:1],,2<7[8:1],,,,,,,,
{16}1h[8:1]/5,,4,,1h[8:1]/6,,5,,7b-3[8:1],8b,7b,8b,7b,,,,
{8}1/4,2,3/6,7,5w1[8:1]/8,,,,
{8}3xh[4:1]/7xh[4:1],,,,1xh[8:3]/5x,,4,4xw8[8:1],
{8},,,2b/6b,,,,,
{8}4>6[4:5]/6,,6,,5,5h[8:7],,,
{1},
{8}3/5<3[4:5],,3,,4,4h[8:7],,,
{1},
{8}4>6[4:5]/6,,6,,5,5,,,
{1}C1f,
{2}4-2[8:1]/5-7[8:1],4-1[8:1]/5-8[8:1],
{8}3/4,2,5/6,7,1b/8b,4b/5b,2b/7b,,
{8}1x-4[8:1]/6x>4[8:1],,1x/6x,,3/7,2/6,1b/5x,,
{8}3/4,1,5>2[8:1]/6,8<5[8:1],5x-1[8:1],,,,
{8}3-8[8:1]/7-4[8:1],,3x/7x,,1/5,2/6,3x/7b,,
{8}5/6,7,1>4[8:1]/8,4xh[8:1],1<6[8:1],6xh[8:1],,,
{8}2-5[8:1]/6-1[8:1],,2x/6x,,4/8,3/7,2b<7[8:1]/6x,,
{8}5-8[8:1],5,4-1[8:1],4,6>3[8:1],6,1x,,
{8}8-5[8:1]*z4[8:1],8,8x,,2h[4:1]/6h[4:1],,,4qq1[8:3]/5pp8[8:3],
{8},,,C1f,,,1b/8b,,
{16}7,8,7,8,6,,3,4,,6,5,,1/2,,3/8,,
{8}5,1/7,2-5[8:1]/6-1[8:1],3/7,2x/6x,,3b/7b,,
{16}2,1,2,1,3,,6,5,,3,4,,7/8,,1/6,,
{8}4,2/8,3-8[8:1]/7-4[8:1],2/6,3x/7x,,2b/6b,,
{16}7,8,7,8,6,,3,4,,6,5,,4/7,,3,4,
{16}2,5,1,8,2,7,5,6,4,8h[16:3],,,1b,,,,
{16}3,4,3,4,1,8,1,8,5-1[8:1],6,5,6,5x,,,,
{96}3b/6b,,,,,,4x/5x,,,,,,,,,,,,,,,,,,2b/7b,,,3x/6x,,,4x/5x,,,,,,,,,,,,,,,,,,1b>7[4:11]/8b<2[4:11],,2x/7x,,3x/6x,,4x/5x,,,,,,,,,,,,,,,,,,,,,,,,,,,,,,,,,,,,,,,,,,
{1},
{1},
{1},
{1},
{1},
E
