&title=明星ギャラクティカ
&wholebpm=154
&artist=ナユタン星人
&des=隅田川星人
&shortid=11191
&genre=niconicoボーカロイド
&cabinet=DX
&version=maimai DX Splash
&chartconverter=Neskol
&lv_2=4
&des_2=
&lv_3=6
&des_3=
&lv_4=8+
&des_4=はっぴー
&lv_5=12
&des_5=隅田川星人
&des_6=
&inote_2=
(154){1},
{1},
{1}1h[1:1],
{1},
{1}8h[1:1],
{1},
{2}1,1,
{1}1,
{2}8,8,
{1}8,
{2}1,8,
{1}1,
{2}8,1,
{1}8b,
{2}1,1,
{1}1,
{2}2,2,
{1}2,
{2}3,3,
{1}3,
{2}4/5,4/5,
{1}4x/5x,
{2}5,5,
{1}5,
{2}6,6,
{1}6,
{2}7,7,
{1}7,
{2}1/8,1/8,
{1}1b/8b,
{1}C1hf[1:1],
{1},
{4}8,8,8,,
{4}7,7,7,,
{2}5/6,5/6,
{1}5h[2:1]/6h[2:1],
{4}4,4,4/5,,
{4}5,5,4/5,,
{2}4x/5x,4x/5x,
{1}3x/6x,
{4}4,4,4,,
{4}3,3,3,,
{2}1/2,1/2,
{1}1h[2:1]/2h[2:1],
{4}8,8,1/8,,
{4}1,1,1/8,,
{2}1/8,1/8,
{4}1,8,1,,
{1}1-4[4:3]/8-5[4:3],
{1},
{1}4-1[4:3]/5-8[4:3],
{1},
{1}B1,
{1}B2,
{1}B3,
{1}B4/B5,
{1}B3/B6,
{1}B2/B7,
{1}C1hf[1:1],
{1},
{1}1xh[2:7],
{1},
{1},
{1},
{2}1,1,
{4}1,1,1,,
{4}1,1,1,,
{1}1x,
{4}8,8,1/8,,
{4}7,7,7/8,,
{4}5/6,5/6,5/6,,
{1}5h[2:1]/6h[2:1],
{4}4,4,3/5,,
{4}5,5,4/6,,
{4}4/5,4/5,4/5,,
{1}3x/6x,
{4}4,4,4/5,,
{4}3,3,3/4,,
{4}1/2,1/2,1/2,,
{1}1h[2:1]/2h[2:1],
{4}8,8,1/7,,
{4}1,1,2/8,,
{4}1/8,1/8,1/8,,
{4}1,1,8,8,
{1}1-4[4:3]/8-5[4:3],
{1},
{1}4x/5x,
{1},
{1}3-6[4:3],
{1},
{1}2-7[4:3],
{1},
{1}1h[2:11],
{1},
{1},
{1},
{1},
{1},
{1},
{1},
E
&inote_3=
(154){1},
{1},
{1}6xh[1:1],
{1}5h[1:1],
{1}4h[1:1],
{2}3x,3x/4x,
{4}3,3,4,,
{4}6,6,5,,
{4}3,3,4,,
{4}5,5,4/6,,
{4}7,7,8,,
{4}2,2,1,,
{4}7,7,8,,
{4}1/8,2b/7b,,,
{2}3h[2:1],4,
{2}6h[2:1],5,
{2}3h[2:1],4,
{2}5h[4:1]/6h[4:1],5/6,
{1}6-3[8:3],
{1}2-5[8:3],
{2}6,7,
{4}1x/8x,2x/7x,,,
{2}2h[2:1],1,
{2}7h[2:1],8,
{2}2h[2:1],1,
{2}7h[4:1]/8h[4:1],7/8,
{1}7-3[8:3],
{1}2-6[8:3],
{1}8<3[4:3],
{2},2x,
{2}1/2,1/2,
{4}1/2,1/2,1b/2b,,
{4}2,2,1/2,1/2,
{4}3,3,2/4,,
{4}6,6,5/6,5/6,
{4}6,6,5/7,,
{1}4-1[8:3],
{1}8-5[8:3],
{4}4,4,3/5,,
{4}5,5,3/6,,
{4}2,1/2,7,7/8,
{4}6,5/6,3,3/4,
{4}2,1,7,8,
{1}1-5[8:3]/8-4[8:3],
{1}4-1[8:3],
{1}8-5[8:3],
{4}4,4,3/5,,
{4}4x/5x,4x/5x,3x/6x,,
{4}7,7,8,,
{4}2,2,1,,
{4}7,7,8,,
{4}1,1,2x/7x,,
{1}B1,
{1}B2,
{1}B3,
{1}B4,
{1}B5,
{1}B6,
{1}B7,
{1}C1f,
{1}C1xh[2:7],
{1},
{1},
{1},
{2}1x,2,
{2}3,4,
{2}5,6,
{4}2/7,2x/7x,,,
{4}2,2,1/2,1/2,
{4}3,3,2/4,,
{4}6,6,5/6,5/6,
{4}6,6,5/7,,
{1}4>1[8:3],
{1}8<5[8:3],
{4}4,4,3/5,,
{4}5,5,3/6,,
{4}3,3/4,6,5/6,
{4}7,7/8,2,1/2,
{4}3,4,5,6,
{1}2h[2:1]/7h[2:1],
{1}3>8[8:3],
{1}7<4[8:3],
{4}3,4,3/5,,
{4}4x/5x,4x/5x,3x/6x,,
{1}3>6[1:1],
{8},,,,,,,C1f,
{1},
{1},
{4}7,7,8,,
{4}2,2,1,,
{4}7,7,8,,
{4}1x/8x,1x/8x,2xh[4:3]/7xh[4:3],,
{1},
{1},
{1},
E
&inote_4=
(154){1},
{1},
{1}1b,
{1},
{8},,,,,,,4x/5x,
{8},2x/7x,1x/8x,,,,1b,,
{4}3/8,1/6,3/8,1/6,
{4}3/8,1/6,3/8,1/6,
{4}2/8,1/7,2/8,1/7,
{8}3/8,,1/6,,3/8,,1,1,
{4}1/6,3/8,1/6,3/8,
{4}1/6,3/8,1/6,3/8,
{4}1/6,3/8,1/6,3/8,
{8}1,1,8b,,,,8,,
{4}7,5/6,4,3/5,
{4}2,3/4,5,4/6,
{4}7,5/6,4,3/5,
{4}2h[4:1],4h[4:1],5,3/6,
{8}8<5[4:1],,,,,3x,3x,,
{8}5<8[4:1],,,,,3x,3x,,
{4}2h[4:1],4h[4:1],5h[4:1],7,
{8}1x/8x,1x/8x,1x/8x,,,,3/6,,
{4}1,3/5,6,5/7,
{4}8,4/6,3,2/4,
{4}1,3/5,6,5/7,
{4}7h[4:1],5h[4:1],4,3/6,
{8}8<5[4:1],,,,,3x,3x,,
{8}5<8[4:1],,,,,3x,3x,,
{16}2/4,,,,4/5,,,,5h[16:3]/7,,,4h[16:3],,,2,,
{8},1/5,1/5,,3/7,,2/6,,
{16}4/8h[4:1],,,,1,,,,4/5,,,3/6,,,2/7,,
{8},1x/2x,1x/2x,1x/2x,1x/2x,,,,
{16}7/8,,7/8,,1/6,,,,3/8h[16:3],,,2h[16:3],,,4,,
{16},,5,,5,,4,,6,,,3x<6[4:1]/7x,,,,,
{8},,8h[4:1],,5,5>1[8:3],,,
{8},,,,,2,2h[2:1],,
{4}1,7h[2:1],6,3h[2:1],
{8}4,,5h[4:1],,1b,,,5x/6x,
{8}4x/7x,,3x/4x,2x/5x,,3x/6x,,C1f/B4/B5,
{8},,,,,8,8,,
{16}1/2,,1/2,,3/8,,,,1h[16:3]/6,,,7h[16:3],,,5,,
{16},,4,,4,,5,,3,,,2x/6x>3[4:1],,,,,
{4},1h[4:1],4qq6[8:5],,
{8},,,,,7,7h[2:1],,
{4}8,2h[2:1],3,6h[2:1],
{8}5,,4h[4:1],,8,8,,2x-5[4:1]/7x-4[4:1],
{8},,,,,,1/8,1/8,
{8},4,4,5,3/6,,2b/7b,,
{4}3/8,1/6,3/8,1/6,
{4}2/8,1/7,2/8,1/7,
{4}3/8,1/6,3/8,1/6,
{8}2/8,,1/7,,8,8,1,,
{4}E4,E5,E6,C1/E7,
{4}E8,E1,E2,C1/E3,
{4}B1/E8,E2/B8,B4/B6,B3/B5,
{4}E1,E2/E8,C1f,,
{2}1h[4:1]/7h[4:1],2h[4:1]/8h[4:1],
{4}3h[4:1],4,6h[4:1],5,
{4}3h[4:1],1h[4:1],8h[4:1],6h[4:1],
{8}3,4/5,4/5,3x/6x,3x/6x,,,,
{1}1h[2:13],
{1},
{1},
{1},
{4}5,5,5,5,
{4}5,5,5,5,
{8}6,,7,,8,,1/8,1/8,
{8},2b/7b,2b/7b,,,,4/5,,
{16}1/2,,1/2,,3/8,,,,1h[16:3]/6,,,7h[16:3],,,5,,
{16},,4,,4,,5,,3,,,2x/6x>3[4:1],,,,,
{4},1h[4:1],4<3[8:5],,
{8},,,,,2,2h[2:1],,
{4}1,7h[2:1],6,3h[2:1],
{8}4,,5h[4:1],,1b,,,3x/4x,
{8}2x/5x,,5x/6x,4x/7x,,3x/6x,,C1f/B4/B5,
{8},,,,,1,1,,
{16}7/8,,7/8,,1/6,,,,3/8h[16:3],,,2h[16:3],,,4,,
{16},,5,,5,,4,,6,,,3x<6[4:1]/7x,,,,,
{4},8h[4:1],5pp2[8:5],,
{8},,,,,7,7h[2:1],,
{4}8,2h[2:1],3,6h[2:1],
{8}5,,4h[4:1],,8,8,,2h[4:1]/7h[4:1],
{8},,2/7,,4/5,,3/6,3/6,
{8},1,1,8,8<2[4:3],,,,
{8},,,,,1x,,1xh[8:3],
{8},,,,3/6,3/6,,1b,
{8},,,,,,,4x/5x,
{8},4,4,5,3/6,,2x/7x,,
{4}3/8,1/6,3/8,1/6,
{4}2/8,1/7,2/8,1/7,
{4}3x/8x,1x/6x,3x/8x,1x/6x,
{4}3x/8x,1x/6x,3x/8x,1xh[16:9]/6xh[16:9],
{1},
{1},
{1},
E
&inote_5=
(154){1},
{1},
{1}1b-5[8:3]/2h[8:15],
{1}6h[8:7],
{8}1h[4:1]/7h[4:1],,,,2/8,,1/7,1/7h[4:1],
{8},3h[8:1],5h[8:1],1h[8:1],8,8,C1f,,
{4}B4/E4/8x,B6/E6/1x,B4/E4/8x,B6/E6/1x,
{4}B4/E4/8x,B6/E6/1x,B4/E4/8x,B6/E6/1x,
{4}B3/B4/E4/8x,B5/B6/E6/1x,B3/B4/E4/8x,B5/B6/E6/1x,
{16}B3/B4/E4/8x,,,,B5/B6/E6/1x,,,,B3/E4/8x,,,,5x,4x,5x,,
{8}1/6,2,3/8,7,1h[8:1]/6h[8:1],,3h[8:1]/8h[8:1],,
{8}1/6,2,3/8,7,1h[8:1]/6h[8:1],,3h[8:1]/8h[8:1],,
{8}1/6,2,3/8,7,1h[8:1]/6h[8:1],,3h[8:1]/8h[8:1],,
{16}1/6,,2/7,,2b/7b,,,,4/5h[16:3],,,4,5,,3,,
{16}3h[16:3],,,4,2,,2,,6h[16:3],,,5,7,,7,,
{16}3h[16:3],,,4,2,,1,,8,,7,,2/6,,,,
{16}1,,2,,3h[16:3],,,4,3,,5,,6,,7,,
{16}8,,1,,2,,3,,4,,5,,6,,6,5,
{8}7h[4:1],,1,1h[2:1],,3,4,5,
{8}2h[4:1],,8,8h[2:1],,6,5,4,
{4}7>2[4:1],2>5[4:1],5,1,
{16}2b/7b,,2b/7b,,2b/7b,,,,4h[16:3]/5,,,5,4,,6,,
{16}6h[16:3],,,5,7,,7,,3h[16:3],,,4,2,,2,,
{16}6h[16:3],,,5,7,,8,,1,,2,,3/7,,,,
{16}8,,7,,6h[16:3],,,5,6,,4,,3,,2,,
{16}1,,8,,7,,6,,5,,4,,3,,3,4,
{8}2h[4:1],,8,8h[2:1],,6,5,4,
{8}7h[4:1],,1,1h[2:1],,4,5,6,
{16}7x-4[8:1]/8x-3[8:1],,,,,,,,2x/5x,,,1x/6x,,,7xh[8:3]/8xh[8:3],,
{4},,4x/5x,3x/6x,
{16}1x/2x,,,,1x/2x,,,,1x/2x,,,1x/2x,,,1x/2x,,
{8},1x/2x,1x/2x,1x/2x,1b/2b,,3b/6b,,
{16}8-5[8:1],,8,,2-6[8:1],,2,,1<5[4:1],,,5,,,3h[4:1],,
{16},,4-7[8:1],,4,,1-5[8:1],,1,,,8<3[4:1],,,C1f,,
{8},,1x-5[8:1],,6-2[8:1],,3<1[16:7],3h[2:1],
{8},,,,,5,4,3,
{8}2h[2:1],4,5,6,7h[2:1],5,4,3,
{8}2h[2:1],4,5,6,7,,,3b/7b,
{8}2b/6b,,3b/7b,2b/6b,,3/7,,2/7,
{16}2/7,,3,4,2,,6,5,7,,1/8,,2b/7b,,,,
{16}4-1[8:1],,4,,7-3[8:1],,7,,8>4[4:1],,,4,,,6h[4:1],,
{16},,5-2[8:1],,5,,8-4[8:1],,8,,,1>6[4:1],,,C1f,,
{8},,8x-4[8:1],,3-7[8:1],,6>8[16:7],6h[2:1],
{8},,,,,4,5,6,
{8}7h[2:1],5,4,3,2h[2:1],4,5,6,
{8}7h[2:1],4,3,2,1,1,2/6,2>5[8:1]/6,
{8},,7p3[8:1],,1s5[4:1],,7,7xh[4:1],
{8},5xh[8:1],3xh[8:1],1xh[8:1],7xh[8:1],3xh[8:1],8b,,
{32}3xh[4:1]/8xh[4:1],,,,,,,,,2x/7x,1xh[16:3]/6xh[16:3],,,,,,,2x/7x,3xh[16:3]/8xh[16:3],,,,,,,2x/7x,1xh[16:3]/6xh[16:3],,,,,,
{32},2x/7x,3xh[16:3]/8xh[16:3],,,,,,,2x/7x,1xh[16:3]/6xh[16:3],,,,,,,2x/7x,3xh[16:3]/8xh[16:3],,,,,,,2x/7x,1xh[16:3]/6xh[16:3],,,,,,
{32},2x/7x,3xh[16:3]/8xh[16:3],,,,,,,2x/7x,1xh[16:3]/6xh[16:3],,,,,,,2x/7x,3xh[16:3]/8xh[16:3],,,,,,,2x/7x,1xh[16:3]/6xh[16:3],,,,,,
{32},2x/7x,3xh[16:3]/8xh[16:3],,,,,,,2x/7x,1xh[16:3]/6xh[16:3],,,,,,,2x/7x,3x/8x,,,,,,2b/7b,,,,,,,,
{4}2>6[2:1]/6,7,8,8,
{4}3/7<3[2:1],2,1,1,
{4}4/6h[6:1],3h[6:1]/5,4/6h[6:1],3h[6:1]/5,
{12}6,5,7,3,4,2,8b,,,,,,
{4}2h[2:1],B2/B3,7h[2:1],B6/B7,
{4}1h[4:3],B1/B8,C1,B4/B5,
{4}7h[4:1],5h[4:1],4h[4:1],1,
{8}2x/6x,3x/7x,2x/6x,B1/E1/B2,B1/E1/B2,,,,
{1}1xh[2:7]/6x,
{1}B5/E6,
{1}B4/E4,
{1}C1,
{4}B1,B2,B3,B4,
{4}B5,B6,B7,B8,
{8}E2/E8,,E3/E7,,E4/E6,,4x/5x,4x/5x,
{8},2b/7b,2b/7b,,,,3x/6x,,
{16}5-8[8:1],,5,,2-6[8:1],,2,,1<5[4:1],,,5,,,3h[4:1],,
{16},,4v7[8:1],,4,,1-5[8:1],,1,,,8<3[16:3],,,C1f,,
{8},,1x-5[8:1],,6-2[8:1],,3<1[16:7],3h[2:1],
{8},,,,,5,4,3,
{8}2h[2:1],4,5,6,7h[2:1],5,4,3,
{8}2h[2:1],4,5,6,7,,,3b/7b,
{8}2b/6b,,3b/7b,2b/6b,,3/7,,2/7,
{16}2/7,,3,4,2,,6,5,7,,1/8,,2b/7b,,,,
{16}4-1[8:1],,4,,7-3[8:1],,7,,8>4[4:1],,,4,,,6h[4:1],,
{16},,5v2[8:1],,5,,8-4[8:1],,8,,,1>6[16:3],,,C1f,,
{8},,8x-4[8:1],,3-7[8:1],,6>8[16:7],6h[2:1],
{8},,,,,4,5,6,
{8}7h[2:1],5,4,3,2h[2:1],4,5,6,
{8}7h[2:1],4,3,2,1,1,2/6,2h[4:1]/6h[4:1],
{8},,8-4[8:1],,3h[4:1],,7,7h[4:1],
{8},5h[8:1],3h[8:1],1h[8:1],7h[8:1],3>6[8:5],8,8b,
{8},,,,,C1hf[4:5],,,
{8},,,,,,,1b,
{1},
{16}4x/5xh[16:3],,,4x,5x,,3x/6x,,3xh[8:1]/6xh[8:1],,,,2b/7b,,,,
{32}1xh[4:1]/6xh[4:1],,,,,,,,,2x/7x,3xh[16:3]/8xh[16:3],,,,,,,2x/7x,1xh[16:3]/6xh[16:3],,,,,,,2x/7x,3xh[16:3]/8xh[16:3],,,,,,
{32},2x/7x,1xh[16:3]/6xh[16:3],,,,,,,2x/7x,3xh[16:3]/8xh[16:3],,,,,,,2x/7x,1xh[16:3]/6xh[16:3],,,,,,,2x/7x,3xh[16:3]/8xh[16:3],,,,,,
{32},2x/7x,1xh[16:3]/6xh[16:3],,,,,,,2x/7x,3xh[16:3]/8xh[16:3],,,,,,,2x/7x,1x/6x,,,,,,3x/8x,,,,3x/8x,,,,
{8},1x/6x,1x/6x,,3xh[16:3]/8xh[16:3],,,,
{24},,,,,,E6,B5,B4,E4,,,,,,,,,,,,,,,
{1},
{1},
{1},
E
