&title=居並ぶ穀物と溜息まじりの運送屋
&wholebpm=160
&artist=hanzo
&des=隅田川星人
&shortid=11154
&genre=maimai
&cabinet=DX
&version=maimai DX Splash
&chartconverter=Neskol
&lv_2=3
&des_2=
&lv_3=7+
&des_3=
&lv_4=11+
&des_4=小鳥遊さん
&lv_5=12+
&des_5=隅田川星人
&des_6=
&inote_2=
(160){1},
{1},
{1},
{1},
{1},
{1},
{1},
{1}4,
{1}4,
{1}5,
{1}4x/5x,
{1}5,
{1}5,
{1}4,
{1}4x/5x,
{1}3,
{1}3,
{2}2,2,
{1}2x,
{1}1,
{1}1,
{2}8,8,
{1}8b,
{1}7,
{1}7,
{2}6,6,
{1}6x,
{1}5,
{1}5,
{2}4,4,
{1}4h[1:1]/5h[1:1],
{1},
{1}B6,
{1}B7,
{1}B8,
{1}B1,
{1}B2,
{1}B3,
{1}B4/B5,
{1}B3/B6,
{1}C1hf[1:1],
{1},
{2}8,8,
{4}8,8,8,,
{4}7,7,7,,
{1}7h[2:1],
{2}6,6,
{4}6,6,6,,
{4}5,5,5,,
{2}4/5,4b/5b,
{2}4,4,
{4}4,4,4,,
{4}3,3,3,,
{1}3h[2:1],
{2}2,2,
{4}2,2,2,,
{4}1,1,1,,
{1}1h[2:1],
{4}8,8,8,,
{1}8h[2:1],
{1}1-5[4:3],
{1},
{1}8-4[4:3],
{1},
{1}2-6[4:3],
{1},
{1}7-3[4:3],
{1},
{2}2,2,
{2}3,3,
{2}4,4,
{1}4/5,
{2}5,5,
{2}6,6,
{2}7,7,
{4}8,8,8x,,
{2}1,1,
{2}2,2,
{2}3,3,
{4}4,4,4,,
{1}4h[2:1]/5h[2:1],
{1}4b/5b,
{1}B4,
{1}B5,
{1}B3,
{1}B6,
{1}B4/B5,
{1}B3/B6,
{1}C1hf[1:1],
{1},
{2}8,8,
{4}7,7,7/8,,
{4}6,6,6,,
{1}4h[2:1]/5h[2:1],
{2}4,4,
{4}3,3,3/4,,
{4}2,2,2,,
{1}1h[2:1]/8h[2:1],
{4}8,8,8,,
{1}1h[2:1]/7h[2:1],
{4}1,1,1,,
{4}2h[2:1]/8h[2:1],,,8x,
{1},
{1},
{1},
E
&inote_3=
(160){1},
{1}4-1[4:3],
{2},8,
{1}8-5[4:3],
{2},4,
{4}5,5,4,4,
{2}4/5,3x/6x,
{4}3,3,3/4,,
{4}6,6,5/6,,
{4}4,4,3,3,
{4}2,2,2/4,,
{4}2,2,1/2,,
{4}7,7,7/8,,
{4}6,5,4,3,
{4}3x/6x,3x/6x,3x/6x,,
{4}3h[2:1],,4,4,
{2}3/4,4/5,
{4}6h[2:1],,5,5,
{2}5/6,4/7,
{4}7h[2:1],,8,8,
{2}7/8,1/8,
{4}2h[2:1],,1,1,
{2}2x/8x,1x/7x,
{4}6h[2:1],,5,5,
{4}4,4,3/5,,
{4}3h[2:1],,4,4,
{4}5,5,4/6,,
{4}7h[2:1],,8,8,
{4}1,1,2/8,,
{4}1,1,8,1-4[2:1]/8-5[2:1],
{1},
{4}3x/6x,3x/6x,3b/6b,,
{2}B5/E6,B2/E3,
{4}B7,C1,B3,,
{2}B2/E2,B6/B7,
{2}B3/E4,C1,
{2}B4/E4,B7/E7,
{4}B2,C1,B6,,
{2}B7/E7,B3/E3,
{2}B4/B5,B3/B6,
{1}C1hf[1:1],
{1},
{4}1x,2,3/4,3/4,
{4}5x,4x/5x,3x/6x,,
{4}7h[4:1],8,2h[4:1],1,
{4}1/2,3/8,4/7,,
{4}8,7,5/6,5/6,
{4}4,4/5,3/6,,
{4}2h[4:1],1,7h[4:1],8,
{4}1x/8x,2x/7x,3b/6b,,
{4}1,2/8,3,2/4,
{4}5,5/6,4/7,,
{4}6h[4:1],5,3h[4:1],4,
{4}3/4,2/5,1x/6x,,
{4}7/8,6,1/2,3,
{4}4/5,4/5,2b/7b,,
{4}3/4,3/4,5/6,5/6,
{2}4h[4:1]/5h[4:1],3x/6x,
{1}1-4[2:1]/8-5[2:1],
{1}C1f,
{2}B5/B6,B3/B4,
{2}B7/E7,B2/E3,
{4}E6,E5,E4,,
{1}C1hf[2:1],
{1}1x>4[4:3],
{2},5,
{1}5<8[4:3],
{2},1x/8x,
{4}2,2,3,3,
{4}3/4,3/4,3/4,,
{4}6,6,7,7,
{2}1h[4:1]/8h[4:1],2x/7x,
{4}3,3/4,6,5/6,
{8}4,4,4,,3/5,,,,
{4}6,5/6,3,3/4,
{8}2,2,2,,1x/7x,,,,
{8}7,,6,,5,5,5,,
{8}4,,3,,2,2,2,,
{4}1/8,1/8,2/7,3V14[4:3]/6V85[4:3],
{1},
{1}C1hf[1:1],
{1},
{1}2h[1:1],
{1}3h[1:1],
{1}4h[1:1],
{2}5,4/5,
{4}6,6,6,,
{4}4,4,4,,
{4}5,6,4,3,
{2}4h[4:1]/5h[4:1],3x/6x,
{4}3,2/4,6,5/7,
{8}8,8,8,,1/7,,,,
{4}6,5/7,3,2/4,
{8}1,1,1,,2/8,,,,
{4}3/4,2/5,5/6,4/7,
{4}4/5,3/6,1b/8b,,
{2}2h[4:1]/4h[4:1],5h[4:1]/7h[4:1],
{4}3/4,2/5,1x/6x,7x/8x,
{2}5h[4:1]/6h[4:1],3h[4:1]/4h[4:1],
{4}5,4/6,3x/7x,2x/8x,
{2}1h[2:1],8h[1:1],
{1}C1hf[2:1],
{1},
{1},
{1},
E
&inote_4=
(160){1},
{4}3h[2:1]/5h[2:1],,,3/5,
{4}4h[2:1]/6h[2:1],,,4/6,
{2}3h[4:1]/5h[4:1],4h[4:1]/6h[4:1],
{4}4/5,3/6,2/7,1b/8b,
{8}3,3,5,5,4,4,6,,
{1}C1hf[2:1]/B4/B5,
{16}2,,2,,2h[16:3],,,3h[16:3],,,4,,4/5,,,,
{8}6,,5/7,,3,3,2/4,,
{16}7,,7,,7h[16:3],,,6h[16:3],,,5,,4/5,,,,
{4}2/4,1-6[4:1]/2-5[4:1],,,
{16}6,,6,,6h[16:3],,,7h[16:3],,,8,,1/8,,,,
{16}3,,3,,3h[16:3],,,2h[16:3],,,1,,1/8,,,,
{8}7,7,5,5,4,4,2,2,
{4}B7/B8/E8,B5/B6/E6,B3/B4/E4,B1/B2/E2,
{4}6h[4:1],5,4h[4:1],5,
{8}7h[4:1],,6,,5,5,4/6,,
{4}3h[4:1],4h[4:1],5h[4:1],6h[4:1],
{4}5,7-4[4:1],,,
{4}3h[4:1],4,5h[4:1],4,
{8}2h[4:1],,3,,4,4,3/5,,
{4}2h[4:1],4h[4:1],5h[4:1],7s3[4:3],
{1},
{4}2h[4:1],3,5h[4:1],4,
{8}2h[4:1],,3,,2,2,1/3,,
{4}7h[4:1],5h[4:1],4h[4:1],2pp5[4:3],
{1},
{4}7h[4:1],6,4h[4:1],5,
{8}7h[4:1],,6,,1,1,2/8,,
{8}3,3,4,3,6,6,5,6,
{1}3>6[2:1],
{8}E8,B2,B6,E4,C1f,,,,
{4}2-5[4:1],,6,5/6,
{1}7<2[2:1],
{4}1,2/8,3/7,4/6,
{2}5h[2:1],C1,
{4}7-4[4:1],,3,3/4,
{4}2/5,1-5[4:1],,,
{4}6,5/6,3,3/4,
{8}5,5,4,,3b/6b,,4/5,,
{2}2-5[4:1],7-4[4:1],
{8}C1hf[2:1],,,,,,1/2,8,
{8}7xh[4:1],,6,5,4h[4:1],,5,6,
{4}4-8[8:1]/7-5[8:1],,1b/6b,4/5,
{16}6,5,6,,3,4,3,,2,,2,,1qq5[2:1],,1,,
{8},,,,,,6,5,
{8}4/7h[4:1],,8,1,2h[4:1],,4,,
{8}E7,E6,C1,E4,E3,,1/8,,
{8}2,2,4,3,6,6,5,7,
{8}B1/B8,,C1,,B4/B5,,7/8,1,
{8}2xh[4:1],,3,4,5h[4:1],,4,3,
{4}2-4[8:1]/5-1[8:1],,3b/8b,4/5,
{16}3,4,3,,6,5,6,,7,,7,,8pp4[2:1],,8,,
{8},,,,,,3,4,
{8}2h[4:1]/5,,1,8,7h[4:1],,5,,
{8}E2,B7,B3,E6,C1f,,,,
{8}7,7,6/8,,2,2,1/3,,
{4}B1/E1/B8,B2/B3/E3,B6/B7/E7,B4/B5/E5,
{4}1pp3[4:1]/8qq6[4:1],,,1/8,
{4}2b/7b,,,3/4,
{4}2xh[2:1]/5xh[2:1],,,5/6,
{4}4h[2:1]/7h[2:1],,,3/4,
{2}2h[4:1]/5h[4:1],4h[4:1]/7h[4:1],
{4}6/7,4/5,2/3,1b/8b<1[2:5],
{1}E1,
{1}C1,
{1}E5,
{8}4,,4,,4/5,4/5,4/5,,
{16}2,,2,,4,,4,,3,4,3,,2/5,,,,
{16}7,,7,,5,,5,,6,5,6,,4/7,,,,
{16}3,4,3,,2/5,,,,6,5,6,,4/7,,,,
{16}1,,1,,8,1,8,,2b/7b,,,,4b/5b,,,,
{8}2h[4:1]/4,,3,4,5h[4:1],,4,,
{8}3/4,2,1-5[4:1],,,,,,
{4}E7,E1,E3,E5,
{4}B4/B5,C1,B1/B8,5/6,
{8}7h[4:1],,6,5,4h[4:1],,5,,
{8}5/6,7,8-4[4:1],,,,,,
{4}3/4,1/2,7/8,5>6[4:3]/6,
{1}C1f,
{8}3,3,5,5,1,1,1/8,,
{16}5x/7x,,,2x/4x,,,1x/8x,,2b/7b,,,,4/5,,,,
{8}3h[1:1]/6,,,,4,,,4,
{8}4h[1:1],,,,5,,,5,
{8}5h[1:1],,,,6,,,6,
{1}6>3[2:1],
{4}3/4,3/4,3/5,4/6,
{4}5/6,5/6,4/6,3/5,
{8}2,2,4,,7,7,5,,
{8}B1/B8,,C1,,B4/B5,,7,8,
{8}1h[4:1]/6,,2,3,4h[4:1],,3,,
{4}2-5[8:1]/6-1[8:1],,3b/7b,4/5,
{16}6,5,6,,3,4,3,,2,,2h[8:7],,1qq6[2:1],,1,,
{8},,,,,,7/8,6,
{8}4/5,,3/4,2,1/8,,7/8,6,
{1}3qq8[2:1]/5pp8[2:1],
{8}2,2,1,3,6,6,5,7,
{4}6x/7x,1x/8x,2x/3x,4x/5x,
{4}8-6[8:1],2-4[8:1],1-5[8:1],,
{4}1xh[2:1]/6xh[2:1],,,4qq1[2:1]/5pp8[2:1],
{4},,,2b/7b,
{8}1x/8x,1/8,1/8,1/8,1/8,,C1f/B2/B3/B6/B7,,
{1},
{1},
{1},
E
&inote_5=
(160){1},
{1}1x>6[2:1]/7xh[4:3],
{1}2h[4:3]/8<3[2:1],
{4}1>4[2:1]/8,7,6,5,
{8}4/6,7,3/5,2,4/6,7,3/5,2,
{16}7x,8,6x,1,5x,2,4x,3,1x,2,8x,3,7x,4,6<5[2:1],5,
{4}6h[2:1],,,C1f,
{16}3,,2/4,,6,5,,4/7,,3,4,,2/5,,3/4,,
{16}6,,5,,4/7,,3,4,,6,5,,3,4,2,,
{16}6,,5/7,,3,4,,2/5,,6,5,,4/7,,2,4,
{48}3,,,,,,7,,,5,,,6,,,,,,2,,,4,,,3x,,4x,,3x,,4x,,3x,,4x,,3x,,,,,,,,,,,,
{16}2,,1,,3/8,,7,1,,2,8,,4/7,,5/6,,
{16}7,,8,,1/6,,2,8,,7,1,,3/4,,2/5,,
{16}1x,5,4,5,2x,5,4,5,3x,5,4,5,2x,5,4,5,
{4}1x<6[8:1]*>4[8:1],1xw5[8:1],1x,3b/7b,
{8}5/7h[4:1],,5,4/6,,3,4,2/5,
{16},,6,5,6,,4/7,,6h[8:1],,5h[8:1],,4h[8:1],,3,,
{8},2,3,4,6,5,3,4,
{8}5/6,7,3/4,2,5/6,,4/7,,
{8}2h[4:1]/4,,4,3/5,,6,5,4/7,
{16},,3,4,3,,2/5,,3h[8:1],,4h[8:1],,5h[8:1],,6,,
{8}7>2[8:1],7,5,4,2x<7[8:1],2,4,5,
{16}6xh[4:1],,5,,2h[4:1],,4,,7h[8:1],,5,6,5,,,,
{8}2h[4:1]/4,,4,3/5,,6,5,4/7,
{16},,3,4,3,,2/5,,2h[8:1],,4h[8:1],,5h[8:1],,7,,
{8},2,3,4,6,5,3,4,
{8}5/6,7,1/8,2,3/4,,2/5,,
{8}5/7h[4:1],,5,4/6,,3,4,2/5,
{16},,6,5,6,,4/7,,7h[8:1],,5h[8:1],,4h[8:1],,2,,
{16}3,4,3,4,3h[8:1],,1,,6,5,6,5,6h[8:1],,8,,
{8}3h[4:1],4,6h[4:1],4,2h[4:1],4,6h[8:1],4,
{16}3,4,2,5,3,4,2,5,4w8[8:1],,,,4b,,,,
{8}6<8[8:1],5,4,,6<1[8:1],5,4,,
{8}6<3[8:3],5,4,,,,2x/6x,,
{4}1-5[8:1]/6h[4:1],1x,1-4[8:1]/6h[4:1],1x,
{4}1-5[8:1]/6h[2:1],1x>4[8:1],1x,C1,
{4}1>3[8:1]/5<7[8:1],1x/5x,4-2[8:1]/8-6[8:1],4x/8x,
{4}1x>3[8:1]/5x<7[8:1],1-7[8:1]/5-3[8:1],1x/5x,2x/6x,
{4}4h[8:1]/5h[8:1],4h[8:1]/6h[8:1],4h[8:1]/7h[8:1],4h[8:1]/8h[8:1],
{8}4/5x,4,4/6x,4,4/7x,4,4/8x,4,
{4}1x-3[8:1]/8x-4[8:1],1x/8x,1x-5[8:1]/8x-6[8:1],1x/8x,
{16}4/8,,,2/6,,,C1f/E3/E7,,,,,,,,,,
{4}1-5[8:1]/8h[8:1],1>3[8:1]/7h[8:1],1-5[8:1]/8h[8:1],1>3[8:1]/7h[8:1],
{8}1-5[8:1]/8h[8:1],,1/7h[8:1],,1/8,2,3/5,,
{16}6,5,6,5,6,,7/8,,3,4,3,4,3,,1/2,,
{16}5/6,,3,4,2,,6,5,7,,4/5,,2b/7b,,,,
{4}1-5[8:1]/6h[8:1],1>3[8:1]/8h[8:1],1-5[8:1]/6h[8:1],1>3[8:1]/8h[8:1],
{4}1-5[8:1]/6h[8:1],1>3[8:1]/8h[8:1],1/6h[8:1],3x/7x,
{8}4/8,7,6,5,4/8,1,2,3,
{4}4/8<5[8:1]*>3[8:1],8xw4[8:1],8x,2b/6b,
{8}2>4[8:1],1,7<5[8:1],8,2q6[8:1],1,7p3[8:1],8,
{8}2-6[8:1],1,7-3[8:1],8,2-5[8:1],1,7,8,
{16}3,4,3,4,3,,1/2,,6,5,6,5,6,,7/8,,
{16}3/4,,6,5,7,,3,4,2,,4/5,,2b/7b,,,,
{16}1/2-5[8:1],,,1,2,,6,,7-4[8:1]/8,,,8,7,,3,,
{16}1/2-5[8:1],,,1,2,,6<3[16:3],,C1f,,,,,,,,
{8},2x,4,5,7,5,2,4,
{4}5/7-3[8:1],1-5[8:1]/7,1/6-2[8:1],4x/6x,
{4}4>2[8:1]/5-2[8:1],4b/5b,4-7[8:1]/5<7[8:1],4b>5[4:3]/5bp4[4:3],
{1}4b/5b,
{1}2xh[4:3]/8x<3[2:1],
{1}1>6[2:1]/7h[4:3],
{4}1/8<5[2:1],2,3,4,
{8}3/5,2,4/6,7,3/5,2,4/6,7,
{1}4>4[4:11]/6xh[2:1],
{1}7h[2:1],
{2}3x,3x,
{4}3x,3x,3x/4x,2x/5x,
{16}2x,5,3,4,2,5,3,4,2,5,3,4,2,5,3,6,
{16}4x,7,5,6,4,7,5,6,4,7,5,6,4,7,3,6,
{16}2x,5,4,5,1x,5,4,5,2x,5,4,5,3x,5,4,5,
{16}2x,4,3x,5,4x,6,5x,7,5xw1[8:1],,,,5b,,,,
{4}2-4[8:1]/5,1-5[8:1]/2x,1x/4-8[8:1],4x/5-7[8:1],
{4}2-4[8:1]/5x,1-5[8:1]/2x,1x/4,C1f/E3/E7,
{4}4/7-5[8:1],7x/8-4[8:1],5-1[8:1]/8x,4-2[8:1]/5x,
{4}4x/7-5[8:1],7x/8-4[8:1],5/8x,C1f,
{8}2-4[8:1],2,1-5[8:1],1,4-8[8:1],4,5-7[8:1],5,
{8}1-3[8:1],1,8-4[8:1],8,3-7[8:1],3,6-2[8:1],6,
{8}1-5[8:1],1,8-4[8:1],8,2-6[8:1],2,7-3[8:1],7,
{4}1b-5[8:1],1b<6[8:1]*>4[8:1],1bw5[8:1],1b,
{16}2x,1,3x,8,4x,7,5x,6,8x,7,1x,6,2x,5,3x,4,
{16}2x/5x,,,4x/7x,,,1x/8x,,2b/7b,,,,,,,,
{1}1h[2:7]/5,
{1},
{1}B5/B6,
{1}B3/B4,
{4}2xh[4:3],B2,C1,B6,
{4}7xh[4:3],B7,C1,B3,
{8}4x/6x,7,3/5,2,4/6,7,3/5,2,
{4}8x<5[8:1]*>3[8:1],8xw4[8:1],8x,2b/6b,
{4}1>3[8:1]/8,1-5[8:1]/4h[8:1],1>3[8:1]/8h[8:1],1-5[8:1]/4h[8:1],
{4}1>3[8:1]/8h[8:1],1-5[8:1]/4h[8:1],1>3[8:1]/8h[8:1],1/4h[8:1],
{8}6xh[4:1],1,4h[4:1],1,6h[4:1],1,4h[8:1],1,
{16}6,,3,4,2,,6,5,7,,4/5,,2b/7b,,,,
{16}1/2-5[8:1],,,1,2,,6,,7-4[8:1]/8,,,8,7,,3,,
{16}1/2-5[8:1],,,1,2,,6<3[16:3],,C1f,,,,,,,,
{8},2x,4,5,7,5,2,4,
{4}5/7-4[8:1],1-6[8:1]/7,1/8-4[8:1],1b/8b,
{16}3/6,,2,4,3,,7,5,6,,2,4,3,4,3,4,
{4}2-5[8:1],1x/2x,7-4[8:1],7x/8x,
{4}1x-5[8:1]/8x-6[8:1],1x/8x,1x-3[8:1]/8x-4[8:1],1x/8x,
{4}1bp5[8:1]/8b<6[8:1],1b>3[8:1]/8bq4[8:1],1b/8b,C1f/B2/B3/B6/B7,
{1},
{1},
{1},
E
