&title=命に嫌われている
&wholebpm=200
&artist=カンザキイオリ
&des=はっぴー
&shortid=11185
&genre=niconicoボーカロイド
&cabinet=DX
&version=maimai DX Splash
&chartconverter=Neskol
&lv_2=3
&des_2=
&lv_3=7
&des_3=
&lv_4=10
&des_4=Jack
&lv_5=12+
&des_5=はっぴー
&des_6=
&inote_2=
(200){1},
{1},
{1},
{1},
{1},
{1},
{1},
{1},
{1},
{1},
{1}2,
{1},
{1}1,
{1},
{1}8,
{1},
{1}7,
{1},
{2}8,8,
{1},
{2}7,7,
{1},
{2}6,6,
{1},
{1}5h[1:1],
{1},
{2}4,4,
{1},
{2}3,3,
{1},
{2}2,2,
{1},
{1}1h[1:1],
{1},
{1}2-6[4:3],
{1},
{1}7-3[4:3],
{1},
{1}1-5[4:3],
{1},
{1}6,
{1}4/5,
{1}E5,
{1}B5,
{1}B4,
{1}B6,
{1}B3,
{1}B2/B7,
{1}C1hf[1:1],
{1},
{2}8,8,
{1}8,
{2}7,7,
{1}7,
{2}6,6,
{1}6,
{2}5,5,
{1}5x,
{2}4,4,
{1}4,
{2}3,3,
{1}3,
{2}2,2,
{1}2,
{2}1,1,
{1}1b,
{1}8h[1:2],
{1},
{1},
{1},
{1}1h[1:2],
{1},
{1},
{1},
{1}1,
{1}1,
{1}2,
{1}2,
{1}3,
{1}3,
{1}4h[1:1],
{1},
{1}5,
{1}5,
{1}6,
{1}6,
{1}7,
{1}7,
{1}8,
{1}8b,
{4}8,8,8,,
{1}7,
{4}6,6,6,,
{1}4/5,
{4}4,4,4,,
{1}3,
{4}2,2,2,,
{1}1x/8x,
{2}1,1,
{2}2,2,
{2}3,3,
{1}4/5,
{2}5,5,
{2}6,6,
{2}7,7,
{2}8,8,
{1}1b,
{2}8,8,
{2}7,7,
{1}5/6,
{2}4,4,
{2}3,3,
{2}2,2,
{1}1/2,
{2}1,1,
{2}2,2,
{2}3,3,
{1}3/4,
{2}5,5,
{2}6,6,
{2}7,7,
{1}7/8,
{1}1-5[4:3],
{1},
{1},
{1}6,
{1}7-3[4:3],
{1},
{1}2,
{2}1,1,
{1},
{1},
{1},
E
&inote_3=
(200){1},
{1},
{1}3x>6[4:7],
{1},
{1},
{1},
{1}6x<3[4:7],
{1},
{1},
{1},
{1}3xh[1:1],
{1}4h[1:1],
{1}5h[1:1],
{1}6x,
{1}6xh[1:1],
{1}5h[1:1],
{1}4h[1:1],
{1}3x,
{1}3h[1:1],
{1}4,
{1}6h[1:1],
{1}5,
{1}3h[1:1],
{1}4,
{1}6h[2:1],
{1}4/6,
{2}3,3,
{1}3/4,
{2}6,6,
{1}5/6,
{2}3,3,
{1}3/4,
{2}5,5,
{1}4/6,
{2}7h[2:1],8,
{1}8,
{2}2h[2:1],1,
{1}1,
{2}7h[2:1],8,
{1}8,
{2}2h[2:1],1,
{1}2/8,
{4}3,3,3/4,,
{4}6,6,5/6,,
{4}3,3,3/4,,
{4}5,5,4/6,,
{4}7,7,7/8,,
{4}2,2,1/2,,
{4}7,7,7/8,,
{4}1x/8x,1x/8x,2x/7x,,
{4}2b,2,1,1,
{4}8,8,1/7,,
{4}7,7,8,8,
{4}1,1,2/8,,
{4}3,3,4,4,
{4}5,5,4/6,,
{4}6,6,5,5,
{4}4x/5x,4x/5x,3x/6x,,
{4}2,2,1x/2x,1x/2x,
{4}2,1,2/8,,
{4}7,7,7x/8x,7x/8x,
{4}7,8,1/7,,
{4}6,6,5x/6x,5x/6x,
{4}6,5,4,3,
{4}2,2,1,1,
{4}1x/8x,1x/8x,2x/7x,,
{1}3x>4[4:11],
{1},
{1},
{1},
{1}5x<4[4:11],
{1},
{1},
{1},
{1}B4,
{1}B3,
{1}B2,
{1}B1,
{1}B8,
{1}B7,
{1}B6,
{1}C1,
{2}1,1,
{2}2,2,
{2}3,3,
{2}4,4,
{2}5,5,
{2}6,6,
{2}7,7,
{4}8,8,1/7,,
{4}7b,7,8,8,
{4}1,1,2/8,,
{4}3,3,4,4,
{4}5,5,4/6,,
{4}7,7,6/8,,
{4}2,2,1/3,,
{4}2,2,3,3,
{4}4x/5x,4x/5x,3x/6x,,
{4}2,1x/2x,2,1x/2x,
{4}2,1,2x/8x,,
{4}7,7x/8x,7,7x/8x,
{4}7,8,1x/7x,,
{2}2h[2:1],1h[2:1],
{2}8h[2:1],7x,
{2}6h[2:1],5h[2:1],
{2}4h[2:1],3b,
{2}2,1/2,
{2}7,7/8,
{2}2,1/2,
{4}8,8,1/7,,
{2}6,5/6,
{2}3,3/4,
{2}6,5/6,
{4}4,4,3/5,,
{4}2,2,1,,
{4}7,7,8,,
{4}2,2,1,,
{4}8,8,1/7,,
{4}6,6,5,,
{4}3,3,4,,
{4}6,6,5,,
{4}4x/5x,4x/5x,3x/6x,,
{1}2x>6[4:5],
{1},
{1}7x<3[4:5],
{1},
{1}2x>6[4:5],
{1},
{1}7x<3[4:5],
{1},
{1},
{1},
E
&inote_4=
(200){1},
{1},
{1}3h[1:1],
{1}4h[1:1],
{1}5h[1:2],
{1},
{1}6h[1:1],
{1}5h[1:1],
{1}4h[4:7],
{4},,,3,
{4}2/5,5,4,5,
{4}4/7,4,5,4,
{4}3/5,5,6,5,
{4}4,3,E4,E6,
{4}4/7,4,5,4,
{4}2/5,5,4,5,
{4}4/6,4,5,4,
{4}3/5,E4,C1,E8,
{4}1x/6h[4:1],5,6,5/7,
{8}4,4,5h[2:1],,,,4,,
{4}3h[4:1]/8,4,3,2/4,
{8}5,5,4h[2:1],,,,5,,
{4}6,5/6,3,3/4,
{8}5,5,4h[2:1],,,,5,,
{4}4/5,3/6,2V41[2:1]/7V58[2:1],,
{4},,2/7,4/5,
{4}3x/7h[4:1],8,7,1/6,
{8}4,4,5h[2:1],,,,4,,
{4}2h[4:1]/6,1,2,3/8,
{8}5,5,4h[2:1],,,,5,,
{4}7,7/8,2,1/2,
{8}8,8,1h[2:1],,,,8,,
{4}1/8,2/7,3/6,4/5,
{4}E3,E4,E6,E7,
{8}2xh[8:3],,,4h[8:3],,,3,,
{8}4,,5,,6,6,5,,
{8}7xh[8:3],,,5h[8:3],,,6,,
{8}5,,4,,3,3,4,,
{8}2xh[8:3],,,4h[8:3],,,3,,
{8}4,,5,,6,6,5,,
{1}7p2[2:1],
{1}3<6[8:3],
{4}6h[4:1],5,7h[4:1],6,
{8}5,,4,,2,2,1x,,
{4}3h[4:1],4,2h[4:1],3,
{8}4,,5,,7,7,8x,,
{4}6h[4:1],5,3h[4:1],4,
{8}5h[4:1],,4,4,5x,,2x/7x,,
{8}7,7,8,,2,2,1,,
{4}B7/E8,B3/E4,C1f/E2/E6,,
{8}8-4[4:1],8,1,,2-5[4:1],2,6,,
{4}7,6xh[4:1]/8xh[4:1],,2/4,
{8}3-8[4:1],3,5,,7-4[4:1],7,1,,
{4}2,3h[4:1],4,1x/7x,
{8}8-4[4:1],8,1,,2-5[4:1],2,7,,
{4}6,5xh[4:1]/7xh[4:1],,1/2,
{4}3/4,5/6,7/8,1-6[4:1]/2-5[4:1],
{4},,3/8,2b/6b,
{8}1-5[4:1],1,8,,7-4[4:1],7,3,,
{4}2,1xh[4:1]/3xh[4:1],,6/8,
{8}1-5[4:1],1,8,,7-4[4:1],7,2,,
{4}3,2xh[4:1]/4xh[4:1],,5/7,
{8}6-1[4:1],6,4,,2-5[4:1],2,8,,
{4}7,6h[4:1],5,2x/8x,
{4}5/6,3/4,1/2,7-4[4:1]/8-3[4:1],
{4},,1/6,3b/7b,
{1}2h[1:1],
{1}4h[1:1],
{1}5h[1:1],
{1}7h[1:1],
{1}5h[1:1],
{1}4h[1:1],
{1}C1xh[1:1],
{1},
{2}6h[1:1],B5,
{2}3h[1:1],B4,
{2}5h[1:1],E5,
{4}4,5,3/6,,
{1}6>3[2:1],
{1}3<6[2:1],
{4}7,6,5,4,
{4}3,2,C1/E1/E5,,
{2}3h[2:1],4h[2:1],
{4}5,6,4/7,,
{2}6h[2:1],5h[2:1],
{4}4,3,2/5,5<8[2:1],
{4},,,4,
{1}4>1[2:1],
{4}3,4,5,6,
{4}4>1[4:1]/5<8[4:1],,,3b/6b,
{8}1-5[4:1],1,8,,7-4[4:1],7,3,,
{4}2,1xh[4:1]/3xh[4:1],,5/7,
{8}6-1[4:1],6,4,,2-5[4:1],2,8,,
{4}7,6xh[4:1],5x,2x/8x,
{4}1>4[4:1]/7<4[4:1],,,1/7,
{4}2>5[4:1]/8<5[4:1],,,2/8,
{4}5/6,3/4,1/2,7-4[4:1]/8-3[4:1],
{4},,1/6,3b/7b,
{8}8-4[4:1],8,1,,2-5[4:1],2,6,,
{8}7p3[4:1],7,1,,2,,1/2,,
{8}8-4[4:1],8,1,,2-5[4:1],2,7,,
{4}6,5xh[4:1]/7xh[4:1],,2x/4x,
{4}4/5,5x/7x,4/5,1x/3x,
{4}4/5,6x/8x,4/5,1x-5[8:1]/2x,
{4}4,7x/8x-4[8:1],5,1x-5[8:1]/2x-4[8:1],
{4},7x-5[8:1]/8x-4[8:1],,1b,
{8}2h[4:1],,4,4h[4:1],,3,3,,
{4}5,4/6,3,2/4,
{8}7h[4:1],,5,5h[4:1],,6,6,,
{4}4,3/5,6,5/7,
{8}2h[4:1],,4,4h[4:1],,3,3,,
{8}2/5,,4/7,,1,1,8,8,
{8}2h[4:1],,,1h[4:1]/8h[4:1],,,7/8,,
{4}5/6,3/4,1/2,3x/8x,
{8}7h[4:1],,5,5h[4:1],,6,6,,
{4}3,2/4,7/8,1/6,
{8}2h[4:1],,4,4h[4:1],,3,3,,
{4}6,5/7,1/2,3/8,
{8}7h[4:1],,5,5h[4:1],,6,6,,
{8}4/7,,2/5,,8,8,1,1,
{8}7h[4:1],,,1h[4:1]/8h[4:1],,,1/2,,
{4}7/8,4/5,B1/C1f/B2/B7/B8,,
{1},
{4},,E3,E4,
{1}4h[2:3],
{4},,E7,E6,
{1}5h[1:1],
{1}4h[1:1],
{1}5h[1:1],
{4}4,E5,C1,E1,
{1},
{1},
{1},
E
&inote_5=
(200){1},
{1},
{1},
{1},
{1},
{1},
{1},
{1},
{1},
{8},,,,,4,4/5,,
{8}3/6,,6,4,6,,5/6,,
{8}6,5,6,,5/6,,4/6,,
{8}3/6,,6,5,6,,4/6,,
{8}6,4,6,,4/6,,5/6,,
{8}3/6,,6,4,6,,4/6,,
{8}5/6,,6,4,6,,4/6,,
{4}5/6,6,6,6,
{4}5/6,4/6,3/6,2/6,
{4}2/5,2/5,3/5,5,
{4}2-4[8:1]/5,5,5,4/5,
{4}4/5,4/5,3/5,5,
{4}1-4[8:1]/5,5,5,4/5,
{4}3/5,2-7[8:1]/5,5,5,
{4}5/7-2[8:1],5,5,2/5,
{4}2/5,3/5,4/5,4/5,
{4}5,5,4/5,4/5,
{4}4/6,4/6,4/5,4,
{4}4/7-5[8:1],4,4,4/5,
{4}4/5,4/5,4/6,4,
{4}4/7-3[8:1],4,4,4/5,
{4}4/6,4/7,4/8,4,
{4}4/7-2[8:1],4,4,4/7,
{4}4/7,4/6,4/5,4/5h[1:1],
{4}E5,E4,E3,E2,
{8}1-5[8:1]/6,,7,7h[4:1],,4,4/6-3[8:1],,
{4}1-5[8:1],7-4[8:1],3-6[8:1],7,
{8}3/8-4[8:1],,2,2h[4:1],,4,3/5,,
{2}1<6[8:1]/2>5[8:1],7<4[8:1]/8>3[8:1],
{8}1-5[8:1]/6,,7,7h[4:1],,4,4/6-3[8:1],,
{4}1-5[8:1],7-4[8:1],3,3/7,
{4}6>3[8:1],1,2q6[8:1],8,
{4}7>2[8:1],4,5,4/6,
{8}3h[4:1],,4,4,1,1,7-2[8:1],,
{4}3-6[8:1],8-5[8:1],1,3/7,
{8}6h[4:1],,5,5,8,8,2-7[8:1],,
{4}5,4v1[8:1]/6v1[8:1],,3/7,
{8}6h[4:1],,5,5,8,8,3,3,
{8}6,4,5h[4:1],,4,,3/6,,
{8}1-4[8:1],,1x/8-5[8:1],,1/8x,,1/8,7,
{4}4/6,3-8[8:1]/4-7[8:1],3x/4x,2b/5b,
{8}6,5,3/4-8[8:1],,1,1,2-5[8:1]/7-3[8:1],,
{8}2/7,,2/6,,5,5,3/7,,
{4}1-5[8:1]/8-4[8:1],1/8,1>4[8:1]/8<5[8:1],1/8,
{8}1/8,,B4/E4/B5/E6,,8,8,3/7,,
{4}2-6[8:1],2/8-4[8:1],1-5[8:1]/8,1/7-3[8:1],
{8}1,1,2/6,,4/7,6,2/5,,
{4}3-7[8:1],6-2[8:1],1V35[4:1],5s1[4:1],
{16}8h[4:1],,,,,,,,1,8,1,8,2b,,,,
{8}3,4,5-1[8:1]/6,,8,8,2-6[8:1]/7-4[8:1],,
{8}2/7,,3/7,,4,4,2/6,,
{4}8-5[8:1],1-4[8:1],7-5[8:1],2-4[8:1],
{8}8,8,3/7,,2/5,3,4/7,,
{4}3-1[8:1],6-8[8:1],4-1[8:1],5-8[8:1],
{8}4,,2/6,,1,1,2-6[8:1]/8,,
{4}1-5[8:1],8-4[8:1],7-3[8:1],1h[4:1],
{8}8b,,3b/7b,,2/4,3,5/6,7,
{1}1-4[2:3]/8,
{1},
{1}8-5[2:3],
{1},
{1}1-4[2:3],
{1},
{1}8-5[2:3],
{1},
{8}4/6h[4:1],,,4/6h[4:1],,,4/6,,
{8}3h[4:1]/5,,,3h[4:1]/5,,,3/5,,
{8}4/6h[4:1],,,4/6h[4:1],,,4/6,,
{4}C1,E1,E3/E7,,
{8}3h[4:1]/5,,,3h[4:1]/5,,,3/5,,
{8}4/6h[4:1],,,4/6h[4:1],,,4/6,,
{8}3h[4:1]/5,,,3h[4:1]/5,,,3h[4:1]/5h[4:1],,
{4},,,4/5,
{8}3/6,,3,,3,4,3,,
{8}3,5,3,,3,4,3,,
{8}3/5,,3,,3,5,3,6,
{8}3,4,3,5,3,4,3,4,
{8}3,,3,,3,4,3,,
{8}3,5,3,,3,5,3,,
{8}3/6,,3,,3,4,3/5<4[2:1],,
{4},,,2b/7b,
{8}3,4,5-1[8:1]/6,,8,8,2-6[8:1]/7-4[8:1],,
{8}2/7,,3/7,,4,4,2/6,,
{4}8-5[8:1],1-4[8:1],7-5[8:1],2-4[8:1],
{8}8,8,3/7,,2/5,6,3/7,,
{4}2-7[8:1]/4-6[8:1],2x/4x,8,4/8,
{4}5-3[8:1]/7-2[8:1],5x/7x,1,1/4,
{4}7>2[4:1],2>5[4:1],5<8[4:1],8z4[4:1],
{16}1b,,,,,,,,1,8,1,8,2b,,,,
{8}3,4,5-1[8:1]/6,,8,8,3-8[8:1]/6-2[8:1],,
{8}3/6,,1/7,,5,5,3/7,,
{4}8-5[8:1],1-4[8:1]/8x,1x/7-5[8:1],2-4[8:1]/7x,
{8}2x/8,8,3/7,,4/5,,1-5[8:1]/7-4[8:1],,
{4}1x/7x,2-5[8:1]/6-1[8:1],2x/6x,2>4[8:1]/7<5[8:1],
{4}2x/7x,2v7[8:1]/6>3[8:1],2x/6x,4-1[8:1]/6v8[8:1],
{4}4b/6b,4v1[8:1]/5-8[8:1],4b/5b,3-1[8:1]/5p8[8:1],
{4}3b/5b,4>1[8:1]/5<8[8:1],4b/5b,4-1[8:1]/5-8[8:1],
{8}4b/5b,,,,,3,2-6[8:1]/4,,
{4}2/7-2[8:1],4-1[8:1]/7,4/8-5[8:1],2/8,
{8}4/6,,3,2/4,,6,5/7-3[8:1],,
{4}2-6[8:1]/7,2/8-5[8:1],1-4[8:1]/8,1/8,
{8}3/7,,6,5/7,,3,2-6[8:1]/4,,
{8}2/7-3[8:1],,1/7,,8,8,1,7,
{8}2/6,,1/2,3/8,,7/8,1>5[4:1]/6,,
{4}5<1[4:1],1>5[4:1],5,1b,
{8}4/7,,3,2/4,,6,5/7-3[8:1],,
{4}2-7[8:1]/7,2/5-8[8:1],1-4[8:1]/5,1/7,
{8}3/5,,6,5/7,,3,2-6[8:1]/4,,
{4}2/7-3[8:1],1-4[8:1]/7,1/8-5[8:1],1/8,
{8}2/6,,3,2/4,,6,5/7-3[8:1],,
{8}2-6[8:1]/7,,2/8,,1,1,8,2,
{8}3/7,,7/8,1/6,,1/2,3/8<4[4:1],,
{4}4>8[4:1],8<4[4:1],C1f,,
{8}3/6,,6,4,6,,5/6,,
{8}6,5,6,,5/6,,4/6,,
{8}3/6,,6,5,6,,4/6,,
{8}6,4,6,,4/6,,5/6,,
{8}3/6,,6,4,6,,4/6,,
{8}5/6,,6,4,6,,4/6,,
{4}5/6,6,6,6,
{4}5/6,4/6,3/6,2/6,
{1},
{1},
{1},
E
