&title=乙女解剖
&wholebpm=134
&artist=DECO*27
&des=隅田川星人
&shortid=11187
&genre=niconicoボーカロイド
&cabinet=DX
&version=maimai DX Splash
&chartconverter=Neskol
&lv_2=2
&des_2=
&lv_3=6
&des_3=
&lv_4=8+
&des_4=サファ太
&lv_5=12
&des_5=隅田川星人
&des_6=
&inote_2=
(134){1},
{1},
{1}4h[1:1],
{1},
{1}4h[1:1],
{1},
{1}5h[1:1],
{1},
{1}4h[2:1]/5h[2:1],
{2}4,4,
{1}4,
{2}3,3,
{1}3,
{2}2,2,
{1}2,
{2}1,1,
{1}1b/8b,
{2}8,8,
{1}8,
{2}7,7,
{1}7,
{1}6h[1:1],
{1},
{2}5,5,
{1}4b/5b,
{2}4,4,
{1}4,
{2}3,3,
{1}3,
{1}2h[1:1],
{1},
{2}1,1,
{1}1x/8x,
{1}B1,
{1}B8,
{1}B2,
{1}B7,
{1}B1/B8,
{1}C1hf[1:1],
{1},
{4}1,1,1,,
{4}2,2,2,,
{4}3,3,3,,
{4}4,4,4,,
{1}5h[2:1],
{1}4h[2:1],
{4}5,5,5,,
{1}5x/6x,
{4}8,8,8,,
{4}7,7,7,,
{4}6,6,6,,
{4}5,5,5,,
{1}4h[2:1],
{1}5h[2:1],
{4}4,4,4b/5b,,
{2}3,3,
{4}2,2,2,,
{2}1,1,
{2}1/8,1/8,
{1}8-4[4:3],
{1},
{2}4,4,
{1}4b/5b,
{1},
{1}B5,
{1}B6,
{1}B7,
{1}B1/B8,
{1}B2,
{1}B3,
{1}C1hf[1:1],
{1},
{4}8,8,8,,
{4}7,7,7/8,,
{4}6,6,6,,
{4}5,5,4/5,,
{1}3h[2:1]/4h[2:1],
{1}5h[2:1]/6h[2:1],
{4}4,4,4x/5x,,
{1}4-1[4:3]/5-8[4:3],
{1},
{1},
{1},
E
&inote_3=
(134){1},
{1},
{1}3h[1:1],
{1}4h[1:1],
{1}5h[1:1],
{1}6,
{1}6h[1:1],
{1}5h[1:1],
{2}4,4x/5x,
{4}3,3,3/4,,
{4}6,6,5/6,,
{4}3,3,4,4,
{4}5,5,4/6,,
{4}7,7,7/8,,
{4}2,2,1/2,,
{4}3,3,4,4,
{8}4/5,,3x/6x,3x/6x,,,,,
{4}3,3,4,,
{4}6,6,5,,
{4}3,3,4,,
{4}6,5,4/6,,
{2}7h[2:1],8h[2:1],
{2}1h[2:1],2,
{4}2,2,1,8,
{1}1xh[2:1]/7xh[2:1],
{4}7x,7x,6,,
{4}4,4,3,,
{4}2,2,1,,
{4}8,7,1/7,,
{2}6h[2:1],5h[2:1],
{2}4h[2:1],3,
{4}2,2,1,1x/8x,
{1}2xh[2:1]/7xh[2:1],
{2}B4/B5,B3/B6,
{1}B2/B7,
{2}B3/B6,B2/B7,
{1}B1/B8,
{4}E3,B3,B4,,
{4}E7,B6,B5,,
{1}C1hf[2:1],
{4}1x,1x,2,3,
{4}3/4,3/4,2/5,,
{4}5,5,6,7,
{4}1/8,1/8,2/7,,
{4}2,1/2,3/8,,
{4}7,7/8,1/6,,
{4}6,6,7,8,
{8}1/8,,2x/7x,2x/7x,,,,,
{4}8x,8x,7,6,
{4}5/6,5/6,4/7,,
{4}4,4,3,2,
{4}1/2,1/2,3/8,,
{2}2h[2:1],3h[2:1],
{2}4h[2:1],5,
{4}4/5,3/6,2x/7x,,
{1}1-4[2:1],
{1}5-8[2:1],
{1}1-5[2:1],
{4}6,6,6,,
{1}7-3[2:1],
{1}2-6[2:1],
{1}7-4[2:1],
{4}3,2,1b/8b,,
{1},
{2}B4,B3,
{1}B2/E3,
{2}B5,B6,
{1}B7/E7,
{2}B5/B6,B3/B4,
{2}B7/E7,B2/E3,
{1}C1hf[1:1],
{4},,,1x/8x,
{4}2x/7x,2x/7x,3,4,
{4}5/6,5/6,4/7,,
{4}3x/6x,3x/6x,2,1,
{4}7/8,7/8,1/6,,
{4}2h[4:1],1,3/8,,
{4}7h[4:1],8,1/6,,
{4}1/8,2/7,3/6,4/5,
{1}2b/7b,
{1},
{1},
{1},
E
&inote_4=
(134){1},
{1},
{4}4h[4:7],5,,5,
{4},6,,5,
{4}5h[4:7],4,,4,
{4},3,,4,
{4}6h[4:3],5,,4,
{4}3h[4:3],4,,5,
{4}4,4/5,3/6-4[8:1],,
{4}3,2,2/5,3/4,
{4}6,7,4/7,5/6,
{4}3,2,2/5,3/4,
{8}4/6,,3/5,,4,4,5,,
{4}3,2,2/4,3/5,
{4}6,7,5/7,4/6,
{4}2h[4:1],1,7h[4:1],6,
{8}4,4,5,5x,,3/6,3/6,,
{8}5/6h[2:1],,5,,5,,7,7h[2:1],
{8},5,,5,,5/6,5/6,,
{8}3h[2:1]/4,,4,,4,,2,2h[2:1],
{8},4,,4x,,1,1,,
{4}2h[4:1],3h[4:1],4,3/5,
{4}7h[4:1],6h[4:1],5,4/5,
{4}3,2/4,5,4/6,
{8}3/7,3h[2:1]/7h[2:1],,,,,3x/7x,,
{8}1/2h[2:1],,1,,1,,3,3h[2:1],
{8},4,,4,,4/6,4/6,,
{8}7h[2:1]/8,,8,,8,,6,6h[2:1],
{8},5,,5x,,4/5,4/5,,
{4}3h[4:1],2h[4:1],1,1/8,
{4}7h[4:1],6h[4:1],5,4/5,
{8}3,,1,,7,,3/6,3h[2:1]/6h[4:1],
{8},,,,,5,4x,,
{4}6>3[4:1],,2,2,
{4}3<6[4:1],,7,7,
{4}7>2[4:1],,3,3,
{1}C1xh[2:1],
{4}7/8,5/6,3/4,1/2>7[4:3],
{1}8x,
{8},1,1/8,,2/7,,4b/5b,,
{2}1-5[8:1]/2-5[8:1],1-5[8:1]/2-5[8:1],
{8}4/6,,7,,3,3,2/4,,
{2}7-4[8:1]/8-4[8:1],7-4[8:1]/8-4[8:1],
{8}3/5,,2,,6,6,5/7,,
{4}5/6h[4:1],2,3h[4:1]/4,7,
{4}5/6h[4:1],1<6[4:1]*>4[4:1],,,
{4}5h[4:1],6h[4:1],7h[4:1],8,
{8}1,1,8,8x,,3/6,3/6,,
{2}7-4[8:1]/8-4[8:1],7-4[8:1]/8-4[8:1],
{8}3/5,,2/4,,6,6,5/7,,
{2}1-5[8:1]/2-5[8:1],1-5[8:1]/2-5[8:1],
{8}4/6,,5/7,,3,3,2/4,,
{4}2h[4:1],4h[4:1],5h[4:1],7h[4:1],
{4}5h[4:1],4h[4:1],2h[4:1],8<3[8:3],
{8},,,,,2/7,2b/7b,,
{2}1-4[4:1],5-8[4:1],
{4}E1,C1,E6,B6/B7,
{2}4-1[4:1],8-5[4:1],
{4}E5,C1,B7/B8/E8,,
{2}2-5[4:1],6-1[4:1],
{4}E2,C1,E6,4x/7x,
{4}4,2/6,5,3/7>4[2:1],
{4}1x,,,E5,
{1}C1f,
{1}4h[2:1]/5h[2:3],
{1}4h[2:5],
{1}5h[2:1],
{1}5h[2:1],
{4}6h[2:1],4,5,7,
{4}3h[2:1],5,4,2,
{2}1/8h[1:1],C1hf[2:1],
{4},,,1b,
{2}7-3[8:1]/8-3[8:1],7-3[8:1]/8-3[8:1],
{8}2/4,,1/8,,6,6,5/7,,
{2}1b-6[8:1]/2b-6[8:1],1-6[8:1]/2-6[8:1],
{8}5/7,,1/8,,3,3,2/4,,
{4}1h[4:1]/8,3h[4:1],5h[4:1],7h[4:1],
{4}8h[4:1],6h[4:1],4h[4:1],2h[4:1],
{4}1bw5[4:1],,,3x/7x,
{1}C1f/B2/B6,
{1},
{1},
{1},
E
&inote_5=
(134){1},
{1},
{4}3/5x,3xh[2:3],,4,
{4},4,,4,
{4}5,6xh[2:3],,5,
{4},5,,5,
{8}4,,3xh[8:11],,5,,4,4,
{8},5,,6,,7,,8,
{8},1x,1xh[4:1],,7h[4:1],,C1f,,
{16}2q4[4:1]/8h[4:1],,,,,,,,7,,,4/6,,,3/5,,
{8}2h[4:1],3,4h[4:1],3,2h[8:1],3,3/4,,
{16}2q4[4:1]/8h[4:1],,,,,,,,7,,,4/6,,,3/5,,
{8}2h[4:1],3,4h[4:1],3,2,1/8,2/7,,
{16}1h[4:1]/7p5[4:1],,,,,,,,2,,,3/5,,,4/6,,
{8}7h[4:1],6,5h[4:1],6,7h[8:1],6,5/6,,
{16}1h[4:1]/7p5[4:1],,,,,,,,2,,,3/5,,,4/6,,
{16}1/8,,2/7,,4/5,,3x/6x,3x/6x,,,,,B3/E3/B6/E7,,,,
{8}2-7[8:1],,6-3[8:1],,8-4[8:1],,5,5h[2:1],
{8},8,1,2h[8:5],,4,5,6,
{8}7-3[8:1],,4-1[8:1],,5,6,7,8h[2:1],
{8},5,4,3h[8:3],,,B4/B5/E5,,
{12}3,4,2,6,5,7,3,4,2,6,5,7,
{16}3,4,3,4,3h[8:1],,4,,6,5,6,5,6h[8:1],,5,,
{8},1,2,3,4/5,6,7/8,1,
{8}2/4,2h[8:1]/4h[8:1],,5h[8:1]/7h[8:1],,1x/8x,2x/7x,,
{8}7-2[8:1],,3-6[8:1],,1-5[8:1],1,4,4h[2:1],
{8},2,1,8h[8:5],,5,4,3,
{8}2-6[8:1],,5-8[8:1],,4,3,2,1h[2:1],
{8},4,5,6h[8:3],,,B4/B5/E5,,
{12}6,5,7,3,4,2,6,5,7,3,4,2,
{16}6,5,6,5,6h[8:1],,5,,3,4,3,4,3h[8:1],,4,,
{8},7,6,5,3/4,2,1/8,2/7h[2:1],
{8},B1/E1/B8,,B4/B5/E5,,2/7,2/7,,
{4}3qq6[2:1]/4h[4:1],,B5,B7,
{4}5h[4:1]/6pp3[2:1],,B4,B2,
{4}3qq6[2:1]/4h[4:1],,B5,E8,
{4}B1/E1,B4/E5,C1,,
{4}3xq5[4:1],7x,6xp4[4:1],2x,
{16}3x,,3/4,,4/5,,5/6,,6,4,6,4,5,3,5,3,
{8},1/8,2/7,4/5,3b/6b,,1-6[8:1]/8<6[8:1],,
{8}1b>3[8:1]/8b-3[8:1],,1b/8b,,6>3[4:1],6,3qq6[16:5],3,
{8},4x,,2x,1,7,1>3[8:1]/8-3[8:1],,
{8}1b-6[8:1]/8b<6[8:1],,1b/8b,,3<6[4:1],3,6pp3[16:5],6,
{8},5x,,7x,8,1,2,3,
{8}4w8[8:1]/5,,4x,,5,6,7,8<5[8:1],
{8},8>3[8:1],,8,,,1/2,3h[8:1]/8h[8:1],
{8},7/8,7/8,1h[8:1]/6h[8:1],,1/8,2/7,,
{16}4/6,,3/5,,1/8,,2x/7x,2x/7x,,,,,1>3[8:1]/8-3[8:1],,,,
{8}1b-6[8:1]/8b<6[8:1],,1b/8b,,3<6[4:1],3,6pp3[16:5],6,
{8},5x,,7x,8,2,1-6[8:1]/8<6[8:1],,
{8}1b>3[8:1]/8b-3[8:1],,1b/8b,,6>3[4:1],6,3qq6[16:5],3,
{8},4x,,2x,1,8,7,6,
{8}4/5w1[8:1],,5x,,3,2,1,8<5[8:1],
{8},8>3[8:1],,8-4[8:1],,8,,2/6,
{16},,1/5,,2/6,,3/7,,3/7,,,,4x/8x,3x/7x,2x/6x,1x/5x,
{16}4xh[8:1]/8xh[8:1],,,,2h[8:1]/6h[8:1],,,,4h[8:1]/7h[8:1],,,,6,5,6,,
{16}2/7,,3,4,3,,2/7,,6,5,6,,2/7,,2/7,,
{16}3,5,3,5,3,,2/7,,6,4,6,4,6,,2/7,,
{16}2,4,2,4,3,5,3,5,4,6,4,6,4,,2/7,,
{16}3,4,2h[8:1],,6,5,7h[8:1],,3,4,2h[8:1],,6,5,7,,
{16}3h[8:1]/5h[8:1],,,,4h[8:1]/6h[8:1],,,,2h[8:1]/5h[8:1],,,,1,,1,8h[16:3],
{16},5,7,1h[16:3],,4,2,8h[16:3],,5,7,1h[16:3],,,4,2,
{16}8,,5/7,,2/4,,3x/6x,3x>6[16:15]/6x,,,,,C1hf[4:1],,,,
{1},
{4}3xh[1:2],C1,C1,C1,
{4}C1,C1,C1,C1,
{4}6xh[1:2],C1,C1,C1,
{4}C1,C1,C1,C1,
{4}3xh[1:1],B4,C1,B8,
{4}6xh[4:3],B5,C1,B1,
{4}6h[8:1],3h[8:1]/4,4/7h[8:1],2h[8:1]/5,
{16}1/8,,2/7,,4/5,,2x/7x,2x/7x,,,,,1-6[8:1]/8<6[8:1],,,,
{8}1b>3[8:1]/8b-3[8:1],,1b/8b,,6>3[4:1],6,3qq6[16:5],3,
{8},4x,,2x,1,7,1>3[8:1]/8-3[8:1],,
{8}1b-6[8:1]/8b<6[8:1],,1b/8b,,3<6[4:1],3,6pp3[16:5],6,
{8},5x,,7x,8,1,2,3,
{8}4w8[8:1]/5,,4x,,6,7,8,1>4[8:1],
{8},1<6[8:1],,1-5[8:1],,1,,3/7,
{8},4/6,3/5,2/7,1-5[8:1]/8-4[8:1],2/7,1x/8x,,
{1}C1f/B2/B3/B6/B7,
{1},
{1},
{1},
E
