&title=レーイレーイ
&artist=かいりきベア feat.松下
&first=0
&des=シチミヘルツ
&wholebpm=188
&shortid=11177
&genre=オンゲキCHUNITHM
&cabinet=DX
&version=maimai DX Splash
&chartconverter=Neskol
&des_2=
&des_3=
&des_4=華火職人
&des_5=シチミヘルツ
&des_6=13+
&lv_2=4
&lv_3=7+
&lv_4=10
&lv_5=13
&inote_2=(188){1},
{1},
{1},
{1},
{1}1h[1:1],
{1},
{1}1h[1:1],
{1},
{1}8h[1:1],
{1},
{1}8h[1:1],
{1},
{2}1,1,
{1}1x/8x,
{1}8,
{1}8,
{1}7h[1:1],
{1},
{1}6,
{1}6,
{1}5h[1:1],
{1},
{2}4,4,
{1}4,
{1}3h[1:1],
{1},
{2}2,2,
{1}2,
{1}1h[1:1],
{1},
{1}B2,
{1}B3,
{1}B4,
{1}B5,
{1}B6,
{1}B7,
{1}B1/B8,
{1}B2/B7,
{1}C1hf[1:1],
{1},
{2}1,1,
{4}2,2,2,,
{2}3,3,
{2}3/4,3x/4x,
{2}5,5,
{4}6,6,6,,
{2}7,7,
{4}8,1,8b,,
{1}1x-5[4:3],
{1},
{1}6,
{1}7,
{2}8,8,
{2}1,1,
{2}1/8,1/8,
{1}2x/7x,
{1}8x-4[4:3],
{1},
{1}3,
{1}2,
{1}1h[1:1]/2h[1:1],
{1},
{1}7h[1:1]/8h[1:1],
{1},
{2}1,1,
{1}1,
{2}2,2,
{1}2,
{2}3,3,
{1}3,
{2}4,4,
{1}4/5,
{1}B6,
{1}B5,
{1}B4,
{1}B3,
{1}B4/B5,
{1}B3/B6,
{1}C1hf[1:1],
{1},
{4}8x,8,8,,
{4}7,7,7,,
{1}6h[2:1],
{2}5/6,5x/6x,
{4}4,4,4,,
{4}3,3,3,,
{2}1/2,1/2,
{4}8,8,8b,,
{4}1,1,1,,
{4}2,2,2,,
{1}3h[2:1],
{2}3/4,3x/4x,
{1}5h[2:1],
{4}5,5,4/5,,
{1}4h[2:1],
{4}4,4,4/5,,
{1}5h[2:1],
{4}5,5,4x/6x,,
{1}4h[2:1],
{4}4,4,3x/5x,,
{2}4/6,4x/6x,
{4}5,4,5b,,
{2}4,4,
{2}3,3,
{2}2,2,
{4}1,1,1,,
{2}8,8,
{2}7,7,
{2}6,6,
{4}5,5,5,,
{1}4xh[2:1]/6xh[2:1],
{1}3xh[2:1]/5xh[2:1],
{1},
{1},
{1},
E
&inote_3=(188){1},
{1},
{4}4x,4x,5x,5x,
{2}4x/5x,3x/6x,
{4}3,3,4,,
{4}6,6,5,,
{4}3,3,4,,
{2}4/5,3/6,
{4}7,7,8,,
{4}2,2,1,,
{4}7,7,8,,
{4}1,1,8,8,
{1}1-4[4:3]/8-5[4:3],
{2},3/6,
{2}6h[2:1],5,
{2}3h[2:1],4,
{2}6h[2:1],5,
{4}4,4,3,,
{2}2h[2:1],1,
{2}7h[2:1],8,
{1}1>4[4:3],
{2},4/5,
{4}6,6,5/6,,
{4}3,3,3/4,,
{4}2,2,1,1,
{2}1/8,2/7,
{4}7,7,7/8,,
{4}6,6,5/6,,
{4}4,4,5,5,
{2}4/5,3/6,
{2}E4,E3,
{2}E2,E1,
{2}E8,E7,
{2}E6,E5,
{2}B3/E4,B6/E6,
{1}C1xh[2:1],
{4}E7,B6,B5,,
{4}E3,B3,B4,,
{1}C1hf[1:1],
{1},
{4}2x,2,3,4,
{4}5/6,5/6,4/7,,
{4}7,7,6,5,
{4}3/4,3/4,2/5,,
{4}3,3,2,1,
{4}7/8,7/8,1/6,,
{4}8,8,1,1,
{4}1/8,1/8,2b/7b,,
{1}1x-4[2:1],
{1}5x-8[2:1],
{4}1,1,2,2,
{4}3,3,3x/4x,,
{4}6,6,5/7,,
{4}3,3,2/4,,
{1}1h[2:1]/8h[2:1],
{4}1/8,1/8,2b/7b,,
{1}8x-5[2:1],
{1}4x-1[2:1],
{4}8,8,7,7,
{4}6,6,5x/6x,,
{1}7-4[4:3]/8-3[4:3],
{2},2/5,
{1}1-6[4:3]/2-5[4:3],
{2},4x/7x,
{4}6,6,5,5,
{4}4,3,2/5,,
{4}3,3,4,4,
{4}5,6,4/7,,
{4}7,7,8,8,
{4}1,2,3/8,,
{4}1,1,8,8,
{8}1/8,,2x/7x,2x/7x,,,,,
{2}2h[2:1],3h[2:1],
{2}4h[2:1],5,
{2}7h[2:1],6h[2:1],
{2}5h[2:1],4,
{1}3h[2:1]/4h[2:1],
{1}5h[2:1]/6h[2:1],
{1}C1xh[2:1],
{4}1b/8b,,2/7,2/7,
{4}6x,5,4,3,
{4}3/4,3/4,2/5,2/5,
{4}3,4,5,6,
{4}5/6,5/6,4x/7x,,
{4}7h[4:1],8,1/6,,
{4}2h[4:1],1,3/8,,
{1}1h[2:1]/8h[2:1],
{4}1/8,2/7,3b/6b,,
{1}4x>1[2:1],
{1}8x<5[2:1],
{4}4,4,3,3,
{4}1/2,1/2,3b/8b,,
{1}1-6[4:3]/2-5[4:3],
{2},4x/7x,
{1}7-4[4:3]/8-3[4:3],
{2},2x/5x,
{1}3-8[4:3]/4-7[4:3],
{2},1x/6x,
{1}5-2[4:3]/6-1[4:3],
{2},3x/8x,
{4}4,4,5,5,
{4}4/5,3/6,2b/7b,,
{4}7h[2:1],,8,8,
{4}1,2,3/8,,
{4}2h[2:1],,1,1,
{4}8,7,1/6,,
{4}6h[2:1],,5,5/6,
{4}4,3,2/5,,
{4}3h[2:1],,4,3/4,
{4}5,6,4/7,,
{8}3/5,,3/5,,4,4,,5x,
{8},4x/6x,,3x/7x,,,,,
{1},
{1},
{1},
E
&inote_4=(188){1},
{1},
{4}B5/E6,B4/E4,B8/E8,B1/E2,
{1}C1hf[4:3],
{8}1/8,,2,2,,3/5,,6h[4:1],
{8},7h[4:1],,8h[4:1],,1,1,,
{8}4/7,,6,6,,3/5,,2h[4:1],
{8},1h[4:1],,8h[4:1],,7,7b,,
{8}1/6,,2,2,,3/5,,6h[4:1],
{8},7h[4:1],,8h[4:1],,1,1,,
{8}3/5,,7,7,,2/8,,1/7,
{8},4/6,,2b/8b,,1,1,,
{8}2/7,,3/6,,4/5,4/5,,5/7,
{8},2/4,,1b/8b,,2,2,,
{4}3h[4:7]/5,,4,4,
{4}4,4,5,6,
{1}7p2[16:7],
{4}3<6[4:1],,,5/7,
{4}4/6h[4:7],,5,5,
{4}5,5,4,3,
{1}2z6[4:3]/7s3[4:3],
{4},,,2b/7b,
{8}1,,2/8,,7,7,1/6,,
{8}2,,3/8,,7,7,1/6,,
{1}2q7[16:7]/7,
{4}6v3[4:1],,,3b/4b,
{8}5,,4/6,,3,3,2/5,,
{8}6,,4/7,,3,3,2/5,,
{1}4/7p2[16:7],
{4}3v6[4:1],,,4b/6b,
{6}6xh[3:1],,5x,5xh[3:1],,4x,
{6}4xh[3:1],,3x,3b,,,
{6}2xh[3:1],,4x,4xh[3:1],,5x,
{6}5xh[3:1],,7x,7b,,,
{6}2,2,2,7,7,7,
{6}1/8,1/8,1/8,2-4[8:1]/7-5[8:1],,,
{4}3,2/4,6,5/7,
{4}3,1/4,6,5/8,
{8}1-4[8:1],,8,8-5[8:1],,1,1b,,
{8},8x,8x,2x,8x,,,,
{4}4/5,7<4[4:1]/8p3[4:1],,,
{8}2,2,1/3,,1/7h[4:1],,1,,
{8},,4/6,,3-8[8:1]/5,,4,4,
{8},1x/7x,,2x/8x,,3b/6b,3b/6b,,
{4}4/5,1q6[4:1]/2>5[4:1],,,
{8}7,7,6/8,,2h[4:1]/8,,8,,
{8},,3/5,,4/6-1[8:1],,5,5,
{8},1b/8b,1b/8b,,2b/7b,,3,3h[4:1],
{8},8,8,,1/2,1/2-4[8:1],,8-6[8:1],
{8},2-4[8:1],,8-6[8:1],,2>7[16:7],,8,
{8},,,,1/8,1/8,,2h[8:3],
{8},4,4,,1b/5b,,3/7,,
{8}6,5,7,7,3,4,2p3[16:7],2,
{8},,,,,8,8,,
{8}4/5,,2q7[4:1],2,,,,1/8,
{8},4/5,4/5,,2b/7b,,6,6h[4:1],
{8},1,1,,7/8,7-5[8:1]/8,,1-3[8:1],
{8},7-5[8:1],,1-3[8:1],,7<2[16:7],,1,
{8},,,,1/8,1/8,,7h[8:3],
{8},5,5,,4b/8b,,,,
{8}1/2,1/2,,,7/8,7<2[8:3]/8,,,
{2},1b/8b,
{8}3/5,3/5,,,4/6,4/6<3[8:3],,,
{2},2b/7b,
{8}4/5,,6,6,,1/7,,2h[4:1],
{8},4h[4:1],,5h[4:1],,6,6,,
{8}4/5,,2,2,,1/8,,7h[4:1],
{8},5x,,4x/5x,,2x/4x,,1x/8x,
{8}1x/8x,,7,7,,1/8,,2h[4:1],
{8},4h[4:1],,5h[4:1],,6,6,,
{8}4/5,,2,2,,1/7,,2/8,
{8},4/5,,2b/7b,,,,,
{4}E4,E3,E2,E1,
{4}E8,E7,E6,C1xh[1:2],
{4},8,,8,
{4},8,,8,
{4}E7,B5,B4,E3,
{4}E2,E1,E8,C1,
{8}8h[4:3],,,,1h[4:1],,,1/8,
{8},2b/7b,2b/7b,,1x,1x,1x,8h[4:1],
{8},2,2,,1/7,1/7-4[8:1],,8-3[8:1],
{8},7-4[8:1],,8-3[8:1],,7<2[16:7],,1,
{8},,,,1/8,1/8,,7h[8:3],
{8},5,5,,4b/8b,,2/6,,
{8}3,4,2,2,6,5,7q6[16:7],7,
{8},,,,,1,1,,
{8}4/5,,7p2[4:1],7,,,,1/8,
{8},4/5,4/5,,2b/7b,,8,8h[4:1],
{8},6,6,,3/5,3-8[8:1]/5,,4-7[8:1],
{8},3-8[8:1],,4-7[8:1],,3>6[16:7],,5,
{8},,,,4/5,4/5,,3h[8:3],
{8},1,1,,4b/8b,,,,
{8}5/6,5/6,,,3/4,3>6[8:3]/4,,,
{2},4b/5b,
{8}7/8,7/8,,,1/2,1/2>7[8:3],,,
{2},1b/8b,
{8}6/8,6/8,,,1/3,1p8[8:3]/3,,,
{2},2b/7b,
{8}6/7,6/7,,,2/3,2>7[8:3]/3,,,
{8},,,,1b/8b,,,3h[8:3],
{8},5,5,,1b/7b,,,6h[8:3],
{8},4,4,,2b/8b,,,,
{8}4/5,,3,3,,2/8,,7h[4:1],
{8},5h[4:1],,4h[4:1],,3,3,,
{8}4/5,,7,7,,1/8,,2h[4:1],
{8},4x,,4x/5x,,5x/7x,,1x/8x,
{8}1x/8x,,2,2,,1/8,,7h[4:1],
{8},5h[4:1],,4h[4:1],,3,3,,
{8}4/5,,7,7,,2/8,,1/7,
{8},4/5,,2b/7b,,1,1,,
{8}2/4,,5/7,,3/6,3/6,,1/8,
{8},4/5,,2b/7b,,,,,
{1},
{1},
{1},
E
&inote_5=(188){1},
{16},,,,,,,,,,,,4,5,4,5,
{4}3/6,4/7,3/6,2/5,
{16}3h[2:1]/6h[2:1],,,,,,,,,,4,5,3b/6b,,,,
{16}2,4,3,4,2h[8:1],,6,,2h[8:1],,4,,2h[8:1],,7,,
{8}2h[8:1],5,2,8,2,2/8,3/7,4/6,
{16}7,5,6,5,7h[8:1],,3,,7h[8:1],,5,,7h[8:1],,2,,
{8}7h[8:1],4,7,2h[8:3],,1x,1x,,
{16}7,5,6,5,7h[8:1],,3,,7h[8:1],,5,,7h[8:1],,2,,
{8}7h[8:1],4,7,1,7,1/7,2/6,3/5,
{16}2,4,3,4,2h[8:1],,6,,2h[8:1],,4,,2h[8:1],,8,,
{8}1/7,2/6<4[8:3],,C1f,,,1x,1x,
{8}2/8,,1/7,,4/5,3/6,,1-4[8:1]/8-5[8:1],
{8},1x/8x,,2b/7b,,,,,
{8}3/6,3/6h[8:5],,,5,,5,,
{8}4h[4:1]/7h[4:1],,,2h[8:3]/5h[8:3],,,,,
{4}1/7,5/6<1[4:1],1<6[4:1],3,
{8}3,2,1s5[8:3]/7h[2:1],,,,,,
{8}3/6,3h[8:5]/6,,,4,,4,,
{8}2h[4:1]/5h[4:1],,,4h[8:3]/7h[8:3],,,,,
{1}1s5[8:3]/8h[4:3],
{4}4/5,,8b,1b,
{8}2/4,3,4/5,,5/7,6,4/5,,
{16}2/4,,3,,4/5,,,,7x,5x,6x,4x,5x,,,,
{4}2/6,8p2[4:1],2q8[4:1],,
{8}1,1,1s5[8:3]/8h[2:1],,,,,,
{8}7,6,4/5,,2/4,3,4/5,,
{8}5/7,6,4/5,,2/4,1,2/8,3/7,
{4}4/6,1q7[4:1],7p1[4:1],,
{8}8,8,1s5[8:3]/8h[2:1],,,,,,
{6}E8,E1,E2,E6,E5,E4,
{6}E2/E8,E3/E7,E4/E6,C1xh[3:1],,,
{6}E8,E7,E6,E2,E3,E4,
{6}B2/B7,B3/B6,E4/E6,C1xh[3:1],,,
{6}E2,E1,E8,E4,E5,E6,
{12}B1/E1,,B7/E7,,B3/E3,,C1hf[4:1],,,1b,,,
{16}1h[8:1]/8h[8:1],,,,2h[8:1]/7h[8:1],,,,3,4,3,4,3,,2/5,,
{8},8,6,1,3,5,7,4,
{8}2>6[4:1],,5,7<3[4:1],,2,1,,
{8},1/8,1/8,1/8,2b/7b,,,,
{8}2-6[8:1]/8,,5,,7>2[8:1],3,4,5s1[4:1],
{8},8x,8x,,7-3[8:1],1-5[8:1],7,1,
{8},,2/6,,5/7h[4:1],,1,2-8[8:1]*v4[8:1]/8,
{8},2x,,7-1[8:1]*v5[8:1],,7x,,8,
{8}1/7-3[8:1],,4,,2<7[8:1],6,5,4z8[4:1],
{8},1x,1x,,2-6[8:1],8-4[8:1],2,8,
{8},,3/7,,2/4,,1/8,2/7,
{8},B3/E3,B5/E5,B7/E7,C1f,,,1/8,
{8},1,8<5[8:1],1p4[8:1],,,,6pp8[8:1],
{8},4>1[8:1],,6-2[8:1],,8x>6[8:3],,C1f,
{8},,1,,8x,8x,,2/6V47[4:1],
{8},1,1-5[8:1],,8b,,,,
{8}7-4[8:1],1,,1,2-5[8:1],8,,8,
{8}7-3[8:1],3-7[8:1],,,,1x,1x,,
{8}2/8h[8:5],,2,,2,2>5[8:1],,2/8,
{8},8,8w4[8:1],,8,,,2/6,
{8},8,1>4[8:1],8q5[8:1],,,,3qq1[8:1],
{8},5<8[8:1],,3-7[8:1],,1x<3[8:3],,C1f,
{8},,8,,1x,1x,,3V15[8:3]/7,
{8},6,5>2[4:1]*<8[4:1],,,,,,
{8}1/7,1h[4:1]/7h[4:1],,,3/8,3h[8:1]/8h[8:1],,2/6,
{8},4/8,3-8[8:1]/7-4[8:1],,3/7,,1x/5x,,
{8}2/8,2h[4:1]/8h[4:1],,,1/6,1h[8:1]/6h[8:1],,3/7,
{8},1/5,2-5[8:1]/6-1[8:1],,2/6,,3b/7b,,
{16}2,4,3,4,2h[8:1],,6,,2h[8:1],,4,,2h[8:1],,7,,
{8}2h[8:1],5,2,8,2,2/8,3/7,4/6,
{16}7,5,6,5,7h[8:1],,3,,7h[8:1],,5,,7h[8:1],,2-8[8:1]*v4[8:1],,
{8},,,2-4[8:1]*v8[8:1],,,,2,
{16}2,4,3,4,2h[8:1],,6,,2h[8:1],,4,,2h[8:1],,7,,
{8}2h[8:1],5,2,8,2,2/8,3/7,4/6,
{16}7,5,6,5,7h[8:1],,3,,7h[8:1],,5,,7h[8:1],,2,,
{8}1/8,1/8,1/8,2/7,,,,,
{4}4/5<2[4:5],4,4,4,
{4}4,4,4,4,
{4}4>7[16:19]/5,5,5,5,
{4}5,5,5,5,
{4}4/5<8[2:1],4,4,4,
{4}4/8<5[2:1],4,4,4,
{8}3x/6x,,,,1h[4:1]/8h[4:1],,,2/7,
{8},B2/E3,B4/E4,,1/8,1/8,1/8,2b/7b,
{8},8,4>1[8:1],8q5[8:1],,,,1pp3[8:1],
{8},5<8[8:1],,2-6[8:1],,1x<3[8:3],,C1f,
{8},,8,,1x,1x,,3V52[4:1]/7,
{8},8,8-4[8:1],,1b,,,,
{8}2-5[8:1],8,,8,7-4[8:1],1,,1,
{8}2-6[8:1],6-2[8:1],,,,8x,8x,,
{8}3/8h[8:5],,3,,3,3<6[8:1],,3/8,
{8},8,8w4[8:1],,8,,,2/6h[4:1],
{8},1,5<8[8:1],1p2[8:1],,,,1v6[8:1]/8<6[8:1],
{8},1>3[8:1]/8v3[8:1],,1-4[8:1]/8-5[8:1],,1pp4[4:3]/8qq5[4:3],,1b/8b,
{8},,,,,,,2/6V84[8:3],
{8},3,4pp4[4:1]*qq4[4:1],,,,,,
{8}1/2,1h[4:1]/2h[4:1],,,6/8,6h[8:1]/8h[8:1],,3/7,
{8},1/5,2>5[8:1]/6<1[8:1],,2/6,,4x/8x,,
{8}7/8,7h[4:1]/8h[4:1],,,1/3,1h[8:1]/3h[8:1],,2/6,
{8},4/8,3>8[8:1]/7<4[8:1],,3/7,,1x/5x,,
{8}5/7,5h[4:1]/7h[4:1],,,1/6,1h[8:1]/6h[8:1],,3/7,
{8},1/5,2>5[8:1]/6<1[8:1],,2/6,,4x/8x,,
{8}2/4,2h[4:1]/4h[4:1],,,3/8,3h[8:1]/8h[8:1],,2/6,
{8},4/8,3>8[8:1]/7<4[8:1],,3/7,,1/5,2/6,
{8},4/8,2-5[8:1]/6-1[8:1],,2/6,,4/8,3/7,
{8},1/5,3-6[8:1]/7-2[8:1],,3/7,,4b/8b,,
{16}2,4,3,4,2h[8:1],,6,,2h[8:1],,4,,2h[8:1],,7,,
{8}2h[8:1],5,2,8,2,2/8,3/7,4/6,
{16}7,5,6,5,7h[8:1],,3,,7h[8:1],,5,,7h[8:1],,2-8[8:1]*v4[8:1],,
{8},,,7-5[8:1]*v1[8:1],,,,7,
{16}7,5,6,5,7h[8:1],,3,,7h[8:1],,5,,7h[8:1],,2,,
{8}7h[8:1],4,7,2,7,1/7,2/6,3/5,
{16}2,4,3,4,2h[8:1],,6,,2h[8:1],,4,,2h[8:1],,1,,
{8}2/8,3>5[8:3]/7,,C1f,,,8x,8x,
{8}2-5[8:1]/6-1[8:1],,2/6,,4/8,3-8[8:1]/7-4[8:1],,3/7,
{8},1-4[8:1]/5-8[8:1],,1b/5b,,,,,
{1},
{1},
{1},
E
&inote_6=(188)
{1},
{16}
,,,,,,,,,,,,4,5,4,5,
4x>8[4:1],,,,8<4[4:1],,,,4,,,,8,,,,
2h[2:1]/7h[2:1],,,,,,,,,,1,8,2b/7b,,,,
2/5,,3,,4/7,,6-8[8:1],,,,4-2[8:1],,,,5-7[8:1],,
,,3-1[8:1],,,,5<8[8:1],,,,1x,,2,,3,,
4/7,,6,,2/5,,3-1[8:1],,,,5-7[8:1],,,,4-2[8:1],,
,,6p4[8:3],,,,1h[8:3],,,,,,,,,,
2/5,,3,,4/7,,6-1[8:1],,,,2-5[8:1],,,,7-4[8:1],,
,,3-8[8:1],,,,5<8[8:1],,,,1x,,2,,3,,
4/7,,6,,2/5,,3-8[8:1],,,,7-4[8:1],,,,2-5[8:1],,
,,6pp4[8:3],,,,2h[8:3],,,,,,,,,,
1/7,,,,4/5,,,,2/8,,2/8,,,,1-5[8:1]/8-4[8:1],,
,,1/8,,,,2b/7b,,,,,,,,,,
3/5,,3h[8:7]/5,,,,,,4,,,,4,,,,
4q6[2:1],,,,,,3,,,,,,,,,,
4/6,,4/6h[8:7],,,,,,5,,,,5,,,,
5s1[2:1],,,,,,6,,,,,,,,,,
2/4,,2h[8:7]/4,,,,,,3,,,,3,,,,
4q6[2:1],,,,,,2,,,,,,,,,,
{24}
1/7,,,1h[8:3]/7h[8:3],,,,,,,,,,,,1/7,2/6,3/5,4b,,,,,,
{16}
4/5,,,,3,,3xh[8:5],,,,2x,1x,8x,7x,6x,5x,
4x,,,,2,4,2,4,3,5,4,6,5b,,,,
3,4,3,4,2,5,2,5,1,2,3,4,1,2,3,4,
1/5,,,,7,5,7,5,6,4,5,3,4b,,,,
6,5,6,5,7,4,7,4,8,7,6,5,8,7,6,5,
4/8,,,,7,5,6,4,5,3,4,2,3b,,,,
1,2,3,4,5,6,7,8,1,2,3,4,1,2,3,4,
1/5,,,,2,5,3,6,4,7,5,,4x/8x,,,,
7,6,5,4,3,2,1,8,3bh[4:1]/7bh[4:1],,,,,,,,
{12}
4>1[8:1],,5,,6,,7<4[8:1],,8,,1,,
2<7[8:1],,3,,4,,5bx/6bx,,,,,,
1>4[8:1],,8,,7,,6<1[8:1],,5,,4,,
3<6[8:1],,2,,1,,7b/8b,,,,,,
5-8[8:1],,4,,3,,2-5[8:1],,1,,8,,
7-2[8:1],,6,,5,,4-8b[8:1],,,4b,,,
{16}
1/7,,,,2/4,,,,5/7,,6,,2/4,,3h[8:9],,
,,4,,4,,4,,2,,2,,2,,1,,
1<6[8:1],,,,1,,5>2[8:1],,,,5,,8h[8:3],,,,
,,1,,2/4,,5/7,,1b/8b,,,,,,,,
3-8[8:1]/5,,,,3/7x-4[8:1],,,,1-5[8:1]/7,,2,,1/8,,7bV53[4:1],,
,,2,,2,,,,1,8,7,6,1/5,8,7,6,
1/5,,,,3/4,,2,,5/6,,7,,2/8,,2/8,,
,,A7/B1/B8/E2/E8,,,,A2/B3/B4/E3,,,,A4/B5/B6/E5f,,,,,,
1/7-4[8:1],,,,3-8[8:1]/7,,,,3/5-1[8:1],,6,,5/4,,2bV46[4:1],,
,,7,,7,,,,8,1,2,3,4/8,1,2,3,
4/8,,,,5/6,,7,,3/4,,2,,1/8,,1/8,,
,,1b/7b,,2b/6b,,3b/5b,,4bx,4x,4x,,3/5,,3/5,,
{24}
,,,4/6,,,4/6,,,,,,2/8,,,2/8,,,,,,1h[8:1]/7x,6x,5x,
,,,2x/8h[8:1],3x,4x,,,,1h[8:1]/6x,5x,4x,,,,3x/8h[8:1],4x,5x,,,,1x/7x,2x/6x,3xqq5[12:5]/5x,
{16}
4x,,,,5,,,,7,,,,8,,8p4[8:1],,
,,2/8,,2V46[8:1],,,,2/8,,7,,7,,,,
7<4[8:1],,8,,7,,1,,2>5[8:1],,1,,2,,8,,
7<5p1[4:1],,8,,7,,8h[4:1],,,,,,,,1/8,,
1/8,,,,2,,2,,2,,1/3,,,,4b/5bh[8:5],,
,,A6,A7,A8,A1,A2,A3,A4,,,,5,,4/6,,
{24}
,,,5/7,,,5/7,,,,,,2/4,,,2/4,,,,,,2x/8h[8:1],3x,4x,
,,,1h[8:1]/7x,6x,5x,,,,3x/8h[8:1],4x,5x,,,,1h[8:1]/6x,5x,4x,,,,2/8,3/7,4/6pp4[12:5],
{16}
5,,,,4,,,,2,,,,1,,1-5[8:1],,
,,1/7,,7-3V58[4:1],,,,2h[4:1]/7,,,,,,,,
5/7,,5>2[8:1]/7,,,,,,1,,1<6[8:1],,,,4>1[8:1],,
,,7,,8-3>1[4:1]*-5<7[4:1],,,,8,,,,,,,,
2/4,,2/4<7[8:1],,,,,,8,,8h[4:1],,,,4,,
{32}
,,,,1/5,,,,1/5,,,,,,,,2x,3x,4x,5x,6x,7x,8x,1x,2bx/6bx,,,,,,,,
{16}
4/7,,6,,2/5,,3-1[8:1],,,,5-7[8:1],,,,4-2[8:1],,
,,6-8[8:1],,,,4>1[8:1],,,,8x,,7,,6,,
2/5,,3,,4/7,,6-8[8:1],,,,4-2[8:1],,,,5-7[8:1],,
,,3q5[8:3],,,,8h[8:3],,,,,,,,,,
4/7,,6,,2/5,,3-8[8:1],,,,7-4[8:1],,,,2-5[8:1],,
,,6-1[8:1],,,,4>1[8:1],,,,8,,7,,6,,
2/5,,3,,4/7,,6-2[8:1],,,,1h[4:1],,,,8,,
2/7,,3/6,,4/5,,3b/6b,,,,,,,,,,
E2,,,,E3,,,,E4,,,,E5,,,,
C/E6,,,,E7,,,,E8,,,,E1,,,,
C/E2,,,,E3,,,,E4,,,,E5,,,,
C/E6,,,,A7/B1/B8/E2/E8,,,,A2/B3/B4/E3,,,,A4/B5/B6/E5,,,,
A8/C,,,,A7,,,,A6,,,,A5,,,,
A4/C,,,,A3,,,,A2,,,,A1,,,,
2h[4:1]/B5/B6/E6f,,,,,,,,7h[4:1]/B4/B3/E4f,,,,,,A1/A8f/E2/E8,,
,,5,,4/6,,,,3b,,3b,,3b,,2qq4[2:1]/4,,
{24}
,,,5,,,6,,,7x,,,6,,,5,,,,,,3x/5h[8:1],2x,1x,
,,,1h[8:1]/7x,6x,5x,,,,4x/6h[8:1],3x,2x,,,,4h[8:1]/8x,7x,6x,,,,3/5,2v5V38[24:11]/6,1/7,
{16}
8x,,,,7,,,,6,,,,7,,7p3[8:1],,
,,1/7,,1V35[8:1],,,,1/6,,7,,8,,,,
7-4<6[4:1],,8,,7,,1,,2-5>3[4:1],,1,,2,,8,,
7-3V51[8:3],,8,,7,,8h[4:1],,,,,,,,1/8,,
1/8,,,,6,,6,,6,,5/7,,,,4bh[8:5]/8x,,
{32}
,,,,A5,D6,A6,D7,A7,D8,A8,D1,A1,D2,A2,D3,A3f,,,,,,,,5,,,,4/6,,,,
{24}
,,,3/5,,,3/5,,,,,,2/6,,,2/6,,,,,,1bx-5[8:1]/5bx,2/6,3/7,
,,,1,,,,,,4bx/8bx-4[8:1],3/7,2/6,,,,8,,,,,,2b/6b,3/7,4V27[12:5]/8V63[12:5],
{16}
1/5,,,,,,,,,,,,,,1/5,,
,,4/8,,4pp4b[4:1]*qq4b[4:1]/8,,,,,,,,,,,,
5/7,,5>2[8:1]/7,,,,,,1,,1<6[8:1],,,,4>1[8:1],,
,,7,,8p3[8:1]*q5[8:1],,,,8,,,,,,,,
2/4,,2/4<7[8:1],,,,,,8,,8>3[8:1],,,,5<8[8:1],,
,,2,,1-4-2[4:1]*-6-8[4:1],,,,1,,,,,,,,
5/7,,5>2[8:1]/7,,,,,,1,,1<6[8:1],,,,4>1[8:1],,
,,7,,8V63[4:1]*V25[4:1],,,,8,,,,,,,,
2/4,,2/4<7[8:1],,,,,,8,,8>3[8:1],,,,5<8[8:1],,
,,2,,1v4[8:1]*v6[8:1],,,,A1f,,,,,,5>2[8:1],,
,,7,,8v3[8:1]*v5[8:1],,,,A8f,,,,,,2/6,,
{32}
,,,,3/7,,,,1/5,,,,,,,,2,3,4,5,6,7,8,1,2b/6b,,,,,,,,
{16}
3/8,,7,,1/6,,2-5[8:1],,,,6-2[8:1],,,,1-5[8:1],,
,,7-4[8:1],,,,3>8[8:1],,,,5,,6,,7,,
2/8,,3,,4/8,,7-3[8:1],,,,2-6[8:1],,,,8-4[8:1],,
,,1-3v5<8b[8:3],,,,,,,,,,,,,,
1/6,,2,,3/8,,7-4[8:1],,,,3-7[8:1],,,,8-4[8:1],,
,,2-5[8:1],,,,6<1[8:1],,,,4,,3,,2,,
1/7,,6,,1/5,,2-6[8:1],,,,7-3[8:1],,,,1-5[8:1],,
,,,,,,3bh[8:3]/7bh[4:1],,,,,,,,,,
2/4,,,,5/7,,,,2/6,,2-5[8:1]/6-1[8:1],,,,2x/6x,,
,,3b-8b[8:1]/7b-4b[8:1],,,,3b/7b/Cf/E3/E7,,
