&title=ベノム
&wholebpm=152
&artist=かいりきベア feat.flower
&des=サファ太
&shortid=11194
&genre=niconicoボーカロイド
&cabinet=DX
&version=maimai DX Splash
&chartconverter=Neskol
&lv_2=4
&des_2=
&lv_3=6
&des_3=
&lv_4=9
&des_4=某S氏
&lv_5=12+
&des_5=サファ太
&des_6=
&inote_2=
(152){1},
{1},
{1}1x,
{1}1,
{1}8,
{1}8,
{1}1,
{1}1/8,
{1}8,
{1}1/8,
{2}1,1,
{1}1,
{2}2,2,
{1}2,
{1}3h[1:1],
{1},
{2}4,4,
{1}4x/5x,
{1}5h[2:1],
{2}5,5,
{1}4h[2:1],
{2}4,4b,
{2}5,5,
{1}5,
{2}6,6,
{1}6,
{1}7h[1:1],
{1},
{2}8,8,
{1}1x/8x,
{1}B1,
{1}B8,
{1}B2,
{1}B7,
{1}B3,
{1}B6,
{1}B4/B5,
{1}C1hf[1:1],
{1},
{1},
{2}8,8,
{4}7,7,7,,
{2}6,6,
{4}5,5,4x/5x,,
{2}3,3,
{4}2,2,2,,
{2}1x/8x,1x/8x,
{4}8,8,1b/8b,,
{1}1-4[4:3],
{1},
{1}8-5[4:3],
{1},
{2}1,1,
{1}1h[2:1],
{2}2,2,
{1}2h[2:1],
{2}3,3,
{1}3h[2:1],
{2}4,4,
{1}4h[2:1],
{1}5h[1:1],
{1},
{1}4,
{4}4,4,4b/5b,,
{4}6,6,6,,
{4}7,7,7,,
{2}1x/8x,1x/8x,
{2}2x/7x,2b/7b,
{4}1,1,1,,
{4}2,2,1/2,,
{4}3,3,3,,
{4}4/5,4/5,4x/5x,,
{4}6,6,5/6,,
{4}3,3,3/4,,
{2}4x/5x,4x/5x,
{4}6,5,6,,
{4}3,4,3,,
{4}4/5,4/5,3b/6b,,
{1}3-6[4:3],
{1},
{1}7-2[4:3],
{1},
{1}1-5[4:3],
{1},
{1}8-4[4:3],
{1},
{2}3,4,
{1}5h[8:7]/6h[8:7],
{1},
{1},
{1},
E
&inote_3=
(152){1},
{4},,,4x/5x,
{4}3x,3,3/4,,
{4}6,6,5/6,,
{4}3,3,3/4,,
{4}5,5,4/6,,
{4}7,7,7/8,,
{4}2,2,1/2,,
{4}7,7,7/8,,
{4}1,8,2x/7x,,
{2}3h[2:1],4,
{2}6h[2:1],5,
{2}3h[2:1],4,
{2}5h[4:1]/6h[4:1],5/6,
{1}4-1[8:3],
{1}8-5[8:3],
{4}3,3,4,,
{4}4/5,4/5,3/6,,
{4}6,6,5/6,,
{4}3,3,3/4,,
{4}6,6,5/6,,
{4}4,4,3/5,,
{2}2h[2:1],1,
{2}7h[2:1],8,
{2}2h[2:1],1,
{4}8,1,2/7,,
{1}2>5[8:3],
{1}6<1[8:3],
{4}2,2,1,,
{4}1/8,1/8,2x/7x,,
{1}B1/B2,
{1}B3/B4,
{1}B5/B6,
{1}B7/B8,
{1}B4/B5,
{1}B3/B6,
{2}7,7/8,
{4}2,2,1/2,,
{4}7,7,8,8,
{4}1x/8x,1x/8x,2x/7x,,
{4}2b,1/2,7,7/8,
{4}6,6,5/7,,
{4}7,7/8,2,1/2,
{4}3,4,3/5,,
{4}6,5/6,3,3/4,
{4}2,1,2/7,,
{2}3h[4:1]/6h[4:1],2h[4:1]/7h[4:1],
{4}1/8,1/8,2x/7x,,
{4}3,3,3/4,,
{4}6,6,5/6,,
{4}3,3,3/4,,
{4}5,5,3/6,,
{4}7x,7,8,8,
{4}1,1,2/8,,
{4}3,3,4,4,
{4}5,5,4/6,,
{4}7,7,8,8,
{4}1,1,2/8,,
{4}3,3,4,4,
{4}4x/5x,4x/5x,3b/6b,,
{1}3xh[1:1],
{1}4h[1:1],
{2}5x,6x,
{4}2/7,2/7,1b/8b,,
{4}2,1/2,7,7/8,
{4}1x,2x/7x,3x/6x,,
{2}4xh[4:1]/5xh[4:1],3xh[4:1]/6xh[4:1],
{2}2xh[4:1]/7xh[4:1],1x/8x,
{4}7,7/8,2,1/2,
{4}3,4,3/5,,
{4}6,5/6,3,3/4,
{4}2,1,2/8,,
{4}7,7/8,2,1/2,
{4}3,4,3/6,,
{2}2xh[4:1]/7xh[4:1],3xh[4:1]/6xh[4:1],
{4}4/5,4/5,4/5,,
{4}3/6,3/6,3/6,,
{4}2/7,2/7,2b/7b,,
{4}3,3,3/4,,
{4}6,6,5/6,,
{4}3,3,3/4,,
{4}5,5,4/6,,
{4}7,7,7/8,,
{4}2,2,1/2,,
{4}7,7,7/8,,
{4}1,8,2x/7x,1xpp4[1:1]/8xqq5[1:1],
{1},
{8},,,,,,4x/5x,4x/5x,
{1},
{1},
{1},
E
&inote_4=
(152){1},
{4},,,4x/5x,
{4}1,1,2h[4:1]/8h[4:1],,
{4}2-6[4:1]/8-4[4:1],,,4/5,
{4}8,8,1h[4:1]/7h[4:1],,
{4}1-5[4:1]/7-3[4:1],,,4/5,
{4}3,3,2h[4:1]/4h[4:1],,
{4}2-6[4:1]/4-8[4:1],,,7/8,
{4}6,6,5h[4:1]/7h[4:1],,
{4}5-1[4:1]/7-3[4:1],,,1b/2b,
{8}3,3,3,,2h[4:1]/4h[4:1],,,,
{4}3/4h[4:1],5h[4:1],6h[4:1],5,
{8}6,6,6,,5h[4:1]/7h[4:1],,,,
{4}5h[4:1]/6,4h[4:1],3h[4:1],4x,
{8}B6,B7,E8,,B3,B2,E2,,
{8}E6,E7,E8,,E4,E3,E2,,
{8}8,8,8,,1h[4:1]/7h[4:1],,,,
{4}5/6,3/4,1/8,2b/7b,
{4}5/7,2/4,5h[4:1]/7h[4:1],,
{4}3/5,4/6,3h[4:1]/5,2,
{4}2/4,5/7,2h[4:1]/4h[4:1],,
{4}4/6,3/5,4/6h[4:1],7,
{8}6,6,5/6,,4h[4:1]/7h[4:1],,,,
{4}4/7,3/6,2h[4:1]/5h[4:1],,
{8}3,3,3/4,,2h[4:1]/5h[4:1],,,,
{4}2/7,3/6,4h[4:1]/5h[4:1],,
{8}E2,C1,E6,,E8,C1,E4,,
{8}E2,B1,B8,,E6,B5,B4,,
{8}2,2,1/2,,3h[4:1]/8h[4:1],,,,
{1}2V48[8:3]/7V51[8:3],
{8}1,1,8,2,2h[4:1],,4,,
{8}5,5,4,6,6h[4:1],,8,,
{8}7/8,7/8,1/6,1/6,2/5h[4:1],,4,,
{4}1/2,7/8,5h[4:1]/6h[4:1],,
{8}8,8,1,7,7h[4:1],,5,,
{8}5,5,4/6,,3/5,,5q4[2:1]/6<3[2:1],,
{1},
{8}3x/5x,3x/5x,4x/6x,4x/6x,3xh[4:1]/5xh[4:1],,,,
{1}C1xh[2:1]/B2/B4/B6/B8,
{8}1/8,1/8,2/7,2/7,1/8,,2b/7b,,
{4}1/8,3/4,1/8,5/6,
{4}1/8,3q8[4:1]/4<7[4:1],,,
{4}5/6h[4:1],1,3h[4:1]/4,8,
{8}5,4,5w1[4:1],,,,,,
{4}1/8,5/6,1/8,3/4,
{4}1/8,5>2[4:1]/6p1[4:1],,,
{4}3/4,B7/B8,5/6,B1/B2,
{8}3x/5x,3x/5x,4x/6x,4x/6x,3x/5x,,B2/E2/B7/E8,,
{4}5/6,3/4,5h[4:1]/6h[4:1],,
{4}5/6,4/5,3h[4:1]/4,2,
{4}3/4,5/6,3h[4:1]/4h[4:1],,
{4}3/4,4/5,5/6h[4:1],7b,
{8}7/8,,7/8,,6,5,6,,
{4}3/4,3>8[4:1]/4<7[4:1],,,
{8}5h[16:3]/6h[16:3],,,6,5,,4/7,,
{8}3,3,5,5,4,,3/6,,
{4}3/4,5/6,1/2,7/8,
{4}2/8,3/7,4h[4:1]/6h[4:1],,
{8}3h[16:3]/4h[16:3],,,3,4,,2/5,,
{8}8,8,1,1,1/8,,2/7,,
{1}3h[4:7]/6h[4:7],
{1},
{2}2h[4:1]/5h[4:1],4h[4:1]/7h[4:1],
{8}1x/8x,2x/7x,3x/6x,4x/5x,4x/5h[4:1],,1b,,
{8}1/8,7,5/6,,1/8,2,3/4,,
{4}1x/2x,3x/8x,4xh[4:1]/7xh[4:1],,
{4}5/6,B1/B2,3/4,B7/B8,
{4}1x/2x,B5/B6,7x/8x,B3/B4,
{8}1/8,2,3/4,,1/8,7,5/6,,
{8}1/8,2,3q8[4:1]/4<7[4:1],,,,,,
{4}5/7h[4:1],1,2h[4:1]/4,8,
{8}5,4,5w1[4:1],,,,,,
{8}1/8,7,5/6,,1/8,2,3/4,,
{8}1/8,7,5>2[4:1]/6p1[4:1],,,,,,
{4}3h[4:1]/4,B7/B8/E8,5/6h[4:1],B1/B2/E2,
{8}3/5,3/5,4/6,4/6,3/5,,C1,,
{8}4/7,4/7,2/5,2/5,4/7,,C1,,
{8}1x/6x,1x/6x,3x/8x,3x/8x,1x/6x,,C1f,,
{4}7/8,1/2,7h[4:1]/8h[4:1],,
{4}1-5[4:1]/7-3[4:1],,,4/6,
{4}1/2,7/8,1h[4:1]/2h[4:1],,
{4}2-6[4:1]/8-4[4:1],,,3/5,
{4}6/8,1/3,6h[4:1]/8h[4:1],,
{4}6-2[4:1]/8-4[4:1],,,3/4,
{4}1/3,6/8,1h[4:1]/3h[4:1],,
{4}1-5[4:1]/3-7[4:1],,,5/6,
{1}5qq2[4:5]/6pp1[4:5],
{8},,,,,,,3x/7x,
{1},
{1},
{1},
E
&inote_5=
(152){1},
{4},,,4b/5b,
{16}4/6,,3,,4/5,,3,,4/7h[16:3],,,6h[16:3],,,5-7[8:1],,
{8},4,3,2,1/8,,2/7,,
{16}3/5,,6,,4/5,,6,,2h[16:3]/5,,,3h[16:3],,,4-2[8:1],,
{8},5,6,7,1/8,,2/7,,
{16}4x/6x,,3,,4/7,,3,,4/5h[16:3],,,6h[16:3],,,7-5[8:1],,
{8},3,3,2,1/7,,2/8,,
{16}3/5,,6,,2/5,,6,,4h[16:3]/5,,,2h[16:3],,,1-5[8:1],,
{8},8,8,7,4/6,,2x/7x,,
{16}3h[16:3],,,4,3,,2,,2h[16:3],,,4,2,,3,,
{16}3h[16:3],,,4,3,,3,,E4,,B2,,E5,,C1,,
{16}6h[16:3],,,5,6,,7,,7h[16:3],,,5,7,,6,,
{16}6h[16:3],,,5,6,,7,,5/6,,,,1b,,,,
{16}8x,,8x,,1x/7x,,,,4/5,,3,4,3,,6,5,
{16}6,,3,4,2,,6,5,7,,2,,2/8,,,,
{16}7h[16:3],,,5,5,,6,,2h[16:3],,,4,4,,3,,
{4}4/5<4[8:3],,,2b/7b,
{16}3-7[8:1],,3,,6-2[8:1],,6,,1,,,3,,,5h[4:1]/7,,
{8},7,6,5,3/4,,2/5,,
{16}3-7[8:1],,3,,6-2[8:1],,6,,1,,,3,,,5h[4:1]/7,,
{8},7,6,5,3/4,,2x/7x,,
{16}3,4,3,,4/6,,5,,3/4h[16:3],,,1,,,5/6,,
{16}5h[16:3]/6,,,7,,,3/4,,2-4[8:1]/5,,2/5,,,,,,
{16}6,5,6,,3/5,,4,,5h[16:3]/6,,,8,,,3/4,,
{16}3/4h[16:3],,,2,,,3/5,,4/6,,6,,1b,,,,
{16}8x,,8x,,1x/7x,,,,4,5,3,4,2,,2,,
{16}5,4,6,5,7,,7,,1,8,1,,2b/7b,,,,
{8}3-5[8:1],3,7,7,6-4[8:1],6,2,2,
{8}3<6[8:1],3,7,7,8,1b,1b,,
{16}7,,7,,5/6,,7,,7,,E5,E4,E3,,,,
{16}2,,2,,3,4,2,,2,,1b/8b,,1b/8b,,,,
{16}2,,2,,3,4,2,,2,,E5,E6,E7,,,,
{8}7,7,5/6,7,7,7b/8b,7b/8b,,
{16}7,8,7,,6,5,7,,7,,E5,E4,E3,,,,
{8}1-5[8:1],1,5b,6,7-2[8:1],7,3>6[2:1],3,
{8}C1f,,,,,,5,3,
{8}2/6,3/5,2/6,3/5,2/6,,1b/8b,,
{8}2x-5[8:1],,6x-1[8:1],,4,4,8,7,
{8}4/6,3/7,4/6,3/7,4/6,,1b/8b,,
{8}2x-5[8:1],2,7-3[8:1],7,1<6[8:1],1,4-8[8:1],4,
{16}2,,2,,1/7,,6,5,,3,4,,2/5,,2,,
{4}1-5[8:1]/6-1[8:1],1/6,3-8[8:1]/8-4[8:1],3/8,
{8}1,2/8,3/7,4/6,5b-2[8:1]*-8[8:1],,5b,,
{8}1x<6[8:1],1,5-8[8:1],5,1-5[8:1],1,7-4[8:1],7,
{16}3,,3,,1/2,,7,8,,6,5,,4/7,,3,,
{8}2-5[8:1]/5,,2/8b,,4/7-4[8:1],,1b/7,2,
{8}2/6,1/5,2>5[8:1]/6<1[8:1],1/5,2/6,,C1/B2/B4/B6/B8,,
{8}3x/7x,,3/7,6,3/6,,3/5,4,
{4}3/4-6[8:1],2-4[8:1],B8,C1,
{8}2x/6x,,2/6,3,3/6,,4/6,5x/7xh[8:5],
{16},,,,,,,,1x,8x,2x,7x,3x,6x,4x,5x,
{8}2V48[4:1],2,8,7,6V84[4:1],6,4,3,
{16}2,,1,,7/8,,6,6,,3,4,,2/5,,,,
{16}6,,5/7,,3,,2/4,,7,8,7,,2,1,2,,
{16}3h[16:3]/8,,,4h[16:3],,,5,,5/6,,,,1/8,,,,
{16}2,4,3,5,4,6,5h[8:1],,7,5,6,4,5,3,4,,
{16}2xh[16:3],,,1,2,,3/8,,4-8[8:1]/7<4[8:1],,,,,,,,
{8}1,1,1/8,8,6/8,6,4/6,4,
{1}C1xh[2:1]/4,
{1}8<5[4:3],
{1}1>4[4:3],
{16}5h[8:5],,,,,,,,,,4,5,3/6,,,,
{8}1/8,2/7,1/8,2/7,B2,B7,E4,E6,
{8}1-5[8:1],1,7-3[8:1],7,2b,4b,5b,7b,
{16}1>4[16:1]/8<5[16:1],,3/6,,1b/8b,,,C1f/B3/B4/B5/B6,,,1x/8x,,2x/7x,,,,
{4}4-1[8:1]*-7[8:1],4b,5-2[8:1]*-8[8:1],5b,
{4}4>1[8:1]*<7[8:1]/5,4b,4/5>2[8:1]*<8[8:1],5b,
{8}7x-4[8:1],7,2-6[8:1],2,8>3[8:1],8,5-1[8:1],5,
{16}7,,7,,2/8,,3,4,,6,5,,3/7,,2,,
{4}2-6[8:1]/4-8[8:1],2/4,5-1[8:1]/7-3[8:1],5/7,
{8}8,1/7,2/6,3/5,4bw8[8:1],,4b,,
{8}8x>3[8:1],8,4-8[8:1],4,7-3[8:1],7,2-5[8:1],2,
{16}6,,6,,7/8,,2,1,,3,4,,5/7,,7,,
{8}4x/8x-4[8:1],,2b/8,,1x-5[8:1]/5x,,1/8b,7,
{8}2/6,1/5,2>5[8:1]/6<1[8:1],1/5,2/6,,4x/8x,7,
{8}2/6,1/5,2>5[8:1]/6<1[8:1],1/5,2/6,,1x/5x,8,
{8}3/7,2/6,3<6[8:1]/7>2[8:1],2/6,3/7,,C1/B2/B4/B6/B8,,
{16}3x-7[8:1],,3,,6-2[8:1],,6,,1,,,3,,,5h[4:1]/7,,
{8},7,6,5,3/4,,2/7,,
{16}3-7[8:1],,3,,6-2[8:1],,6,,1,,,3,,,5h[4:1]/7,,
{8},7,6,5,2/4,,1/8,,
{16}3b-7[8:1],,3,,6-2[8:1],,6,,1,,,3,,,5/7h[4:1],,
{8},8,1/6,2,3/8,,5/7,,
{16}3-7[8:1],,3,,6-2[8:1],,6,,1,,,3,,,5/7h[4:1],,
{8},8,1/6,2,3/4-8[8:1],,1>8[4:3],,
{1}8x,
{16}2h[16:3]/6,,,4,3,,4/5,,6,5,7,,4/8,,2b/6b,,
{1},
{1},
{1},
E
