&title=トリドリ⇒モリモリ!Lovely fruits☆
&wholebpm=185
&artist=曲:やしきん/歌:柏木 美亜(CV:和氣 あず未)
&des=すきやき奉行
&shortid=11173
&genre=オンゲキCHUNITHM
&cabinet=DX
&version=maimai DX Splash
&chartconverter=Neskol
&lv_2=4
&des_2=
&lv_3=7+
&des_3=
&lv_4=10+
&des_4=はっぴー
&lv_5=13
&des_5=すきやき奉行
&des_6=
&inote_2=
(185){1},
{1},
{1},
{1},
{1},
{1},
{1}1,
{1}1,
{1}8,
{1}8,
{1}1h[1:1],
{1},
{1}8h[1:1],
{1},
{4},7x,,7,
{4},6,,6,
{4},5,,5,
{4},4,,4,
{4},3,,3,
{4},2,,2,
{4},1,,1,
{4},8x,8x,,
{4},1,,1,
{4},2,2,2,
{4},3,,3,
{4},4,4,4,
{4},5,,5,
{4},6,6,6,
{4},7,,7,
{4},8,8x,,
{1}B1,
{1}B8,
{1}B2,
{1}B7,
{1}B3,
{1}B6,
{1}B4,
{1}B5,
{1}B3/B4,
{1}B5/B6,
{1}B1/B2,
{1}B7/B8,
{1}C1hf[1:1],
{1},
{4}8x,8,8,,
{4}7,7,7,,
{4}6,6,6,,
{2}4/5,4/5,
{4}3,3,3,,
{4}2,2,2,,
{4}1,1,1,,
{2}1/8,1b/8b,
{4}2x,2,2,,
{4}3,3,3,,
{4}4,4,4,,
{2}5,4/5,
{4}6,6,6,,
{2}7,7,
{4}8,8,8,,
{2}1x/8x,1x/8x,
{1}8-5[4:3],
{1},
{1}1-4[4:3],
{1},
{2}5x,5x,
{2}4x,4b/5b,
{1}5xh[1:1]/6xh[1:1],
{1},
{1}3xh[1:1]/4xh[1:1],
{1},
{1}1h[1:1]/2h[1:1],
{1},
{1}7h[1:1]/8h[1:1],
{1},
{2}1,1,
{2}8,8,
{1}1x/8x,
{1}8-4[4:3],
{1},
{1}1-5[4:3],
{1},
{1}7-4[4:3],
{1},
{2}3,3,
{2}4,4b/5b,
{4}6x,6,6,,
{4}7,7,7,,
{4}8,8,8,,
{4}1,1,1/8,,
{4}2,2,2,,
{4}3,3,3/4,,
{4}5,5,5,,
{2}4/5,4x/5x,
{1}4-1[4:3],
{1},
{1}8-5[4:3],
{1},
{4}4x,4x,4x,,
{4}3x,3x,3b/4b,,
{4}5x,5x,5x,,
{4}6x,6x,5b/6b,,
{1}7h[2:1],
{4}7,7,7,,
{1}8h[2:1],
{4}8,8,8,,
{1}1h[2:1],
{4}1,1,1,,
{1}1h[2:1]/8h[2:1],
{1}2h[2:1]/7h[2:1],
{1}C1hf[4:3],
{1},
{1},
{1},
E
&inote_3=
(185){1},
{1},
{1}3h[2:1]/4h[2:1],
{1}5h[2:1]/6h[2:1],
{2}3/4,5/6,
{2}4h[4:1]/5h[4:1],3b/6b,
{4}7,7,8,8,
{4}1,1,2/8,,
{4}3,3,4,4,
{4}5,5,4/6,,
{4}3,3,2,2,
{4}1,1,2/8,,
{4}7,7,6,6,
{4}4/5,4/5,3b/6b,,
{4}7x,7,8,,
{4}2,2,1,,
{1}7p3[2:1],
{1}2q6[2:1],
{4}7,6,5,,
{4}3,3,4,,
{1}6<1[2:1],
{1}2>5[2:1],
{2}6h[2:1],5,
{2}3h[2:1],4,
{2}6h[2:1],5h[2:1],
{2}4h[2:1],3x,
{1}2<7[2:1],
{1}6x>3[2:1],
{4}2x,2,1/2,,
{4}1/8,1/8,2x/7x,,
{2}B6,B7,
{1}E8,
{2}B3,B2,
{1}E2,
{2}B6,B7,
{1}E8,
{2}E4/E6,B3/B6,
{2}B2/B7,C1,
{4}7x,7,8,,
{4}2,2,1,,
{4}7,7,8,8,
{4}1,1,2,2,
{2}3/4,5/6,
{1}C1f/B2/B7,
{4}7x,7,7/8,,
{4}2,2,1/2,,
{4}3,3,4,4,
{4}5,5,4/6,,
{2}B5/E6,B7/E8,
{2}B4/E4,B2/E2,
{4}8,8,1,1,
{2}1h[4:1]/8h[4:1],2x/7x,
{4}3,3,3/4,,
{4}6,6,5/6,,
{4}7,7,8,8,
{4}1,1,2/8,,
{2}B1/E2,B3/E4,
{2}B8/E8,B6/E6,
{4}4,4,5,5,
{2}4h[4:1]/5h[4:1],3x/6x,
{2}7/8,5/6,
{2}3/4,1/2,
{4}7h[4:1],8,8,,
{4}2h[4:1],1,1,,
{2}3h[4:1]/4h[4:1],5h[4:1]/6h[4:1],
{4}4/5,3/6,2b/7b,,
{1}6>3[2:1],
{1}2q6[2:1],
{1}7p3[2:1],
{2}2,1/2,
{1}8<5[2:1],
{1}4>1[2:1],
{1}8<1[4:5],
{1},
{4}8,8,7,7,
{4}6,6,5,5,
{8}3h[4:1]/6h[4:1],,,,,,,B4/B5,
{8},,,,,,,B3/B6,
{8},,,,,,,B2/B7,
{8},,,,,,,B1/B8,
{1},
{4}3x,3,4,4,
{4}5,5,6,6,
{8}7,7,7,,8,8,8,,
{4}1/8,2/7,3b/6b,,
{4}1/2,1/2,3/8,,
{4}7/8,7/8,1/6,,
{4}2,2,1,1,
{4}1/8,1/8,2/7,,
{2}B2/E2,B4/E4,
{2}B7/E8,B5/E6,
{4}3,4,5,6,
{2}4h[4:1]/5h[4:1],3x/6x,
{2}7/8,5/6,
{2}3/4,1/2,
{4}7h[4:1],8,7/8,,
{4}2h[4:1],1,1/2,,
{2}3h[4:1]/4h[4:1],5h[4:1]/6h[4:1],
{4}4/5,3/6,2/7,,
{2}7h[4:1]/8h[4:1],1h[4:1]/2h[4:1],
{4}1/8,2/7,3b/6b,,
{4}2,2,1,1,
{4}8,8,1/7,,
{4}6,6,5,5,
{4}4,4,3/5,,
{4}6,6,7,7,
{4}8,8,1/7,,
{4}2,3,4,5,
{1}3V14[1:1]/6V85[1:1],
{4},,,C1f,
{1},
{1},
{1},
E
&inote_4=
(185){1},
{4},,,4/5,
{4}3h[2:1],,4,2/5,
{4}6h[2:1],,5,4/7,
{4}3/5,2,4/6,7,
{4}3/6>3[4:1],,,1x,
{4}1/8,2/4,1,5/7,
{8}8,,2/4,,1h[4:1],,8,8,
{4}2,5/7,8,2/4,
{8}1,,5/7,,8x,8x,1x/7x,,
{4}2/8,5/7,8,2/4,
{8}1,,5/7,,8h[4:1],,1,1,
{4}7,2/4,1,5>2[4:1]/7,
{4},,1x/8x,4/5,
{4}5,6,5/7,5/7,
{4}4,3,2/4,2/4,
{4}3h[8:1]/5h[8:1],3h[8:1]/5h[8:1],2x/6x,3,
{4}4h[8:1]/6h[8:1],4h[8:1]/6h[8:1],3x/7x,6,
{4}4,3,2/4,2/4,
{4}5,6,5/7,5/7,
{4}4h[8:1]/6h[8:1],4h[8:1]/6h[8:1],3x/7x,6,
{4}3h[8:1]/5h[8:1],3h[8:1]/5h[8:1],2x/6x,1>4[4:1],
{4},,8,7,
{8}6,,3/5,,2,2,4,,
{8}1x/5x,,6,,7,7,5,,
{4}4x/8x,4v1[4:1]/8v5[4:1],,,
{2}2h[2:1],4h[2:1],
{4}5h[2:1],,7,3/6,
{4}4/5,1x/7x,4/5,2x/8x,
{4}4/5,1x/7x,2x/8x,,
{2}E4/E6,C1f,
{4}1/8,1/8,2/7,,
{4}8<5[4:1],,1,1>8[8:5],
{1},
{1}6z2[8:5],
{4}1,1/8,1/8,,
{2}4h[4:1]/7h[4:1],2h[4:1]/5h[4:1],
{4}4xh[8:1]/6xh[8:1],3xh[8:1]/5xh[8:1],4xh[8:1]/6xh[8:1],3x/5x,
{4}1x/2x,3/8,4/7,5/6,
{4}7x/8x,1/6,2b/5b,3/4qq7[4:3],
{1},
{4}1x/8x,2x/7x,3x/6x,,
{4}2h[2:1],1,7h[2:1],8,
{8}1b,,2b/8b,,3b/7b,,,1h[4:1]/7h[4:1],
{8},,2/8,,1/7,1/7,,2h[4:1]/8h[4:1],
{8},,1/7,,2/8,2/8,,3h[4:1]/7h[4:1],
{8},,2/6,,3/7,,4/5,4/5,
{8},1/8,1pp1[8:3]/8qq8[8:3],,,,,,
{4},5/6,3/8h[4:1],1,
{4}1,3/4,1h[4:1]/6,8,
{8}3h[8:1]/5h[8:1],,4h[8:1]/6h[8:1],,3h[8:1]/5h[8:1],,4/6,4/6,
{16},,1x/8x,,,2x/7x,,,3x/6x,,,,,,2h[4:1]/8h[4:1],,
{8},,1/7,,2/8,2/8,,1h[4:1]/7h[4:1],
{8},,2/8,,1/7,1/7,,2h[4:1]/6h[4:1],
{8},,3/7,,2/6,,4/5,4/5pp5[8:3]*qq5[8:3],
{4},,,3/4,
{4}3>8[4:1]/4<7[4:1],,,5/6,
{4}5qq3[4:1]/6pp8[4:1],,,1,
{4}1h[4:1],3h[4:1],4h[4:1],5,
{4}3x/6x,2/7p3[4:1],,,
{6}2x/4x,5x,,5x/7x,4x,,
{24}2x/4x,,,,5x,,,,,,,,5x/7x,,,,,,,,,1,,,
{8},2/8,2/8,,3/7,,4v1[4:1]/6v1[4:1],,
{4},,3,3<6[4:1],
{4},7>2[4:1],,3,
{4}3/5,4/6,3b/7b,,
{4}2h[4:1],4h[4:1],5h[4:1],7h[4:1],
{2}1>4[4:1],8<5[4:1],
{4}3h[4:1],1h[4:1],8h[4:1],6h[4:1],
{4}4>1[4:1],,,1/8,
{4}7h[4:1],5h[4:1],4h[4:1],2h[4:1],
{2}8-4[4:1],1-5[4:1],
{4}8,8,7,6<4[4:3],
{1}C1f,
{8}3,3,4,,6,6,5,,
{8}7,7,8,,2,2,1,,
{8}8<4[8:3],,,,,,1x,1xh[8:7],
{8},,,,,,4x,4h[8:7],
{8},,,,,,5x,5h[8:7],
{8},,,,,,7,7,
{8},8,,1,,2,2,,
{4}3/4,3/4,2h[4:1]/5,7,
{4}7,5/6,4/7h[4:1],2,
{4}4h[8:1]/6h[8:1],3h[8:1]/5h[8:1],4h[8:1]/6h[8:1],3/5,
{8}1b/8b,,4b/5b,,2b/7b,,,1h[4:1]/6h[4:1],
{8},,3/8,,1/6,1/6,,3h[4:1]/8h[4:1],
{8},,1/6,,3/8,3/8,,2h[4:1]/6h[4:1],
{8},,3/7,,2/6,,4/5,4pp4[8:3]*qq4[8:3]/5,
{4},,,5/6,
{4}5>2[4:1]/6<1[4:1],,,3/4,
{4}3qq1[4:1]/4pp6[4:1],,,8,
{4}8h[4:1],6h[4:1],5h[4:1],4,
{4}3x/6x,2q6[4:1]/7,,,
{6}4x/7x,3x,3x,2x/5x,6x,6x,
{24}4x/7x,,,,3x,,,,3x,,,,2x/5x,,,,,,,,,8,,,
{8},1/7,1/7,,2/6,,3v8[4:1]/5v8[4:1],,
{4},,6,6>3[4:1],
{4},2<7[4:1],,6,
{4}4/6,3/5,2b/6b,,
{4}E4/E6,E3/E7,B4/B5,E2/E8,
{4}3b/7b,4b>1[4:1]/8b<5[4:1],,,
{4}1,5/7,8,2/4,
{8}1,,5/7,,8h[4:1],,1,1,
{4}7,2/4,1,5/7,
{8}8,,2/4,,1x,1x,2x/8x,,
{4}1/7,2/4,1,5/7,
{8}8,,2/4,,1h[4:1],,8,8,
{4}2,5/7,8,2/4,
{4}1/2,7/8,5/6,3/4,
{4}1/2,7/8,4/5,2b/7b,
{1},
{1},
{1},
E
&inote_5=
(185){1},
{1},
{16}3x/4x,,,3x/4x,,,3x/4x,,3xh[4:1]/4x,,,,8,,,,
{16}5x/6x,,,5x/6x,,,5x/6x,,5x/6xh[4:1],,,,1,,,,
{16}3h[16:3]/4,,,8,,,,,5/6h[16:3],,,1,,,,,
{16}1>4[8:1]/8<5[8:1],,,,,,,,4,5,4,5,2b/7b,,,,
{16}1-5[8:1]/5,,,6,,,7,,4/8-4[8:1],,,3,,,2,,
{16}1/5h[16:3],,,6h[16:3],,,7,,7x-3[8:1]/8x,,,,1,,,,
{16}1-5[8:1]/5,,,6,,,7,,4/8-4[8:1],,,3,,,2,,
{4}2<5[4:1]/6h[2:1],,,2/7,
{16}4/8-4[8:1],,,3,,,2,,1-5[8:1]/5,,,6,,,7,,
{16}4h[16:3]/8,,,3h[16:3],,,2,,1x/2x-6[8:1],,,,8,,,,
{16}7xh[16:3],,,6h[16:3],,,5,,4xh[16:3],,,3h[16:3],,,2,,
{8}1<6[8:1]*>4[8:1],,,,C1f,,,5x/7x,
{8},6h[8:1],4,3h[4:1],5,4,,2/4,
{8},3h[8:1],5,6h[4:1],4,5,,4xh[8:5]/7x,
{8},6,6,5,5,,,2x/5xh[8:5],
{8},3,3,4,4,,,4x/7x,
{8},6h[8:1],5,4h[4:1],3,3,,2/5,
{8},3h[8:1],4,5h[4:1],6,6,,4x/7xh[8:5],
{8},6,6,5,5,,,2xh[8:5]/5x,
{8},3,3,4,4,,3/5,,
{1}4h[4:3]/6<3[2:1],
{1}3>6[2:1]/5h[4:3],
{8}6,6,5/7,,4,3,5,6,
{4}8,1-4[8:1]/7-4[8:1],,1/7,
{8}3,,3,,3/4,3/4,3/4,,
{8}5/6,5/6,5/6,5/6,,2x/7x,2x/7x,,
{4}3-8[8:1]/8,6<1[8:1],3>8[8:1],6-1[8:1],
{4}3-7[8:1],6,4b/8b,,
{8}4,4,E7,,5,5,E3,,
{1}1pp5[2:1]*qq5[2:1],
{8}6,5,E3,,3,4,E7,,
{4}7q5[16:5],2p4[16:5],,,
{8}3,4,B7/E7,,6,5,B2/E3,,
{4}5pp5[16:5],4qq4[16:5],,,
{8}6h[2:1],,,5,5h[4:1],,6,,
{8}3h[2:1]/5,,,4,4,,2/7,2x/7x,
{8},4,3/5,4,2/6,4,1/7,2x/8x,
{8},5,4/6,5,3/7,5,2/8,,
{8}1h[8:7]/7,,3,,4,4,4,5xh[8:7],
{8},7,7,,1,1,1,,
{2}1x-6[8:1]/2x-5[8:1],7x-4[8:1]/8x-3[8:1],
{8}1b/8b,,4b/5b,,C1f/E3/E7,,,2b>5[8:1]/8b,
{8},1-5[8:1],1,3-8[8:1],3,6,,7<4[8:1],
{8},8-4[8:1],8,6-1[8:1],6,3,,3h[8:3],
{8},5,6h[4:1],5,1h[4:1],4,7h[8:1],3-7[8:1],
{8},8-3[8:1]*-5[8:1],,8x,,2,4,5,
{12}7h[4:1],,,8x-4[8:1],8x,8x,8x,,,3/5,,,
{24}2h[4:1]/6,,,,,,1x-5[8:1],,1x,,1x,,1x,,,,,,4/6,,,3x/7xpp2[8:3],,,
{8},3,4,5,6h[8:3],,1,1,
{16},,1x/8x,,,5x/6x,,,C1f/B3/E3/B4/E5,,,,,,1x/7x<4[8:1],,
{8},8-4[8:1],8,6-1[8:1],6,3,,2>5[8:1],
{8},1-5[8:1],1,3-8[8:1],3,6,,6h[8:3],
{8},4,3h[4:1],4,8h[4:1],5,2h[8:1],6-2[8:1],
{8},1-4[8:1]*-6[8:1],,1x,,7,5,4,
{12}2h[4:1],,,1x-5[8:1],1x,1x,1x,,,4/6,,,
{12}3/7h[4:1],,,8x-4[8:1],8x,8x,8x,,,2/5,,,
{4}4/8-6[8:1],5,1-3[8:1]/5,4xpp6[16:5]*qq2[16:5],
{4}4x,,3/4,5/6,
{6}7xh[6:1],6h[6:1],5h[6:1],2xh[6:1],3h[6:1],4h[6:1],
{24}8xh[6:1],,,,6h[6:1],,,,5h[6:1],,,,4,,,3x/6x,,,2x/7x,,,1b/8b,,,
{8},2/5,3/6,4/7,5-1[8:1]/8-4[8:1],,5/8w4[4:1],,
{4}8x,,1b/2b,5b/6b,
{12}7/8,7/8,7/8,7x/8x,,,3/4,3/4,3/4,3x/4xpp4[16:5]*qq4[16:5],,,
{8}4x,,,,2b/7b,,,4x/6x,
{8},3,3/5,3,3/4,3,2/3,2<4[8:3]/3h[8:5],
{8},,,,,,1/2,1x/2x,
{8},6,4/6,6,5/6,6,6/7,6h[4:3]/7,
{8},8,1,2>5[8:1],,,,7x/8x,
{16},,2,1,2,,3,,4,,3/5,,3/6,,3/7,,
{16},,7,8,7,,6,,5,,4/6,,3/6,,2/6,,
{8},2-5[8:1],4,2,,7-4[8:1],5,7,
{8},1-5[8:1],3,1,,6,7,8,
{16}2x,1,2,1,3x,8,3,8,4x,7,4,7,5x,6,5xh[4:1],,
{16},,7x,8,6x,1,6,1,5x,2,5,2,4x,3,4x,,
{8},1x>4[8:1]/8x<5[8:1],,1x/8x,,2b/7b,,1x/6xh[1:1],
{8},,B6/B7,,B4/B5,,,3xh[1:1],
{8},,B2/B3,,B4/B5,,,7xh[1:1],
{8},,6,,5,,4,4h[8:9],
{8},5,,3,,2,2<7[8:1],,
{4},5/6,3/4,B5/B6,
{4}B3/B4,7/8,1h[4:1]/2h[4:1],,
{16}4,,4,,5,,5,,3,6,3,6,2,7,2,7,
{8}1x/8x,,5x/6x,,C1f/B3/E3/B4/E5,,,1x/7x<4[8:1],
{8},8-4[8:1],8,5-1[8:1],5,2,,2x>5[8:1],
{8},1-5[8:1],1,4-8[8:1],4,7,,6h[8:3],
{8},8,4h[4:1],1,5h[4:1],8,3h[8:1],1-5[8:1],
{8},3>8[8:1],,7b,,6,5,4,
{12}3h[4:1],,,1b<6[8:1],1b,1b,1b,,,4/5,,,
{12}6h[4:1],,,8b>3[8:1],8b,8b,8b,,,4/5,,,
{4}1-5[8:1]/2-6[8:1],1x/2x,7-3[8:1]/8-4[8:1],7x/8xpp2[16:5]*qq6[16:5],
{4},,3/4,5/6,
{6}1xh[6:1],6xh[6:1],4xh[6:1],2xh[6:1],7xh[6:1],5xh[6:1],
{24}3xh[6:1],,,,1xh[6:1],,,,4xh[6:1],,,,5x,,,3x/6x,,,2x/7x,,,1b/8b,,,
{8},2/5,3/6,4/7,5-1[8:1]/8-4[8:1],,5/8w4[4:1],,
{4}8x,,1b/2b,5b/6b,
{12}7/8,7/8,7/8,1x/6x,,,1/2,1/2,1/2,3x/8x,,,
{4}2x>5[8:1]/5x,2x-6[8:1]/6x,C1f/7b,8,
{12}1/2,1/2,1/2,3x/8x,,,7/8,7/8,7/8,1x/6x,,,
{4}3x>8[8:1]/7x<4[8:1],3x-6[8:1]/7x-2[8:1],C1f,,
{16}1-5[8:1]/5,,,6,,,7,,4/8-4[8:1],,,3,,,2,,
{16}1/5h[16:3],,,6h[16:3],,,7,,7x-3[8:1]/8x,,,,1,,,,
{16}1-5[8:1]/5,,,6,,,7,,4/8-4[8:1],,,3,,,2,,
{4}2<5[4:1]/6h[2:1],,,2/7,
{16}4/8-4[8:1],,,3,,,2,,1-5[8:1]/5,,,6,,,7,,
{16}4h[16:3]/8,,,3h[16:3],,,2,,1x/2x-6[8:1],,,,8,,,,
{16}7xh[16:3],,,6h[16:3],,,5,,4xh[16:3],,,3h[16:3],,,2,,
{8}8x-4[8:1],8,2x-6[8:1],2,7x-3[8:1],7,1x-5[8:1],1,
{8}6x-2[8:1],6,4x-8[8:1],4,8x,,C1f/B2/E3/E4/E5/E6/B7/E7,,
{1},
{1},
{1},
E
