&title=デリヘル呼んだら君が来た
&wholebpm=190
&artist=ナナホシ管弦楽団
&des=はっぴー
&shortid=11193
&genre=niconicoボーカロイド
&cabinet=DX
&version=maimai DX Splash
&chartconverter=Neskol
&lv_2=3
&des_2=
&lv_3=7
&des_3=
&lv_4=10
&des_4=Jack
&lv_5=13
&des_5=はっぴー
&des_6=
&inote_2=
(190){1},
{1},
{1},
{1},
{1},
{1},
{1},
{1},
{1},
{1}1,
{1}1,
{1}2,
{1}2,
{1}3h[1:1],
{1},
{1}4,
{1}4x/5x,
{1}5h[1:1],
{1},
{1}4h[1:1],
{1},
{1}5h[1:1],
{1},
{2}4,4,
{1}4/5,
{2}4x/5x,5,
{2}5,5,
{2},6,
{2}6,6,
{2},7,
{2}7,7,
{2},8h[1:1],
{1},
{2},1,
{2}1,1,
{2},2,
{2}2,2,
{2},3,
{2}3,3,
{2},4h[1:1],
{1},
{2},B5,
{2},B4,
{2},B3,
{2},B2,
{2},B1,
{2},B8,
{2},B7,
{2},B6,
{2},B4/B5,
{2},B3/B6,
{2},B2/B7,
{2},B1/B8,
{2},C1hf[1:3],
{1},
{1},
{1},
{2},8,
{4}8,,8,8,
{2}8,7,
{4}7,,7,7,
{2}7,6,
{2}6,5,
{4}5,,4,4,
{2}4,4x/5x,
{2},4,
{4}4,,4,4,
{2}4,3,
{4}3,,3,3,
{2}3,2,
{2}2,1,
{4}1,,8,8,
{4}8,,1,1,
{2}1,8-4[4:3],
{1},
{1},
{1},
{2},4,
{2}4,3,
{2}3,2,
{2}2,1h[2:1]/8h[2:1],
{2},7,
{2}7,6,
{2}6,5h[1:1],
{1},
{2},4h[1:1],
{1},
{2},5b,
{1},
{2},5,
{1},
{2},4,
{1},
{2},4,
{2}4,4h[2:1]/5h[2:1],
{4},,6,6,
{4}6,,6,6,
{4}6,,7,7,
{4}7,,7,7,
{2}7,8,
{2}8,1h[2:1],
{2},2,
{2}2,3,
{2}3,4h[1:1]/5h[1:1],
{1},
{2},5x,
{2}5x,5b,
{2},4x,
{2}4x,4b,
{2},5x/6x,
{2}5x/6x,5b/6b,
{2},3x/4x,
{2}3x/4x,3b/4b,
{2},4h[1:1]/5h[1:1],
{1},
{2},C1hf[4:7],
{1},
{1},
{1},
{1},
E
&inote_3=
(190){1},
{1}3xh[1:1],
{2}4,4,
{1}6h[1:1],
{2}5,5,
{1}7h[1:1],
{2}8,8,
{1}1h[1:1],
{2}8,2/7,
{4}3,3,3/4,,
{4}6,6,5/6,,
{4}3,3,3/4,,
{4}5,5,4/6,,
{4}7,7,7/8,,
{4}2,2,1/2,,
{4}7,7,8,8,
{4}1,1,2/7,,
{1}6<1[8:3],
{4}2,2,1/2,,
{1}2>5[8:3],
{4}6,6,5/6,,
{1}6<1[8:3],
{4}2,2,1/2,,
{1}2>5[8:3],
{4}6x,7x,1x/8x,2x/7x,
{2},3xh[2:1],
{2}4,6h[2:1],
{2}5,3h[2:1],
{2}4,5h[4:1]/6h[4:1],
{4}5/6,,3,3,
{4}4,4,5,5,
{4}4/6,,6,6,
{4}5,5,4,4,
{2}3/6,7h[2:1],
{2}8,2h[2:1],
{2}1,7h[2:1],
{2}8,1h[4:1]/2h[4:1],
{4}1/2,,2,2,
{4}1,1,8,8,
{4}1/7,,7x,7x,
{4}8x,8x,1x,1x,
{2}2x/7x,3-8[8:3],
{2},7-4[8:3],
{2},3-6[8:3],
{2},7-4[8:3],
{4},,3,3,
{4}4,,6,6,
{4}5,,3,3,
{4}4,,5,5,
{2}4/6,6-1[8:3],
{2},2-5[8:3],
{2},6-1[8:3],
{2},2-6[8:3],
{4},,7,7,
{4}8,,2,2,
{4}1,,8,8,
{4}1,1,1/8,1/8,
{4}2b/7b,,2,2,
{4}1/2,1/2,3,4,
{4}5/6,,7,7,
{4}7/8,7/8,6,5,
{4}3/4,,3h[2:1],4,
{4}4,,6h[2:1],5,
{4}5,,4,4,
{4}5,5,4/5,4/5,
{4}3/6,,7,7,
{4}7/8,7/8,6,5,
{4}3/4,,2,2,
{4}1/2,1/2,3,4,
{4}5/6,,6h[2:1],5,
{4}5,,3h[2:1],4,
{4}4,,6,6,
{4}5,5,4,4,
{4}3,3,2>8[1:1],,
{1},
{4},,1,1,
{4}8,8,2b/7b,,
{2},3-6[8:3],
{2},7-3[8:3],
{2},2-6[8:3],
{2},7,
{2}4/6,7-3[8:3],
{2},2-5[8:3],
{2},6>3[8:3],
{2},2>5[8:3],
{4},,6,6,
{4}7,7,1b/8b,,
{2},B7,
{2}B6,E6,
{2},B2,
{2}B3,E4,
{2},B5,
{2}B6,B7,
{2},B1/B8,
{2}B2/B7,C1f,
{4},,1x,2,
{4}1/2,1/2,3,4,
{4}5/6,,7,7,
{4}7/8,7/8,6,5,
{4}4/6,,7h[2:1],8,
{4}8,,2h[2:1],1,
{4}1,,7,7,
{4}8,8,1,1,
{4}2,2,3>5[8:9],,
{1},
{2},6-1[8:3],
{4},,2,2,
{2}1/2,2-5[8:3],
{4},,6,6,
{2}5/6,6-1[8:3],
{4},,2,2,
{2}1/2,2-5[8:3],
{4},,6,6,
{1}6<4[8:9],
{1},
{4}3x,3x,4x,4x,
{4}5x,5x,4x,3xh[2:1]/6xh[2:1],
{1},
{1},
{1},
E
&inote_4=
(190){1},
{8}3h[1:2],,4,4,,,8,,
{8},,4,4,,,8,,
{8}6h[1:2],,5,5,,,1,,
{8},,5,5,,,1,,
{4}2h[1:1],8x,4,8x,
{4}7h[1:1],1x,5,1x,
{8}2,,6/8,,1/3,,2x/7x,2x/7x,
{8},3x/4x,,5x/6x,,1b/8b,,,
{4}2,1/2,7,7/8,
{8}6,6h[4:1],,5,,3x/8x,,,
{4}7,7/8,2,1/2,
{8}3,3h[4:1],,4,,1x/6x,,,
{4}7h[4:1],6h[4:1],5h[4:1],4h[4:1],
{4}3h[4:1],2<7[4:1],,,
{4}6,5/7,2/4,2/4,
{4}6/8,6/8,1/3<6[4:1],,
{8}7h[4:1],,,1h[4:1]/8h[4:1],,,1/2,,
{4}3/8,7-3[4:1],2-6[4:1],,
{8}7h[4:1],,,1h[4:1]/8h[4:1],,,1/2,,
{4}3/8,7-3[4:1],2-6[4:1],,
{8}7h[4:1],,,1h[4:1]/8h[4:1],,,1/2,,
{4}3/8,7-3[4:1],2-6[4:1],,
{8}7,,6/8,,1/3,,4/5,4/5,
{8},3/6,,2>4[4:1]/7<5[4:1],,,,,
{8}1x/8x,,,,4b,,5,5,
{8}4,,5,4,,4,5,,
{8}4,4,5,,4,,5,5,
{8}4,,5,4,,4,5,,
{8}4,4,5,,4-1[4:1],,6,,
{4}5-8[4:1],3,4-1[4:1],7,
{4}5-8[4:1],2,1b,8,
{8}7,,6,6h[8:3],,,5,,
{8}3/4,,5/6,,4b,,5,5,
{8}4,,5,4,,4,5,,
{8}4,4,5,,4,,5,5,
{8}4,,5,4,,4,5,,
{8}4,4,5,,4-1[4:1],,6,,
{4}5-8[4:1],3,4-1[4:1],7,
{4}5-8[4:1],2,C1f,,
{8},,,2x/7x,,3x/4x,,5x/6x,
{8},1b/8b,,,6>3[4:1],,,,
{2}2q6[4:1],7-4[4:1],
{2}3<6[4:1],7p3[4:1],
{4}2-5[4:1],,7,1,
{4}5/6,3x/8x,2h[4:1],3h[4:1],
{4}4h[4:1],5h[4:1],3h[4:1],4h[4:1],
{4}5h[4:1],6h[4:1],4h[4:1],5h[4:1],
{4}6h[4:1],7pp2[4:3],,,
{2},3<6[4:1],
{2}7p3[4:1],2-5[4:1],
{2}6>3[4:1],2q6[4:1],
{4}7-4[4:1],,2,8,
{4}3/4,1x/6x,8qq8[2:1],,
{4},1pp1[2:1],,,
{8}8,,1/8,,2/6,,3/7,3/7,
{8},2v4[8:5]/6<2[8:5],,,,,,,
{8},,4b,,8,8,1,1,
{8}7,7,2,,1xh[4:1]/3xh[4:1],,,5xh[4:1]/7xh[4:1],
{8},,1b,,2,2,8,8,
{8}3,3,4,,1xh[4:1]/6xh[4:1],,,3x-8[16:3]/4x-7[16:3],
{4},,1/6,2,
{8}3/8,,7,,1/6,,2/7,2>4[16:3]/7<5[16:3],
{4},,E5,C1,
{8}E1,,2/6,2/6<4[2:1],,,,C1f,
{8},,,,1h[4:1],,8,8,
{8}2,2,7,,6xh[4:1]/8xh[4:1],,,2xh[4:1]/4xh[4:1],
{8},,8b,,7,7,1,1,
{8}6,6,5,,3xh[4:1]/8xh[4:1],,,5x-2[16:3]/6x-1[16:3],
{4},,3/8,4/5,
{8}1/6,,2/7,2/7,,8,8,1-4[16:3],
{4},,E1,E8,
{4}E7,E6,E5,E4,
{4}E3,E2,E1/C1xh[2:3],,
{1},
{8},,,,4,,5,5,
{4}4,5p4[2:1],,,
{4},1/8,3/6-3[4:1],,
{4}2,1/2,7,7/8,
{4}4,4/5,6,5/7,
{4}3,2/4,6/8,1/3,
{4}4/5,1x/8x,6xh[16:3],7xh[6:1],
{4}8xh[16:3],1xh[16:3],2xh[16:3],3x<6[4:1],
{8},,,,4/5,,3/4,3/4,
{8},5/6,5/6,,1/2,1/2,,7/8,
{4}7/8,2/7,E1,E2/E8,
{4}E3/E7,B4/B5/E5,C1hf[8:3]/B2/B3/B6/B7,,
{8},,,,4b/5b,,6,6,
{8}4,,6,5,,5,6,,
{8}5,5,6,,4/5,,3,3,
{8}5,,3,4,,4,3,,
{8}4,4,3,,4/5,,6,6,
{8}5,,4/5,,3,3,4,C1,
{4},,1x/8x,3x/4x,
{8}5x/6x,,3x/7x,3x>5[2:1]/7x,,,,C1f,
{8},,,,8,8,1,1,
{8}7,7,2,,1xh[4:1]/3xh[4:1],,,6xh[4:1]/8xh[4:1],
{8},,2b/7b,,3,3,6,6,
{8}1,1,8,,2xh[4:1]/6xh[4:1],,,3x-8[16:3]/7x-4[16:3],
{4},,1/6,3/8,
{8}2x/7x,2x/7x,2x/7x,2x/7x,,1,1,8-5[16:3],
{4},,B4,B2,
{4}B8,B6,E5,E3,
{4}E1,E7,3/4,1/2,
{4}7/8,5/6,2/3,7/8,
{8}4x/5x,,2b/7b,,1h[4:1]/2h[4:1],,,1h[4:1]/8h[4:1],
{4},7/8,1/6,2x-6[8:1],
{8}7x-3[8:1],,2x,,1h[4:1]/2h[4:1],,,1h[4:1]/8h[4:1],
{4},7/8,1/6,2x-6[8:1],
{8}7x-3[8:1],,2x,,1h[4:1]/2h[4:1],,,1h[4:1]/8h[4:1],
{4},7/8,1/6,2x-6[8:1],
{8}7x-3[8:1],,2x,,1h[4:1]/2h[4:1],,,1h[4:1]/8h[4:1],
{4},7/8,1/6,2x-6[8:1],
{8}7x-3[8:1],,2x,,1xp8[1:1],1x,,,
{1},
{8}1,1,8,8,2,2,7,7,
{8}3,3,6,6,4,4,5,5xh[8:37],
{8},,1b>1[1:4],1b,,,,,
{1},
{1},
{1},
{1},
{1},
{1},
E
&inote_5=
(190){1},
{8}3/5,,6,6,5,,4/6,,
{4}4/6,3/7h[2:1],5,3,
{8}4/6,,3,3,4,,3/5,,
{4}3/5,2h[2:1]/6,4,6,
{8}3/5,,6x,6,5,,4x/6x,,
{4}4/6,3x/7xh[2:1],5,3x,
{8}5/7,6,2/4,3,5/7,6,2/4,2/4,
{8},5/7,,2-5[8:1]/4-8[8:1],,2x/4x,,,
{8}4/7,7,5/7,7,3/8,8,4/8,8,
{8}2,2-6[8:1],,5-8[8:1],,1,1,,
{8}2/5,2,2/4,2,1/6,1,1/5,1,
{8}7,7-3[8:1],,4-1[8:1],,8,8,,
{8}7-4[8:1],,2-6[8:1],,8-4[8:1],,1,1,
{8},2/7,3/6,4/5,,4/5,3/6,,
{8}8,6,3/5,2,1,3,4/6,7,
{16}8,,6,,3/5,,2,,1,8,1,8,1,,,,
{8}6-1[8:1],,4,3-8[8:1],,5,6-1[8:1],,
{4}4,2-6[8:1]/8-4[8:1],2x/8x,4x/6x,
{8}3-8[8:1],,5,6-1[8:1],,4,3-8[8:1],,
{4}5,1-5[8:1]/7-3[8:1],1x/7x,3x/5x,
{8}6-1[8:1],,4,3-8[8:1],,5,6-1[8:1],,
{4}4,1-5[8:1]/8-4[8:1],1x/8x,2x/7x,
{8}8,8,1,6,3,3h[4:1],,4,
{16},,2/4,,,,5/7,,,,1,8,1,,2/7,,
{8}3/6,,,,4/7,,8,2,
{8}4,4,3,6h[4:1],,4,7,7,
{8}5,5,6,,4/7,,8,2,
{8}4,4,3,6h[4:1],,4,7,7,
{8}5,5,4/6,,5-8[8:1]/6,,6,,
{4}5-1[8:1]/6,6,5-2[8:1]/6,6,
{4}5/6,5w1[4:1]/6,,,
{8}6,5,4,3/4-8[8:1],,2,2,3,
{8}4,4,3/5,,2/6,,1,7,
{8}5,5,6,3h[4:1],,5,2,2,
{8}4,4,3x,,2x/5x,,1,7,
{8}5,5,6,3h[4:1],,5,2,2,
{8}4,4,3/5,,1v4[8:1]/2,,2,,
{4}1p4[8:1]/2,2,1/2,1<4[4:1]/2,
{8}2,,2h[4:1],,C1f,,,1/8,
{8},5/7,,2/4,,6,6,5-1[8:1]/7-4[8:1],
{8},5x/7x,,,8<5[8:1],,B6/B7,,
{4}1>4[8:1],B2/B3,8<5[8:1],B6/B7,
{4}1,1q6[8:1]/2>5[8:1],,7<4[8:1]/8p3[8:1],
{4},2qq5[2:1],5x,5x,
{4}6x,4/7,8h[4:1],6h[4:1],
{4}4h[4:1],2h[4:1],8h[4:1],6h[4:1],
{4}4h[4:1],2h[4:1],8-4[4:1],4>1[4:1],
{4}1-5[4:1],5<4[2:1],C1f,,
{4},1/8,3/4<7[8:1],1,
{4}5>2[8:1]/6,8,3/4v7[8:1],1,
{4}1/6,4/7,5>2[8:1]/6,8,
{4}3/4<7[8:1],1,5s1[8:3]/6,6,
{24}6,,,,,,8x,,,,,,1b/8b,2x/7x,3x/6x,4x/5x,,,,,,1b/8b,2x/7x,3x/6x,
{24}4x/5x,,,,,,1b/8b,2x/7x,3x/6x,4x/5x,,,,,,1/8,,,1/8,,,,,,
{8}4-8[8:1]/5-1[8:1],,,,2/7,,6,5/7,
{8}3,2/4,1,1,,4/5,3/6,2/7,
{16}1,8,1,,3b/6b,,,,2-6[8:1],,2,,1-5[8:1],,1,,
{8}8-4[8:1],8,7V53[4:1],7,2x,,1,1h[4:1],
{8},7,2/6,,7-3[8:1],7,8-4[8:1],8,
{8}1-5[8:1],1,2-4[8:1],2,8x,,5,4-1[8:1]/5-8[8:1],
{8},,,,8,7,6,4/5,
{8}3x,2x,1x,7x/8x,6b,5b,4b,3b<6[8:1],
{8},7,,8,1/8,2/5,6,7/8,
{8}1,2/3,4,5/7,2/8,2pp4[8:1]/8-2[8:1],,2b/8b,
{8},,2b/6b,,7-3[8:1],7,8-4[8:1],8,
{8}1-5[8:1],1,2V46[4:1],2,7x,,8,8h[4:1],
{8},2,3/7,,2-6[8:1],2,1-5[8:1],1,
{8}8-4[8:1],8,7-5[8:1],7,1x,,4,4-1[8:1]/5-8[8:1],
{8},,,,1/8,2,3/5,6,
{8}5/7,,2/8,2-6[8:1]/8-4[8:1],,,,3/7,
{8},1,1b,,5/7,4,5/6,7,
{8}4/6,3,4/5,6,3/5,2,3/4,6,
{16}4,5,4,5,3>4[4:5],,,,C1f,,,,,,,,
{1},
{8},,,,4/5,,3,3,
{16}6,,6,,4/5,,,,3/7,,,1/5,,,2/6,,
{8}2-5[8:1]/6-1[8:1],,2b/6b,,3,4,1,8b,
{16},,6,,6,,4,,8,,E7,E6,E5,,2,,
{8}2,1,8,7,5/6,4,5/7,8,
{8}4/7,3,4/6,7,3/6,2,3/5,6h[4:1],
{24},,,1,,,1,,,8,,,7h[6:1],,,,5,,5h[6:1],,,,4,,
{24}4h[6:1],,,,2,,2,,,,,,7b,6,5,4,3,2,8b,7,6,5,4,3,
{16}2,,,,4/6,,,,6,,5,,7,,3,3,
{16}4,,2,,6,,5,,8,,3,,4,,1,1,
{8}6,5,7,7,4,6,3,5,
{8}2,4,1,8,2,6<3[4:1],5,4,
{8},,,,5h[1:2],,E2,B2,
{8},,B4/E4,,,,E2,B2,
{8},,B3/E4,,4h[1:2],,E8,B7,
{8},,B5/E6,,,,E8,B7,
{8},,B6/E6,,5h[4:5],,E2,B2,
{8},,B4/E4,,,,B2,B3,
{8},1x/8x,1x/8x,,5/7,6,2/4,3,
{8}5/7,6,2/4,3,8-2[8:1],2pp4[8:1],,C1f,
{8},,1x/8x,,2-6[8:1],2,1-5[8:1],1,
{8}8-4[8:1],8,7V53[8:1],7,2x,,1,1,
{8},E2/E8,B3/B4/B5/B6,,7-3[8:1],7,8-4[8:1],8,
{8}1-5[8:1],1,2-4[8:1],2,8h[4:1],,1,2-5[8:1]/7-4[8:1],
{8},2x/7x,,,1/8,7,4/6,3,
{8}2/4,,1/8,1pp1[4:1]/8qq8[4:1],,,,,
{8},8,8,,5/7,4,3/4,2,
{8}1/8,7,4/6,5,2/4,1,7/8,6,
{8}3/5,2,1/8,7,4/6,3,2/4,1,
{8}7/8,6,5/6,4,3/5,2,1/7,6,
{16}4-2[8:1],5,4,5,,,,,7-3[8:1],,,,3,,2-6[8:1],,
{8},6,7,,4/8-4[8:1],,3-7[8:1]/8,,
{8}3b,,1b/8b,,7-3[8:1],,3,2-6[8:1],
{8},6,7,,4/8-4[8:1],,3-7[8:1]/8,,
{8}3b,,2b/7b,,8-4[8:1],,3,2-6[8:1],
{8},6,7,,4/8-4[8:1],,3-7[8:1]/8,,
{8}3b,,3b/6b,,7-3[8:1],,3,2-6[8:1],
{8},6,7,,4/8,,1-5[8:1]/2-6[8:1],,
{4}1b/2b,4b>5[1:1]/5b,C1f,,
{1},
{16}3/5,,6,5,7,,8,,1/8,,2,,3/4,,5,,
{8}4/6,3,B8/E8,B5/E6,B4/E4,B1/E2,B6/B7/E7,B2/B3/E3,
{16},,,,1b/8b,,1b/8b,,,,,,,,3,4,
{16}2,6,5,7,1,8h[16:7],,,,,,,1h[4:3],,,,
{16}C1,,E7,B6,B5,B4,B3,B2,E2,,8h[8:7],,,E3,B3,B4,
{16}B5,B6,B7,E8,,,,,C1xh[4:3],,,,,,,,
{1},
{1},
{1},
E
