&title=シアトリカル・ケース
&wholebpm=150
&artist=ユリイ・カノン feat.ウォルピスカーター&まひる
&des=サファ太
&shortid=11168
&genre=maimai
&cabinet=DX
&version=maimai DX Splash
&chartconverter=Neskol
&lv_2=4
&des_2=
&lv_3=7+
&des_3=
&lv_4=10+
&des_4=某S氏
&lv_5=12+
&des_5=サファ太
&des_6=
&inote_2=
(150){1},
{1},
{1},
{1},
{1},
{1},
{2}1,1,
{1}1,
{2}2,2,
{1}2,
{2}3,3,
{1}3,
{2}4,4,
{1}4h[2:1],
{1}4x/5x,
{2}4/5,4b/5b,
{2}5,5,
{4}5,5,5,,
{2}6,6,
{4}6,6,6,,
{2}7,7,
{4}7,7,7,,
{2}8,8,
{2}1/8,1b/8b,
{4}1,1,1,,
{4}8,8,8,,
{4}7,7,7,,
{2}5/6,5x/6x,
{4}5,5,5,,
{4}4,4,4,,
{4}3,3,3,,
{4}2,2,2,,
{1}1-5[4:3],
{1},
{2}7,7,
{4}8,8,1/8,,
{1}8-4[4:3],
{1},
{2}2,2,
{4}1/8,1/8,1/8,,
{1}1h[2:1],
{1}1h[2:1],
{1}8h[2:1],
{1}8h[2:1],
{1}B1,
{1}B2,
{1}B3,
{1}B4,
{1}B5,
{1}B6,
{1}B7,
{1}B8,
{1}B1/B2,
{1}B7/B8,
{1}B5/B6,
{1}B3/B4,
{1}C1hf[1:1],
{1},
{2}8,8,
{1}7/8,
{2}6,6,
{4}5,5,5,,
{2}4,4,
{1}3/4,
{2}2,2,
{4}1,1,1,,
{2}1/8,1/8,
{4}8,1,8b,,
{4}1,1,1,,
{4}2,2,1/2,,
{4}3,3,3,,
{4}4,5,4,,
{4}5,5,5,,
{4}6,6,6,,
{2}7/8,1/2,
{2}7/8,1b/8b,
{4}8,8,8,,
{4}7,7,7,,
{4}6,6,5,5,
{2}4/5,4x/5x,
{4}4,4,4,,
{4}3,3,3,,
{4}2,2,1,1,
{4}1/8,1/8,1b/8b,,
{1}1-5[4:3],
{1},
{4}7,7,7,,
{4}8,8,1x/8x,,
{1}8-4[4:3],
{1},
{4}2,2,2,,
{4}1/8,1/8,1/8,,
{4}2x/7x,2x/7x,2b/7b,,
{1}3h[2:1],
{1}4h[2:1],
{1}5h[2:1],
{4}6,6,5/6,,
{4}7/8,7/8,7h[2:1]/8h[2:1],,
{1},
{1},
{1},
E
&inote_3=
(150){1},
{4}6,6,5,5,
{2}4,4/5,
{4}2,2,1,1,
{2}8,1/8,
{4}2/7,2/7,2x/7x,,
{2}3h[2:1],4,
{2}6h[2:1],5,
{4}4,4,3,,
{4}5,5,6,,
{2}7h[2:1],8,
{2}2h[2:1],1,
{2}7h[2:1],8,
{4}1,1,2/7,,
{2}3h[4:1]/4h[4:1],4h[4:1]/5h[4:1],
{4}6,6,5x/6x,,
{4}3,3,3/4,,
{4}6,6,5/6,,
{4}3,4,5,6,
{4}7,7,5/7,,
{4}7,7,7/8,,
{4}2,2,1/2,,
{2}7x/8x,1x/2x,
{2}1b/8b,2x/7x,
{4}3,4,5/6,5/6,
{4}7,8,1x/8x,2x/7x,
{4}3,2/4,6,5/7,
{4}4/5,4/5,3x/6x,,
{4}3,4,5/6,5/6,
{4}7,8,1x/8x,2x/7x,
{4}3,2/4,6,5/7,
{4}8,1/7,2x/6x,,
{8}2,2,2,,3,,4,,
{8}5,5,5,,6,,7,,
{8}8,8,8,,1,,2,,
{4}3/4,3/4,2b/5b,,
{8}6,6,6,,7,,8,,
{8}1,1,1,,2,,3,,
{4}4/5,5/6,4/5,3/4,
{8}5,5,4/5,,3x/6x,,,,
{2}2h[2:1],3h[2:1],
{2}4h[2:1],5,
{2}7h[2:1],6h[2:1],
{2}5h[2:1],4,
{2}E4,B2/E3,
{2}E6,B7/E7,
{2}E5,B6/B7,
{2}B2/B3,B4/B5,
{2}B6,B8/E8,
{4}B1,C1,B5,,
{2}B3,B1/E2,
{4}B8,C1,B4,,
{4}E3,B2,B1,,
{4}B8,B7,E7,,
{4}E5,B4,B3,,
{4}B5,B6,E7,,
{1}C1xh[1:1],
{2},1x/8x,
{2}2h[4:1]/7h[4:1],3h[4:1]/6h[4:1],
{2}4x/5x,3x/6x,
{1}7-4[2:1],
{4}3,3,2,,
{1}1-5[2:1],
{4}6,6,7,,
{1}8<5[2:1],
{1}4>1[2:1],
{2}8h[2:1],1h[2:1],
{4}8,8,2x/7x,,
{4}2,2,3/5,,
{4}7,7,4/6,,
{4}4,4,3,3,
{4}2,2,1/8,,
{4}7,7,4/6,,
{4}2,2,3/5,,
{2}4x/6x,3x/5x,
{1}2xh[2:1]/7xh[2:1],
{4}6,5/7,4,3/5,
{4}6,4/7,3x/8x,3x/8x,
{4}1,2/8,7,6/8,
{4}5,4,3x/6x,,
{4}3,2/4,5,4/6,
{4}3,2/5,1x/6x,1x/6x,
{4}8,1/7,2,1/3,
{4}4,5,4x/5x,,
{8}6,6,6,,7/8,,7/8,,
{8}1,1,1,,2/8,,2/8,,
{8}3,3,3,,4/5,,4/5,,
{4}6,5/7,4b/8b,,
{8}3,3,3,,1/2,,1/2,,
{8}8,8,8,,1/7,,1/7,,
{8}6,6,6,,4,4,4,,
{8}4/5,4/5,4/5,,3x/6x,,,,
{8}1/8,1/8,1/8,,2b/7b,,,,
{4}3,4,5,6,
{4}5/6,5/6,4/7,4/7,
{4}6,5,4,3,
{4}3/4,2/5,1x/6x,,
{4}2/7,2/7,C1hf[2:1],,
{1},
{1},
{1},
E
&inote_4=
(150){1},
{8}4h[4:1],,,3/5,3h[16:3]/5h[16:3],,,2/6,
{8}2h[16:3]/6h[16:3],,,1/7,8,1,8,,
{8}8h[16:3],,,1/7,1h[16:3]/7h[16:3],,,2/6,
{8}2h[16:3]/6h[16:3],,,3/5,4,5,4,,
{8}4x/5x,4x/5x,3x/6x,3x/6x,4x/5x,,,,
{8}3h[4:1],,4,,5,4,5,,
{4}4h[4:1],5h[4:1],6,5/7,
{2}6>3[16:3],2>5[16:3],
{4}B8,B2,B5/E7,,
{8}6h[4:1],,5,,4,5,4,,
{4}5h[4:1],4h[4:1],3,1pp4[4:3]/5pp8[4:3],
{1},
{4}E3/E7,B3/B6,B4/B5,,
{2}C1hf[2:3]/E8,B5,
{4}B6,B7,E8,,
{8}1,,2/8,,2,2,1,,
{8}3,3,4h[4:1],,5,,5/6,,
{8}8,,1/7,,7,7,8,,
{8}6,6,5h[4:1],,4,,3/4,,
{8}2h[4:1],8,8,,7h[4:1],1,1,,
{8}1,8,1,,2/7,,2-5[8:1],,
{4},7-3[8:1],,1-5[8:1],
{4},6<3[16:5],C1f,,
{8}1,1,2/8,,8,8,1/7,,
{8}5,5,4/6p4[16:5],,,,,,
{8}1,1,8,8,1h[4:1],,2,,
{4}3/4,5/6,2/4,5x/7x,
{8}8,8,1/7,,1,1,2/8,,
{8}4,4,3q5[16:5]/5,,,,,,
{8}8,8,1,1,8h[4:1],,7,,
{4}5/6,3/4,5/7,2b/4b,
{8}3/5,4,3/5,,4/6,5,4/6,,
{8}6/8,7,6/8,,1/3,2,1/3,,
{4}3/5,4/7,2/5,4/8-3[8:1],
{4}2-6[8:1],5p4[4:1],1,,
{8}2/8,1,2/8,,1/7,8,1/7,,
{8}5/7,6,5/7,,2/4,3,2/4,,
{8}1,1,7,7,3,3,5,,
{8}4/5,4/5,4/5,4/5,4b/5b,,,,
{2}4h[4:1]/5h[4:3],3h[4:3],
{2}6h[4:3],4h[4:3],
{2}3h[4:3],1h[4:3],
{4}8h[4:1],,1b,8b,
{1}2pp5[4:5]/7h[2:1],
{1}6h[2:1],
{1}2h[2:1]/7p5[4:5],
{1}3h[2:1],
{12}4,,4,5h[2:1],,,6,,,6,,,
{12}5,,5,4h[2:1],,,3,,,3,,,
{12}4,,4,5h[2:1],,,6,,,6,,,
{2}5<8[16:3],4>1[16:3],
{12}8,,8,1h[2:1],,,2,,,2,,,
{12}1,,1,8h[2:1],,,7,,,7,,,
{12}8,,8,1h[2:1],,,2,,,2,,,
{12}1,,1,8,,,8,,8,1pp5[4:3]*qq5[4:3],,,
{1},
{8}4x/6x,4x/6x,3x/5x,3x/5x,2b/6b,,,,
{8}3h[4:1],,4h[4:1],,3,3,4,4,
{4}3h[4:1]/5h[4:3],,3,3>8[16:3],
{4},7<4[16:3],,1,
{4}1/2,3/8,4q8[16:3]/7,,
{8}6h[4:1],,5h[4:1],,6,6,5,5,
{4}4h[4:3]/6h[4:1],,6,6<1[16:3],
{4},2>5[16:3],,8,
{4}7/8,1/6,2/5,3/4,
{2}3h[4:1]/4h[4:1],5h[4:1]/6h[4:1],
{8}2/4,,5/7,,4,5,3b/6b,,
{8}3h[4:1],4,4,,2h[4:1],1,1,,
{8}3,3,5,5,4,,3/6,,
{8}6h[4:1],5,5,,7h[4:1],8,8,,
{8}6,6,4,4,5,,3/6,,
{8}2h[4:1],1,1,,3h[4:1],4,4,,
{8}2,2,8,8,1,,7-3[8:1]/8-4[8:1],,
{4},1-5[8:1]/2-6[8:1],,1-5[8:1]/8-4[8:1],
{4},3>6[16:5]/6,C1f,,
{8}8,8,1,7,5/6,5/6,4/7,,
{8}1,1,8,2,3/4,3/4,2/5,,
{8}6,4,5,3,4h[4:1],,2,,
{4}1/3,2/8,1/7-4[8:1],8x,
{8}1,1,8,2,3/4,3/4,2/5,,
{8}8,8,1,7,5/6,5/6,4/7,,
{8}3,5,4,6,5h[4:1],,7,,
{4}6/8,1/7,2-5[8:1]/8,1b,
{8}3h[4:1]/6,5,6h[4:1],4,3h[4:1],5,6x,,
{8}2/7h[4:1],1,2h[4:1],8,7h[4:1],1,2x,,
{8}4h[4:1]/6,5,6h[4:1],3,2h[4:1],7,8x-3[8:1],,
{4}2-6[8:1],5p4[4:1],1,,
{8}2h[4:1]/5,4,5h[4:1],3,2h[4:1],4,5b,,
{8}4/7h[4:1],5,4h[4:1],6,7h[4:1],5,4b,,
{8}5/6,5/6,4/7,4/7,3/8,3/8,1/2,,
{8}4x/8x,4x/8x,3x/7x,3x/7x,2xh[4:1]/6xh[4:1],,,,
{8}1b/5b,1b/5b,2b/6b,2b/6b,3b/7b,,,,
{16}7h[16:3],,,6h[16:3],,,5,,4h[16:3],,,3h[16:3],,,2,,
{16}4h[16:3],,,5h[16:3],,,6,,B3,,E8,,C1,,,,
{16}2h[16:3],,,3h[16:3],,,4,,5h[16:3],,,6h[16:3],,,7,,
{16}5h[16:3],,,4h[16:3],,,3,,B6,,E2,,C1,,,,
{8}2/7,2/7,3/6,3/6,4-8[8:1]/5-1[8:1],,,,
{1}B3/E3/B6/E7,
{1},
{1},
{1},
E
&inote_5=
(150){1},
{24}3,,,3,,4,3,,,3,,,5,,,2,,,8,,,4,,,
{24}6,,,6,,5,6,,,6,,,4,,,7,,,3/6,,,,,,
{24}2,,,2,,1,2,,,2,,,8,,,3,,,5,,,1,,,
{24}7,,,7,,8,7,,,7,,,1,,,6,,,2/7,,,,,,
{8}4x/5x,4x/5x,3x/6x,3x/6x,2b/7b,,,,
{8}2/6,5,3,4,4/7,6,2,3,
{8}3/7,6,3,4,4/6,5,2,3,
{8}3/6,5,3,4,4/7,6,2,3,
{8}5/7,6,4/5,3,2/4,,4/6,,
{8}3/7,4,6,5,2/5,3,7,6,
{8}2/6,3,6,5,3/5,4,7,6,
{8}3/6,4,6,5,2/5,3,7,6,
{8}2/5,3,4/5,6,4x/7x,,2x/6x,,
{8}B5,E2,E8,B4,E6,E4,E8,E2,
{8}B5,B7,B4,B2,E1,C1,E5,,
{8}3/6,6,4/6,6,2/5,5,4/5,5,
{8}3-6[8:1]/4,4,4,4,4/7-2[8:1],4,4,4,
{8}3/4,3,3/6,3,4/5,4,4/7,4,
{8}5/6<1[4:1],5,5,5,5,5,4/7,,
{8}2>5[4:1]/5,5,6,6,7,7,4/8<5[4:1],4,
{24}3,,,3,,,2,,,2,,,1/6,,,,,,2,,2,1,,,
{24}3h[4:1]/8,,,,,,7,,7,8,,,1/6h[4:1],,,,,,4,,4,5,,,
{8}2b/7b,,,3/6,3h[8:1]/6h[8:1],,4/5,,
{24}5b/7b,,,4,,,3/8,,,2,,4,3h[8:1],,,2,,,1/3,,,8,,,
{24}5/7,,,4,,,3/5,,,2,,7,1-5[8:1],,,2/8,,,,,,,,,
{16}6,5,6,5,6,,4/7,4/7,,2,2,,1/6,,7,,
{16}3/8,,4,,6,,5/7,5/7h[16:3],,,8b,,1b/6b,,,,
{24}3x/4x,,,5,,,1/6,,,7,,5,6h[8:1],,,7,,,6/8,,,1,,,
{24}2/4,,,5,,,4/6,,,7,,2,8-4[8:1],,,1/7,,,,,,,,,
{16}3,4,3,4,3,,2/5,2/5,,7,7,,2/8,,3,,
{16}4/6,,7,,4,,3/8,3h[8:1]/8h[8:1],,,3/8,,1b/6b,,,,
{8}4h[8:1]/7b,8,5h[8:1]/7,8,3h[8:1]/7,8,5x/7x,4x/8x,
{8}2/6h[8:1],1,2/4h[8:1],1,2/5h[8:1],1,2x/4x,1x/5x,
{8}6/8h[8:1],6,3/4h[8:1],3,5/7h[8:1],5,3/4,2,
{4}8<5[8:1]*>3[8:1],8,C1f/B2/E2/E3/B6/E6/E7,,
{8}2b/5h[8:1],1,2/4h[8:1],1,2/6h[8:1],1,2x/4x,1x/5x,
{8}3h[8:1]/7,8,5h[8:1]/7,8,4h[8:1]/7,8,5x/7x,4x/8x,
{8}1h[8:1]/3,3,5/7h[8:1],5,3h[8:1]/4,4,2/5,6,
{8}5b/7b,1/8,2b/4b,5/6,C1f/B3/E4/B7/E8,,,,
{4}6h[2:1],B6,5h[2:1],B5,
{8}4h[2:1],,B4,,3,3,3,,
{4}4h[2:1]/5,B4,5h[2:1],B5,
{12}4,,,3/6,,,2x,4x,3x,7x,5x,6x,
{4}4>2[4:1],5,6<8[4:1],5,
{4}3>1[4:1],4,5<7[4:1],4,
{4}2>4[4:1],1,8<6[4:1],1,
{4}2pp5[2:1],5,6,7,
{4}5>2[4:1]/7h[4:1],,6,2/5,
{4}2h[4:1]/4<7[4:1],,3,4/7,
{12}7,,7,5,,5,4,,4,3h[4:3],,,
{4}E4,C1,E6,4/5,
{4}1<6[4:1]/2h[4:1],,1,1/6,
{4}7h[4:1]/8>3[4:1],,8,3/8,
{12}3,,3,1,,1,8,,8,7h[4:5],,,
{4}E1,E7,E3,E5,
{1}C1xh[2:1],
{8}2/7,E4/E6,2/7,B3/B6,2b/7b,,,,
{8}5/7x,,3x/5,,5/6x,6,4x/5,4,
{8}5/7xh[2:1],,,5,5,,5/6,,
{4}3-1[4:1],4,5-3[4:1],6,
{4}7-5[4:1],8,8,1/7,
{8}5,4,6,5h[8:3],7,7,6,7,
{8}4,5,3,4h[8:3],2,2,3,2,
{8}5,4,6,5h[8:3],7,7,6,7,
{8}1,2,4,5,3x-6[8:1],,6x,,
{8}E8,E5,E6,C1,E1,E4,E5,E2,
{8}B5,B7/E7,B4,B2/E3,E1,C1,E5,,
{8}2/6,2,3/5,3,4/7,4,5/6,5,
{8}5/7-3[8:1],5,5,5,2-6[8:1]/5,5,5,5,
{8}5/7,7,3/6,6,4/5,5,2/4,4,
{8}3>8[4:1]/4,4,4,4,4,4,2/5,,
{8}4/7<4[4:1],4,3,3,2,2,1>4[4:1]/4,4,
{24}5,,,5,,,6,,,6,,,1/7,,,,,,2,,2,1,,,
{24}3h[4:1]/8,,,,,,7,,7,8,,,1/6h[4:1],,,,,,4,,4,5,,,
{8}2b/7b,,,2/7,2h[8:1]/7h[8:1],,4/5,,
{24}5b/7b,,,4,,,1/3,,,2,,4,3h[8:1],,,2,,,1/3,,,8,,,
{24}5/7,,,4,,,3/5,,,2,,8,1-4[8:1]*-6[8:1],,,2,,,,,,,,,
{16}7,5,6,5,7,,4/8,4/8,,2,2,,1/7,,6,,
{16}4/5,,3,,2/6,,5/7,5/7h[16:3],,,8b,,1b/6b,,,,
{24}2/4,,,5,,,6/8,,,7,,5,6h[8:1],,,7,,,6/8,,,1,,,
{24}2/4,,,5,,,4/6,,,7,,1,8-3[8:1]*-5[8:1],,,7,,,,,,,,,
{16}2,4,3,4,2,,1/5,1/5,,7,7,,2/8,,3,,
{16}4/5,,6,,7/8,,1/6,1h[8:1]/6h[8:1],,,1/6,,3b/8b,,,,
{8}2b/5h[8:1],1,2/4h[8:1],1,2/6h[8:1],1,2x/4x,1x/5x,
{8}2h[8:1]/7,8,5h[8:1]/7,8,4h[8:1]/7,8,5x/7x,4x/8x,
{8}1h[8:1]/3,2,3/5h[8:1],2,6/8h[8:1],7,4/6,7,
{4}1<6[8:1]*>4[8:1],1,C1f/B3/E3/E4/B7/E7/E8,,
{8}4h[8:1]/7b,8,5h[8:1]/7,8,3h[8:1]/7,8,5x/7x,4x/8x,
{8}2/7h[8:1],1,2/4h[8:1],1,2/5h[8:1],1,2x/4x,1x/5x,
{8}6/8h[8:1],7,4h[8:1]/6,7,1h[8:1]/3,2,3/5h[8:1],2,
{8}1b/6b,5/7,2b/4b,1/8,3b/6b,,1b/8b,,
{8}2b/4b,5b/7b,1b/3b,6b/8b,C1f/B2/E2/B6/E6,,,,
{24}7,,,7,,8,6h[4:1],,,5,,,4,,,3/5,,,1,,,2/4,,,
{24}3,,,3,,4,2h[4:1],,,1,,,8,,,1/7,,,2/6,,,3/5,,,
{24}6,,,6,,5,7h[4:1],,,8,,,5,,,4/6,,,3/5,,,2/4,,,
{24}2,,,2,,1,3,,,4/6,,,8,,,3/5,,,1,,,4/6,,,
{16}3x/7x,,1x/5x,,2x/6x,,4x/8x,,3b/5b,,,8bw4[8:1],,,1b/7b,,
{1}C1f,
{1},
{1},
{1},
E
