&title=カラッポ・ノンフィクション
&wholebpm=170
&artist=Ino(chronoize) feat. 柳瀬マサキ
&des=Jack
&shortid=11211
&genre=ゲームバラエティ
&cabinet=DX
&version=maimai DX Splash
&chartconverter=Neskol
&lv_2=3
&des_2=
&lv_3=7
&des_3=
&lv_4=10
&des_4=はっぴー
&lv_5=13+
&des_5=Jack
&des_6=
&inote_2=
(170){1},
{1},
{1}4h[8:7],
{1},
{1}5h[8:7],
{1},
{1}4h[8:7],
{1},
{1}5h[8:7],
{1},
{2}4,4,
{1}4,
{2}3,3,
{1}3,
{2}2,2,
{1}2,
{2}1,1,
{1}1h[8:7]/8h[8:7],
{1},
{1}8,
{1}8,
{1}7,
{1}7,
{1}6,
{1}6,
{1}5,
{1}4x/5x,
{2}4,4,
{1}4,
{2}3,3,
{1}3/4,
{2}2,2,
{1}2,
{1}1-5[4:3],
{1},
{1}6h[1:1],
{2},6,
{2}5,5,
{1}4x/5x,
{1}B4/B5,
{1}B3/B6,
{1}B2/B7,
{1}E2/E8,
{1}C1hf[1:1],
{1},
{4}1,1,1,,
{4}2,2,2,,
{4}3,3,3,,
{2}4/5,4/5,
{1}5h[2:1],
{1}4h[2:1],
{2}5x,4x/5x,
{4}5,4,5b,,
{4}6,6,6,,
{4}7,7,7,,
{4}8,8,8,,
{4}1,1,1b,,
{1}8-4[4:3],
{1},
{1}1-5[4:3],
{1},
{2}6,6,
{1}5/6,
{1}7-3[4:3],
{1},
{1}2-6[4:3],
{1},
{1}7h[8:7],
{1},
{1}8h[8:7],
{1},
{1}1h[8:7],
{1},
{1}2h[8:7],
{1},
{1}3,
{1}3,
{1}4,
{1}4,
{1}4x/5x,
{1}B6,
{1}B4,
{1}B5,
{1}B3,
{1}B4/B5,
{1}B3/B6,
{1}C1hf[1:1],
{1},
{4}8,8,8,,
{4}7,7,7,,
{4}6,6,5,5,
{4}4,4,4x/5x,,
{1}4-1[4:3]/5-8[4:3],
{1},
{1}1-4[4:3]/8-5[4:3],
{1},
{2}4,4,
{2}5,5,
{1}4-1[4:3],
{1},
{1}C1xh[8:15],
{1},
{1},
{1},
E
&inote_3=
(170){1},
{1},
{1},
{1},
{1},
{1},
{1}4h[1:3],
{1},
{1}5h[1:1],
{2},4x/5x,
{2}6h[2:1],5,
{2}4,4/5,
{2}3h[2:1],4,
{2}3/4,2/5,
{2}2xh[2:1],1,
{2}7h[2:1],8,
{2}1h[2:1],8h[2:1],
{2}1,1/8,
{1}2b/7b,
{2}E3,E4,
{1}E5,
{2}E7,E6,
{1}E5,
{2}E4,E3,
{1}E2,
{1}C1xh[1:1],
{1},
{2}2h[2:1],3h[2:1],
{2}4,4/5,
{2}7h[2:1],6h[2:1],
{2}5,4/7,
{2}6h[2:1],5h[2:1],
{2}4h[2:1],3,
{1}4h[2:1]/5h[2:1],
{2}3/6,2x/7x,
{1}1pp4[4:5],
{1},
{1}5pp8[4:5],
{1},
{4}1,1,2,,
{4}3,3,4,,
{4}5,5,6,,
{4}7,7,8,,
{4}1,1,8,8,
{2}2x/7x,4/5,
{4}3,3/4,6,5/6,
{4}4,3/5,2x,2x,
{4}7,7/8,2,1/2,
{4}8,1/7,2x/6x,,
{4}6,5,4/7,,
{4}3,4,2/5,,
{4}1x,1,2x,2,
{4}3,4/5,3x/6x,,
{4}7,7/8,2,1/2,
{4}8,1/7,6x,6x,
{4}3,3/4,6,5/6,
{4}7,7,1x/8x,1x/8x,
{1}1x>4[2:1]/8x,
{1}5x<8[2:1],
{4}1h[2:1],,8,8,
{4}7,6,4x/5x,,
{2}6h[2:1],5,
{2}3h[2:1],4,
{1}4-1[4:3]/5-8[4:3],
{2},2x/7x,
{1}C1xh[1:1],
{1},
{1}1pp6[4:5],
{1},
{1}8qq3[4:5],
{1},
{1}2pp6[4:5],
{1},
{2}7h[2:1],6h[2:1],
{2}5,4/5,
{1}3h[2:1]/4h[2:1],
{1}5h[2:1]/6h[2:1],
{1}4h[2:1]/5h[2:1],
{2}4/5,3/6,
{1}C1xh[1:1],
{1},
{1},
{1},
{1},
{2}B4,B2/E3,
{2}B5,B7/E7,
{2}E5,E4/E6,
{1}C1f/B2/B7,
{4}3,2/4,6,5/7,
{4}4,3/5,2x/6x,2x/6x,
{4}7,6/8,2,1/3,
{4}8,1/7,2x/6x,,
{1}5x<8[2:1],
{1}1x>4[2:1],
{4}5h[2:1],,4,4,
{4}5,6,7x/8x,,
{1}1q4[4:5],
{1},
{1}5q8[4:5],
{1},
{1}1h[4:5]/8h[8:15],
{1},
{1},
{1},
E
&inote_4=
(170){1},
{1},
{2}6h[2:1],C1xh[8:3],
{1},
{2}3h[2:1],C1xh[8:3],
{1},
{4}6,6,5,4,
{1},
{4}3,3,4h[8:7],5h[1:1],
{4},,,4,
{8}1h[4:1]/7h[4:1],,,,4/6,,3,3h[8:3]/5h[8:3],
{2},1/7,
{8}2h[4:1]/8h[4:1],,,,3/5,,6,4h[8:3]/6h[8:3],
{8},,,3h[8:3]/5,,,5p4[2:1],,
{8},,,,,,,4xh[8:3]/6xh[8:3],
{2},2/8,
{8}1h[4:1]/7h[4:1],,,,4/6,,3,3h[8:3]/5h[8:3],
{8},,,4/6h[8:3],,,4qq5[2:1],,
{1},
{2}6,5<8[4:3],
{1},
{2}3,4>1[4:3],
{1},
{2}7,8-5[4:3],
{1},
{2}2,1-4[4:3],
{4},,,5,
{8}5/6h[4:1],,3,3h[4:1],,1h[4:1],,8h[4:1],
{8},6h[4:1],,5,,4,4,5,
{8}3,3h[4:1],,6h[4:1],,8h[4:1],,1h[4:1],
{8},3h[4:1],,4,,5,5,4,
{8}3h[4:1],,6,6h[4:1],,8h[4:1],,1h[4:1],
{8},3h[4:1],,4,,4/5<4[8:5],,,
{8},,,,,,,1/8,
{1}1>4[4:1]/8<5[4:1],
{4}4,3,2/6,1,
{4}8,7,2/6,5,
{8}4,,3,,2/6h[4:1],,1,1b,
{8},8-4[4:1],,,,,,,
{4}3h[1:1],4,5,6,
{4}7h[1:1],5,4,3,
{4}2h[2:1],4,6h[2:1],5,
{4}1h[2:1],7,8<1[8:5],,
{8},,,,,8,8,1,
{8},2/4,,5/7,,1b/8b,2b/7b,,
{8}1/6,,3/5,,7,7h[2:1],,5,
{8},1p5[4:1],,,,8,8,1,
{8}1,,3,3/4,,2/5h[4:1],,1,
{8},3>8[4:1]/7<4[4:1],,,,,,2,
{8}2h[4:1],,4,4,,3/5,,5/6,
{8},7/8,,1/2,,3/4,,6,
{8}5/7h[4:1],,3,3,2h[4:1]/4h[4:1],,,3,
{1}3q5[2:1],
{8}8h[4:1],,6h[4:1],,5,5,,4h[4:1]/6-3[4:1],
{8},,,1h[4:1],,8,8,2,
{8}1h[4:1],,3h[4:1],,4,4,,3-6[4:1]/5h[4:1],
{8},,,8h[4:1],,6h[4:1],,4h[4:1],
{8},2<5[8:3],,,,,,7h[4:1],
{8},6<3[8:3],,,,,,,
{8}8h[8:5],,2,1h[4:1],,,,1/8,
{8},3/6,,4h[4:1]/5h[8:7],,,4,,
{4}3,4h[2:1],6,5h[2:1],
{4}3,4h[2:1],6,5h[2:1],
{4}E4,4h[2:1],E6,5h[2:1],
{4}E3,4h[2:1],E7,5h[2:1],
{4}4,4h[2:1],5,5h[2:1],
{4}4,4,C1,,
{8}1b/8b,,,,6,6,5,7h[4:1],
{8},1,1,8,,3/7,,4,
{8}3h[4:1]/5,,1h[4:1],,8,8,,3-6[4:1]/5,
{8},,,7-3[4:1],,,,1h[2:1],
{8},,,8,1,2,3,4/5,
{8},6,6,5/7,,2/4,,,
{8}1h[4:1]/8h[4:1],,,2h[4:1]/3h[4:1],,,4h[4:1]/5h[4:1],,
{8},6/7>2[4:1],,,,,,,
{4}3,3,3,3,
{4}3/4,3/5,3/6,3/7,
{8}6,6,4,5,4,4,6,6,
{8}3,3,8,1,7,7,1>8[8:5],,
{1},
{1}6h[1:2],
{1},
{1}5h[1:2],
{1},
{1}4h[1:1],
{4}3h[4:7],4,4,4,
{8}E5,,5,,B6/B7,,4,4,
{8}3,3,5,4/6,,2b/7b,2b/7b,,
{8}1h[4:1],,3,3,,4,,3-6[4:1]/5h[4:1],
{8},,,8h[4:1],,1,1,7,
{8}8h[4:1],,6h[4:1],,5,5,,4h[4:1]/6-3[4:1],
{8},,,1h[4:1],,3h[4:1],,5h[4:1],
{8},7>4[8:3],,C1f,,,,2h[4:1],
{8},3>6[8:3],,C1f,,,,,
{8}1h[8:5],,7,8h[4:1],,,,4/5,
{8},1x/8x,2x/7x,3x/6x,,,,,
{4}E5,E4,E3,E2,
{4}E1,E8,E7,E6,
{1}C1xh[1:1]/E5,
{1},
{8}1h[4:1]/8h[4:1],,,5h[4:1]/7h[4:1],,,2h[4:1]/4h[4:1],,
{8},1/8,1h[8:5]/8h[8:5],,,,,,
{1},
{1},
{1},
E
&inote_5=
(170){1},
{16},,,,,,,,,,,,,,6,5,
{8}4h[2:1],,,,5h[8:3],,,6h[2:1],
{16},,,,,,7-5[8:1],,,,,,,,3,4,
{8}5h[2:1],,,,4h[8:3],,,3h[2:1],
{16},,,,,,2-4[8:1],,,,,,,,6,5,
{8}4,3,2,1,8h[8:3],,,1h[2:1],
{16},,,,,,8-4[8:1],,,,,,,,2,3,
{16}4,5,6,7,8,1,2,3,4,5,6,7,,,3h[8:3]/7h[8:3],,
{8},,,3-8[8:1]/7-4[8:1],,,,,
{8}3/4,2/5,,7,6,5,4,3/4,
{16},,7,,8,,1-4[8:1]/7,,,,8,,,,6,5,
{8}6,4/7,,2,3,4,5,5/6,
{16},,2,,1,,2/8-5[8:1],,,,1,,,,1,8,
{24}1,2,3,4,5,6,7,8,1,2x,3,4,5,,,4xqq1[8:5]/5xpp8[8:5],,,,,,4b/5b,,,
{8},,,,,2/7,8,1,
{8}2/7,2/7>2[4:1],,2>5[4:1],,5<4[2:1],,C1hf[2:1],
{24},,,,,,,,,,,,,,,,,,,,,1,8,1,
{16}8,7,6,5,4,3,2,1,8,7,6,5,,,,,
{8}4h[2:1]/6,,,,5h[8:5],,,3h[4:1],
{8},,,4,,,,,
{8}4h[2:1]/6,,,,7h[8:5],,,5h[4:1],
{8},,,5/7,,,,,
{8}3/5h[2:1],,,,2h[8:5],,,4h[4:1],
{8},,,2/4,,,,,
{8}3/5h[2:1],,,,4h[8:5],,,6h[4:1],
{8},,,3-6[8:1]/5,,6,,,
{8}4/7,6,5,4/7,,3,4,3/5,
{8},7,6,5-3[8:1]/7,,,,,
{8}2/5,3,4,2/5,,6,5,4/6,
{8},3/5,,2/4-6[8:1],,,,,
{8}3/6,4,5,3/6,,7,6,5/7,
{8},2,3,2/4,,3>6[8:5]/6,,C1xh[8:5],
{8},,,,,,,3,
{8}4,5,6,4/5,,,,,
{8}5-3[8:1]/6,,6,,7,7,5/7,,
{8}3/4-6[8:1],,3,,2,2,2/4,,
{24}3h[4:1]/6h[4:1],,,,,,,,,3/6,,,4/5,,,4/5,,,,,,E1,C1,E5,
{24},,,E8,E7,E6,,,,E2,E3,E4,7,,5,,6,,2,,4,,3,,
{8}4x/5x,6,4/5,3,4/5,7,4/5,2,
{8}3/4,7,5/6,2,3/4,8,5/6,1,
{8}2/4,8,5/7,1,2/4,3,5/7,6,
{8}1/4,3,5/8,6,1/4,2,5/8,7,
{16}1,8,1,8,2,7,2,7,3,6,3,6,4,5,4>1[8:1],,
{8},4x/8<5[8:1],,1/8x,,3x/4x,1b/6b,,
{8}7-4[8:1]/8-3[8:1],,7/8,,1/2,1-4[8:1]/2,,1/8-5[8:1],
{8},7<2[4:1]/8,,1h[8:3],,,8x,,
{8}2-5[8:1]/6,,7,7-4[8:1],,3h[4:1],,2<7[8:1],
{16},,4>5[8:3],,,,5,,,,,,8x,,2,1,
{8}2,,4/7,4/7>2[4:1],,2>5[4:1],,5<8[4:1],
{8},8>3[4:1],,3<6[4:1],,6,,1-5[8:1],
{8}1x,,,2-4[8:1]/8-6[8:1],2x/8x,,,5,
{8}4/5,,2/7,1p4[8:1]/8q5[8:1],,1x/8x,,,
{8}1-6[8:1]/2-5[8:1],,1/2,,7/8,7/8-5[8:1],,1-4[8:1]/8,
{8},1/2>7[4:1],,8h[8:3],,,1x,2/7,
{8}3/6>3[8:1],,1h[4:1],,8,1-4[8:1]/8,,1x/6-3[8:1],
{8},2-7[8:1]/6x,,2x/5-8[8:1],,4x/5x,,3qq8[8:5]/8xh[4:1],
{8},,,4<7[8:1],,,,1xh[4:1]/6pp1[8:5],
{8},,,5>2[8:1],,,,,
{8}3h[4:1]/8,,4,1/6h[4:1],,3,2/7,1/8,
{8},3/6<3[4:1],4,5,,,1/8,,
{8}2/7,,3/6,,4/5,4/5<8[4:1],,8>3[4:1],
{8},3<6[4:1],,6<1[4:1],,1>4[4:1],,4<7[4:1],
{8},,,1,2,3/4,,8,
{8}7,5/6,,3,2,1pp4[8:7]/5pp8[8:7],,,
{24},,,,,,,,,,,,,,,,,,,,,E1,C1,E5,
{48},,,,,,E2,,E3,,E4,,,,,,,,E8,,E7,,E6,,,,,,,,,,,,,,3,,,5,,,4,,,6,,,
{16}5,,3/7,,6,4,5,3,4,,3/5,,2/6,,1-5[8:1]/7,,
{8},5,6,7s3[4:1],,3s7[4:1],,,
{8}1h[4:1],,8-4[8:1],,4,3,2,1q5[8:1]/5<8[8:1],
{8},1xp5[8:1]/5x>2[8:1],,1x/5xw1[8:1],,,,3b/7b,
{16},,,,1/8,2/7,3/6,4/5,3h[8:1]/6h[8:1],,,,2/7,,1/8,,
{8},2/6-2[8:1],2/6,,3-5[8:1],7-1[8:1],3,7,
{16}4,,4h[4:1],,,,5,5,4,,3/6,,2/7,,1>4[8:1]/8<5[8:1],,
{16},,1/8,,,,2/7,,4x,3x,2x,1x,5x,6x,7x,8x,
{8}1/2,2,2,2,2/4,4,4,4,
{8}4/5,5,5,5,5/7,7,7,7,
{8}7/8,6,4/5,3,1/2,3,4/5,2/7,
{16}1,8,1,8,2,7,2,7,3,6,3,6,4,5,4,5,
{48}2x,,3x,,4x,,5x,,6x,,7x,,1,,,8,,,3,,,,,,4,,,,,,5,,,,,,6,,,,,,,,,,,,
{1},
{1},
{1},
{1},
{16}2x/7x,6,5,4,1,2,3,4,8,7,6,5,4,,4/5,,
{16}3x/6x,,2/7,3,4,5,8,7,6,5,1,2,3,4,8-4[8:1],,
{8}8x,,,1-3[8:1]/7-5[8:1],1x/7x,,,4,
{16}4x/5x,,4/5,,3x/6x,,3/6,,1x-5[8:1]/8x-4[8:1],2/7,3x/6x,,C1f/1x/8x,,,,
{8}2b/7b-3[8:1],,2,2-6[8:1],,1-5[8:1]/2,,1/8-4[8:1],
{8},7<2[4:1]/8,,1h[8:3],,,8<5[8:1],2,
{8}4>1[8:1]/8x,,4x/6,,1x/8,1x/8-5[8:1],,3-6[8:1]/8x,
{8},3x/7-2[8:1],,4-1[8:1]/7x,,4x/5x,,1xh[4:1]/6pp1[8:5],
{8},,,5x>2[8:1],,C1f,,3qq8[8:5]/8xh[4:1],
{8},,,4x<7[8:1],,C1f,,,
{8}1/6h[4:1],,5,3h[4:1]/8,,6,2/7,1/8,
{16},,2/7,,3/6,,4/5,,3,4,1,,6,5,8,,
{8}C1/3,,,,C1/7,,,C1/2,
{8},E1/6,,C1/3,,E5/7,,C1/1h[8:9],
{1},
{16}E1,E8,E7,E6,E5,E4,E3,E2,E1,E8,E7,E6,E5,,,,
{24}C1/3h[4:1],,,,,,,,,C1/6h[4:1],,,,,,,,,E8/2,3,4,,,,
{24}E2/7,6,5,,,,1/8,,,,,,,,,,,,,,,C1,,,
{1},
{1},
{1},
E
