&title=ガランド
&wholebpm=93
&artist=ピコン
&des=はっぴー
&shortid=11189
&genre=niconicoボーカロイド
&cabinet=DX
&version=maimai DX Splash
&chartconverter=Neskol
&lv_2=2
&des_2=
&lv_3=7
&des_3=
&lv_4=9+
&des_4=某S氏
&lv_5=12+
&des_5=はっぴー
&des_6=
&inote_2=
(93){1},
{1},
{2}4,4,
{1}4,
{2}5,5,
{1}5,
{2}4,4,
{2}3,3,
{2}2,2,
{4}1,1,1x,,
{2}8,8,
{2}7,7,
{2}6,6,
{4}5,5,5x,,
{1}4h[2:1],
{4}4,4,4/5,,
{1}5h[2:1],
{4}5,5,4/5,,
{2}6,6,
{2}7,7,
{2}8,8,
{4}1/8,1/8,1b/8b,,
{4}2,2,2,,
{4}3,3,3,,
{1}4h[2:1],
{1}5h[2:1],
{4}6,6,5/6,,
{4}5,5,4/5,,
{4}4,4,3/4,,
{4}3,3,3/4,,
{1}2-6[4:3],
{1},
{1}7-3[4:3],
{1},
{2}B1,B2,
{2}B3,B4,
{2}B5,B6,
{2}B7,B1/B8,
{2}B2/B7,B3/B6,
{2}E4/E6,B4/B5,
{1}C1hf[2:3],
{1},
{4}8,8,7,7,
{4}6,6,4/5,,
{4}4,4,3x/5x,,
{4}5,5,4x/6x,,
{4}4,4,3,3,
{4}2,2,1/8,,
{4}8,8,1x/7x,,
{4}1,1,2b/8b,,
{1}1-5[4:3],
{1},
{1}4/5,
{1},
{1},
{1},
E
&inote_3=
(93){1},
{1},
{4}3x,3,3h[4:1]/4h[4:1],,
{4}6,6,5h[4:1]/6h[4:1],,
{4}3,3,3h[4:1]/4h[4:1],,
{8}6,,6,,4x/5x,4x/5x,3x/6x,,
{4}3x,3,3/4,3,
{4}6,6,5/6,6,
{4}7x,7,7/8,7,
{4}2,2,1/2,2,
{4}3x,3/4,6,5/6,
{4}3,3/4,5,4/6,
{4}7x,7/8,2,1/2,
{4}7,7/8,1,8,
{4}2xh[4:1]/7xh[4:1],,6,5/6,
{4}3,3,2/4,,
{4}3xh[4:1]/8xh[4:1],,3,3/4,
{4}6,6,5/6,4/7,
{4}7x<4[16:3],,3,3/4,
{4}2x>5[16:3],,6,5/6,
{2}7-4[8:1],3-6[8:1],
{8}7x,,8x,,1x/8x,1x/8x,2x/7x,,
{8}2b,2,1,1,8,8,7,7,
{8}6,6,5,5,4,4,4/5,4/5,
{2}3x/6x,2-6[8:1],
{2}7-3[8:1],2-5[8:1],
{8}6x-1[8:1],,,,2x,2x,1x/2x,,
{8}2x-5[8:1],,,,6x,6x,5x/6x,,
{8}4x-1[8:1],,,,8x,8x,1x/8x,,
{8}2,2,1,1,8,8,2b/7b,,
{1}2s6[2:1],
{1}7z3[2:1],
{1}2z6[2:1],
{8}7x,,6x,,4x/5x,4x/5x,3x/6x,,
{4},B4,,B3,
{4},B2,,B1,
{4},B8,,B7,
{4},B6,,B5,
{4},B4/B5,,B3/B6,
{4},B2/B7,,B1/B8,
{4},E2/E8,,B2/B7,
{4},B3/B6,,C1,
{8}1b,1,2,2,3,3,4,4,
{8}5,5,6,6,7,7,1/8,1/8,
{2}2x/7x,2-5[8:1],
{2}6-1[8:1],2-6[8:1],
{8}7<4[8:1],,,,3x,3x,3x/4x,,
{8}3>8[8:1],,,,7x,7x,7x/8x,,
{8}7<4[8:1],,,,3x,3x,3x/4x,,
{8}2,2,1,1,8,8,7,7,
{1}6q3[16:7],
{1}2p4[16:7],
{1}4x/5x,
{1},
{1},
{1},
E
&inote_4=
(93){1},
{1},
{8}3h[4:1],,5h[4:1],,4,5,6,,
{8}6h[4:1],,4h[4:1],,5,3,2/4,,
{8}6h[4:1],,4h[4:1],,5,4,3,,
{8}3h[4:1],,5h[4:1],,4,6,5b/7b,,
{8}2h[4:1],,3h[4:1],,4,4,4/5,,
{4}B5/B6,B3/B4,B7/B8,B1/B2,
{8}7h[4:1],,6h[4:1],,5,5,4/5,,
{4}B3/B4,B5/B6,B1/B2,B7/B8,
{8}3/4h[2:1],,5,5,3h[2:1],,2,2,
{8}5h[2:1],,6,6,4h[4:1],,3,4,
{4}5,5/6,2/3,7/8,
{4}B1/C1hf[2:1]/B2/B5/B6,,E1,E2/E8,
{1}1V37[2:1]/2V84[2:1],
{8}5/7,4,3/5,6,5/7,,4/8,7,
{1}5V73[2:1]/6V48[2:1],
{4}C1xh[4:1],E1,E2/E8,2/7,
{8}3/4h[4:1],,5h[4:1],,6,6,5/7,8,
{8}5h[4:1]/7,,4h[4:1],,3,3,2/4,1,
{8}2h[4:1]/4h[4:1],,,5,5h[4:1]/6h[4:1],,,,
{4}B2/B3/E3,B6/B7/E7,C1f/B4/B5,,
{8}4h[4:1]/5,7,5h[4:1],2,4h[4:1],8,5h[4:1],1,
{8}4h[4:1],1,5h[4:1],8,4,4/5,3/6,3/6,
{24}2/7,,,,,3/5,,,4/6,,,3,4,,6,5,,,1/8,,,1/8,,,
{24}2/7,,,6,,4/6,,,3/5,,,6,5,,3,4,,,2/5,,,1x,,,
{24}1x,,,,,4,5,,5,4,,4,6,,6,5,,,4/7,,,8x,,,
{24}8x,,,,,5,4,,4,5,,5,3,,3,4,,,2/5,,,1x,,,
{24}1x,,,,,4,5,,5,4,,4,6,,6,5,,,4/7,,,,,,
{24}4/6,,6,5,,3,4,,6,5,,3,4,,,6x,,,4x,,,8x,,,
{2}C1/2x<3[4:5],C1,
{4}C1xh[2:1],,,1/8,
{2}C1/7>6[4:5],C1,
{4}C1xh[2:1],,,1/8,
{4}4h[1:2],B5,,B4,
{4},B3,,B4,
{4}5h[1:2],B4,,B5,
{4},B6,,B5,
{4}4h[1:1],B6,5,B7/B8,
{4}5h[1:1],B3,4,B1/B2,
{4}4h[1:1],B6,5,B7/B8,
{4}C1hf[2:1],,E1,E2/E8,
{8}4h[4:1]/5,8,5h[4:1],1,4h[4:1],1,5h[4:1],8,
{8}4h[4:1],2,5h[4:1],7,4,3/6,2/7,1/8,
{24}2x/7x,,,,,4/6,,,3/5,,,6,5,,3,4,,,1/8,,,1/8,,,
{24}2/7,,,3,,3/5,,,4/6,,,3,4,,6,5,,,4/7,,,8b,,,
{24}8b,,,,,5,4,,4,6,,6,3,,3,4,,,2/5,,,1b,,,
{24}1b,,,,,4,5,,5,3,,3,6,,6,5,,,4/7,,,8b,,,
{24}8b,,,,,5,4,,4,6,,6,3,,3,4,,,2/5,,,,,,
{24}1/7,,7,8,,2,1,,7,8,,2,1,,,7x,,,3x,,,5x,,,
{4}1xh[2:1],C1,7h[2:1],C1,
{4}3h[2:1],C1,5h[2:1],C1,
{1}4,
{1},
{1},
{1},
E
&inote_5=
(93){1},
{1},
{24}3<6[8:1]/7,,,2/6,,,3/7,,,,,,8p1[8:1],,8,1,,,,,,,,,
{24}2/6>3[8:1],,,3/7,,,2/6,,,,,,1q8[8:1],,1,8,,,,,,,,,
{24}3<6[8:1]/7,,,2/6,,,3/7,,,,,,8p1[8:1],,8,1,,,,,,,,,
{24}2-6[8:1]/6-4[16:1],,,3/7,,,2/6,,,,,,,,2/7,,,4,5,,5,4,,,
{24}3/6,,,,,1,8-5[8:1],,,3,,,4,,,1,,1,8-5[8:1],,8,2,,,
{24}3,,,3,,,1/8-5[8:1],,,4h[8:1],,,,,,,,1,8-5[8:1],,,4,,,
{24}3,,,,,1,8-5[8:1],,,3,,,1x,,,4x,,,1x/8-5[8:1],,,5x,,,
{8}3,4,5/8-5[8:1],6,5,4,3/8-5[8:1],2,
{24},,,,,1,8-5[8:1],,8,2,,,4,,,1,,1,8-5[8:1],,8,2,,,
{24}3,,,4,,,5/8-5[8:1],,,5,,,,,B3,E4,,1,8-5[8:1],,8,2,,,
{24}4,,,,,1,8-5[8:1],,8,2,,,4,,,1,,1,8-5[8:1],,8,2,,,
{24}5,,,1,,1,8-5[8:1],,,4/6,,,,,3x,,,4,5,,5,4,,,
{24}3x/5x,,,,,8,1-4[8:1],,1,7,,,5,,,8,,8,1-4[8:1],,1,7,,,
{8}6,5,1-4[8:1]/4,3h[8:1],,,1-4[8:1],4,
{24}6,,,,,8,1-4[8:1],,,6,,,5,,,7,,,1-4[8:1],,,5,,,
{24}6,,,5,,,1-4[8:1]/4,,,5,,,6,,6x,,,8x,1-4[8:1],,B6,E6,,,
{24}8,,,,,8,1-4[8:1],,1,7,,,6,,,5,,,1-4[8:1]/4,,,3/5,,,
{24}6,,,,,8,1-4[8:1],,1,7,,,6,,,5,,,1-4[8:1]/4,,,3/5,,,
{24}8,,,,,,1-4[8:1],,1,8,,,6,,,7,,,1-4[8:1]/5,,,4,,,
{8}5h[4:1],,1,,3/7,2/6,1b/5b,,
{8}2>5[8:1]/6,1/5qq3[8:1],8,8,7<4[8:1],4pp6[8:1]/8,1,1,
{8}2>5[8:1],1/5qq3[8:1],8,8,7-5[12:1],7-1[12:1],7w3[8:1],,
{24},,,,,1h[8:1],,,8,,,6,5,,2,1,,,3/5,,,4/7,,3,
{24}2/6,,,8,,8,,,3/7,,,4,5,,1/8,1v6[8:1]/8v3[8:1],,,3>1[12:1]/6<8[12:1],,,,,,
{24},,,,,5,4,,B3,E4,,B6,E6,,1/8,1v6[8:1]/8v3[8:1],,,3>1[12:1]/6<8[12:1],,,,,,
{24},,,,,4,5,,B6,E6,,B3,E4,,1/8,1v6[8:1]/8v3[8:1],,,3>1[12:1]/6<8[12:1],,,,,,
{24},,,,,5,4,,B3,E4,,B6,E6,,E1,B1/B8,,,3x/6x,,,,,,
{24}1/8,,1/8,,,2/4,,,4/5,,,7,5,,8,1,,,2/5,,,4/7,,,
{24}3/6,,3,4,,E8,B7,,4,3/5,,6,5,,2,4,,1,8,,,,,4,
{24}5,,5,3,,E2,B2,,5,4/6,,3,4,,7,5,,8,1,,,2/6,,,
{24}3,,3,4,,E8,B7,,4,3/5,,6,5,,2,4,,1,8,,,,,4,
{24}5,,5,3,,E2,B2,,5,4/6,,3,4,,7,5,,8,1b,,,,,,
{24}6h[1:2],,,,,,,,E1,B8,,,C1,,,E5,,,,,B2,B3,,,
{8}C1,E5,,E1,E8,C1,E4,E5,
{24}2h[1:2],,,,,,,,E1,B1,,,C1,,,E5,,,,,B6,E6,,,
{8}C1,E5,,E1,E8,C1,E4,E5,
{24}7h[1:2],,,,,,,,E1,B8,,,C1,,,E5,,,,,B3,E4,,,
{8}C1,E5,,E7,E6,C1,E2,E3,
{24}1h[4:5],,,,,,,,E8,B7,,,C1,,,E5,,,,,B6,E6,,,
{24}E4,,,,,,5,,,5,,,,,8x,,,3,4,,6,5b,,,
{8}3/7<4[8:1],4pp6[8:1]/8,1,1,2>5[8:1],1/5qq3[8:1],8,8,
{8}7<4[8:1],4pp6[8:1]/8,1,1,2-4[12:1],2-8[12:1],2w6[8:1],,
{24},,,,,8h[8:1],,,1,,,3,4,,7,8,,,4/6,,,2/5,,6,
{24}3/7,,,1,,1,,,2/6,,,5,4,,1/2,1v4[8:1]/2v7[8:1],,,4>2[12:1]/7>1[12:1],,,,,,
{24},,,,,6,5,,B1,E2,,B3,E4,,7/8,7v2[8:1]/8v5[8:1],,,2<8[12:1]/5<7[12:1],,,,,,
{24},,,,,3,4,,B8,E8,,B6,E6,,1/2,1v4[8:1]/2v7[8:1],,,4>2[12:1]/7>1[12:1],,,,,,
{24},,,,,6,5,,E8,B7,,E2,B2,,E1,B1/B8,,,3x/6x,,,,,,
{24}1/8,,1/8,,,5/7,,,4/5,,,2,4,,,3/7,,,2/5,,,4/8,,,
{24}3x/6x,,4,5,,E2,B2,,5,4/6,,3,4,,7,5,,8,8,1,6,4,5,4,
{24}5,,5,3,,E8,B7,,4,3/5,,6,5,,2,4,,1,1-5[4:3],8,3,6,4,7,
{1}1b,
{1},
{1},
{1},
E
