&title=オリフィス
&wholebpm=200
&artist=40mP feat. シャノ
&des=はっぴー
&shortid=11161
&genre=maimai
&cabinet=DX
&version=maimai DX Splash
&chartconverter=Neskol
&lv_2=3
&des_2=
&lv_3=7+
&des_3=
&lv_4=10
&des_4=華火職人
&lv_5=12+
&des_5=はっぴー
&des_6=
&inote_2=
(200){1},
{1},
{1},
{1},
{1},
{1},
{1},
{1},
{1},
{1}1,
{1}1,
{1}1h[1:1],
{1},
{1}8,
{1}8,
{1}8h[1:1],
{1},
{1}1,
{1}1,
{1}2,
{1}2,
{1}3,
{1}3,
{1}4,
{1}4x/5x,
{1}5,
{1}5,
{2}6,6,
{1}6,
{1}7,
{1}7,
{2}8,8,
{1}1x/8x,
{1}1-4[4:3],
{1},
{1}8-5[4:3],
{1},
{1}2-5[4:3],
{1},
{1}7-4[4:3],
{1},
{1}B3,
{1}B2,
{1}B1,
{1}B8,
{1}B7,
{1}B6,
{1}C1hf[1:1],
{1},
{1}8h[1:1],
{1},
{2}7,7,
{1}7/8,
{2}6,6,
{2}5,5,
{2}4,4,
{1}4x/5x,
{1}4h[1:1],
{1},
{2}3,3,
{1}3/4,
{2}2,2,
{1}2,
{2}1,1,
{1}1,
{2}8,8,
{1}8,
{1}1-4[4:3],
{1},
{1}5-8[4:3],
{1},
{2}1,1,
{1}1,
{2}2,2,
{1}2,
{2}3,3,
{1}3,
{1}4h[1:1],
{1},
{2}5,5,
{1}5,
{2}6,6,
{1}6,
{2}7,7,
{1}7,
{2}8,8,
{1}1/8,
{1}1b/8b,
{1},
{1}C1hf[8:7],
{1},
{2}8,8,
{1}8h[2:1],
{2}7,7,
{2}6,6,
{1}4x/5x,
{1},
{1}C1hf[8:7],
{1},
{2}1,1,
{1}1h[2:1],
{2}2,2,
{2}3,3,
{2}4,4,
{1}4/5,
{2}5,5,
{2}6,6,
{1}7h[4:3]/8h[4:3],
{1},
{2}1,1,
{2}8,8,
{1}1-5[4:3],
{1},
{2}8,8,
{1}1x/8x,
{2}1,1,
{2}2,2,
{1}3h[8:7]/4h[8:7],
{1},
{1},
{1},
E
&inote_3=
(200){1},
{1},
{1},
{1},
{1},
{1}4h[1:3],
{1},
{1}5h[1:1],
{2},3x/6x,
{4}3,3,4,,
{4}6,6,5,,
{4}3,3,4,,
{2}4/5,3/6,
{4}7,7,8,8,
{4}1,1,1/8,1/8,
{1}2h[2:1]/7h[2:1],
{1}2b/7b,
{1}3-6[4:3],
{2},7,
{1}7-3[4:3],
{2},2,
{1}2-5[4:3],
{2},6,
{1}4h[2:1]/5h[2:1],
{2}4x/5x,3x/6x,
{1}2>5[4:3],
{2},6,
{1}6<1[4:3],
{2},2,
{1}2-6[4:3],
{2},7,
{1}1h[2:1]/8h[2:1],
{2}1x/8x,2x/7x,
{2}E2,C1,
{2}E6,E7,
{2}E8,C1,
{1}E4,
{2}E6,E7,
{2}E8,E1,
{2}E2,E3,
{1}E4/E6,
{4}6x,6,6,,
{2}4/5,3/6,
{4}2,2,2,,
{2}1/8,2/7,
{4}7,7,8,,
{4}2,2,1,,
{4}8,8,1,1,
{1}2b/7b,
{1}1x-5[4:3]/8x-4[4:3],
{2},3x/6x,
{4}2,2,3,4,
{4}5/6,5/6,4/7,,
{4}7,7,6,5,
{4}4,4,3,3,
{8}3/4,,5,5,,4x/6x,,4x/6x,
{2},2x/8x,
{4}7,7,6,5,
{4}3/4,3/4,2/5,,
{4}3,3,2,1,
{4}7/8,7/8,1>5[4:5]/6,,
{1},
{2},4x/6x,
{2}7h[2:1],8,
{2}2h[2:1],1,
{4}3/4,3/4,4/5,4/5,
{4}5/6,5/6,4x/7x,,
{1}C1xh[1:1],
{1},
{1}C1xh[1:1],
{1},
{2}2h[2:1],3h[2:1],
{4}4,4,4/5,,
{2}7h[2:1],6h[2:1],
{4}5,5,4/5,,
{2}3h[2:1],2h[2:1],
{4}1,1,1/8,,
{1}1h[2:1]/8h[2:1],
{4}2/7,2/7,2/7,,
{2}6h[2:1],7h[2:1],
{4}8,8,1/8,,
{2}2h[2:1],3h[2:1],
{4}4,4,4/5,,
{2}7h[2:1],6h[2:1],
{2}5h[2:1],4,
{4}3,3,3/4,,
{2}4/5,3/6,
{1}C1hf[8:7]/B2/B7,
{1},
{1}7x-4[4:3]/8x-3[4:3],
{2},2x/5x,
{1}1x-6[4:3]/2x-5[4:3],
{2},4x/7x,
{1}5xh[1:1],
{1}4xh[1:2],
{1}5h[1:1],
{2},3x/6x,
{4}2,1/2,7,7/8,
{4}6,5/6,4/7,4/7,
{4}3,3/4,6,5/6,
{4}4,4/5,3>6[4:5],,
{1},
{2},4x/5x,
{4}5/6,5/6,4/7,,
{4}3/4,3/4,2/5,,
{4}1,1,8,8,
{4}1/8,1/8,2/7,3/6,
{1}4b-8[4:3]/5b-1[4:3],
{2},2x/7x,
{2}3h[2:1],4,
{2}6h[2:1],5,
{2}2h[2:1],4,
{4}4/5,4/5,3/6,,
{1}C1xh[1:1],
{1},
{4}1,1,2/8,,
{4}8,8,1/7,,
{8}6,,5/6,,4x,4x,,3b/5b,
{1},
{1},
{1},
E
&inote_4=
(200){1},
{1},
{1},
{1},
{4},,,1>8[4:7],
{1},
{1},
{1}C1hf[2:3],
{1},
{8}1/8,,7,7h[4:1],,5,5,,
{8}4/6,,3,3h[4:1],,1,1,,
{8}2/8,,7,7h[4:1],,5,5,,
{2}4-1[8:1],8-5[8:1],
{8}2,,1,1h[4:1],,7p2[4:1],,,
{8},,,1x/8x,,2x/7x,,3,
{8}3,,5,4,5,,3/6,,
{8}1b/8b,1b/8b,,3b/6b,,,,,
{8}5h[8:3],,,4,,,,,
{8}3h[8:3],,,5,,,,,
{8}6h[8:3],,,5,,,,,
{8}3h[8:3],,,4,,,,,
{8}5/6,,,5/7,,,,,
{8}3/4,,,2/4,,,,,
{1}1s5[2:1],
{2}B6/B7/E7,B2/B3/E3,
{4}8h[1:1],6,6,6,
{4}6h[1:1],7,7,7,
{4}7h[1:1],5,5,5,
{4}5h[1:1],6,6,6,
{1}6p3[16:9],
{1}2qq7[16:9],
{1}6-3[4:1],
{8}2h[4:1],,4,4h[8:3],,,3x,,
{8}B2/E2,,,B4/B5,,,B7/E8,,
{6},,,1x,1x,1x,
{8}B7/E8,,,B4/B5,,,B2/E2,,
{4},1x/8x,2x/7x,3x/6x,
{8}B4/B5,,,B7/E8,,,B2/E2,,
{6},,,8x,8x,8x,
{1}C1hf[8:7],
{8},,,,1,1,7,,
{4}4/6,3,2/4,5,
{8}4/6,,3,,2,2,8,,
{4}1/7,2,1/3,8,
{4}1/7,3/5,2b/6b,,
{8}2h[4:1],,4,4h[4:1],,5h[4:1],,7,
{4},6h[4:1],5h[4:1],4h[4:1],
{1}3>6[8:3],
{4}2b/7b,,1/8,5/7,
{8}4/5,,2/4,,1/8,1-4[8:1]/8-5[8:1],,,
{8},,3/6,,2/7,,1,1,
{8}2/8,,6,6,,3V16[8:3]/7V14[8:3],,,
{8},,,,4/6,,8,8,
{8}2h[4:1],,1,1,,3-6[8:1]/5,,,
{8},,7,7h[4:1],,1-5[8:1],,,
{8},,4/6,4/6,,1/7,,2b/6b,
{8},,4/5,,1,8,1,,
{8}5/6,,1/2,1/2,,7p2[8:3]/8,,,
{8},,,,1/8,,,4/6,
{8}4h[4:1]/6h[4:1],,,,1/8,,2/7,2h[8:5]/7,
{2},4>5[1:1],
{1},
{16}C1f,,,,,,,,2xh[16:3],,,1xh[16:3],,,8x,,
{8}8xw4[8:3],,,,,,,3h[8:3]/6h[8:3],
{8},,,,5,4,5,,
{8}1/8,,3/5,3/5,,1/7,,2,
{8}2h[4:1],,4,4,,,3b/7b,,
{8}8h[4:1],,,,2/8,2/8,,1h[8:3]/7h[8:3],
{8},,,,1/7,1/7,,4h[8:3]/6h[8:3],
{8},,,,4/6,4/6,,3b/7b,
{1},
{8}1/8,,2,2,,3/4,,5h[4:1],
{8},6h[4:1],,7h[4:1],,8,8,,
{8}1,,7,7,,5/6,,4h[4:1],
{8},3h[4:1],,2h[4:1],,1,1,,
{8}8,,2,2,,3/4,,5h[4:1],
{8},6h[4:1],,7h[4:1],,8,8,,
{8}1/8,,6,6,,3/5,,2/4,
{8},5/7,,2b/8b,,,,,
{8}1/8,,2,2h[4:1],,4,,B3,
{8},C1,,B6,,7,7,,
{8}1/8,,7,7h[4:1],,5,,B6,
{8},C1,,B3,,2,2,,
{8}1/8,,2,2h[4:1],,3,3,,
{8}1/8,,7,7h[4:1],,6,6,,
{8}1/8,,2,,3/5,3/5,,2b/7b,
{8},1,1,,2/8,,3b/7b,,
{8}C1,,,,,,,4/5,
{8},2/7,2/7,,,,,,
{8}1/8,,1/3,,4/5,4-1[8:1]/5-8[8:1],,,
{8},,3/6,,2/7,,8,8,
{8}1/7,,3,3,,2V85[8:3]/6V83[8:3],,,
{8},,,,3/5,,1,1,
{8}7h[4:1],,8,8,,4/6-3[8:1],,,
{8},,2,2h[4:1],,8,,3b/7b,
{1}3b/7b,
{8},4x/5x,4x/5x,,,,,,
{8}4/5,,7/8,,1/2,1/2q7[8:3],,,
{8},,,,1/8,,,3/5,
{8}3h[4:1]/5h[4:1],,,,1/8,,2/7,2/7h[8:5],
{2},5<4[1:1],
{1},
{16}C1f,,,,,,,,7xh[16:3],,,8xh[16:3],,,1x,,
{8}1xw5[8:3],,,,,,,3h[8:3]/6h[8:3],
{8},,,,5,4,5,,
{8}1/8,,4/6,4/6,,2/8,,7,
{8}7h[4:1],,5,5,,2/6,,3x/5x,
{8}3x/5x,,,5x/7x,,,2b<4[8:5]/6b,,
{1},
{2}7>2[2:1],4,
{2}3p6[2:1],5,
{2}7p2[2:1],4,
{2}3<6[2:1],7,
{8}1/8,,7,7,,3/5,3/5,,
{2}2b/6b,C1,
{8}1h[4:1]/2h[4:1],,,,1/2,1/2,,7h[8:3]/8h[8:3],
{8},,,,7/8,7/8,,5h[8:3]/6h[8:3],
{8},,,,5/6,5/6,,3b/7b,
{1},
{1},
{1},
E
&inote_5=
(200){1},
{8}3h[1:1],,4,5,,,,,
{8}6h[1:1],,5,4,,,,,
{8}3h[1:1],,4,5,,,,,
{2}6,B4/B5,
{8}6h[1:1],,5,4,,,,,
{8}3h[1:1],,4,5,,,,,
{8}6h[1:1],,5,4,,,,,
{4}3,,4,3b/5b,
{8}1/7<4[8:1],,3,3,,4,3/5,,
{8}2>5[8:1]/8,,6,6,,5,4/6,,
{8}1/7<4[8:1],,3,3,,4,3/5,,
{4}2-5[8:1],7,6-1[8:1],3,
{8}2>5[8:1],,6,6,,7-4[8:1]/8-3[8:1],,7x/8x,
{8},1-6[8:1]/2-5[8:1],,1x/2x,,4/7,4/7,,
{8}1x/8x,,2/4,3,5/7,6,2/4,3,
{8}4/5,4-1[8:1]/5-8[8:1],,4x/5x,,,,,
{8}7h[4:1],,5,4h[4:1],,,3/5,,
{8}2h[4:1],,4,5h[4:1],,,4x/6x,,
{8}7h[4:1],,5,4h[4:1],,,3/5,,
{8}2h[4:1],,5,6h[4:1],,,4x/7x,,
{8}2h[4:1],,4,5h[4:1],,,4/6,,
{8}7h[4:1],,5,4h[4:1],,,3x/5x,,
{8}2h[4:1],,4,5h[4:1],,,4/6,,
{2}E1/B7/E7/B8,B3/E3/B4/E5,
{4}8,5-1[8:1]/8,8,8,
{4}1/8,2/8,3/8,4x/8,
{4}5/8,6-2[8:1]/8,8,8,
{8}4/8,,4/8,,4/8,7,2/6,,
{4}1,1/6>3[8:1],1,1,
{4}1/8,1/7,1/6,1/5x,
{4}1/4,1/3-7[8:1],1,1,
{16}1/8,,,,2/7,,,,4,5,4,,3/6,,,,
{8}8<5[8:1],,,3>8[8:1],,,5qq6[2:1],,
{16},,,,,,,,2h[16:3],,,3h[16:3],,,4,,
{8}4>1[8:1],,,7<4[8:1],,,2qq3[2:1],,
{4},,8-4[8:1],2/8,
{8}1>4[8:1],,,6<1[8:1],,,4pp3[2:1],,
{16},,,,,,,,8h[16:3],,,7h[16:3],,,6,,
{8}5>2[8:1]/6<1[8:1],,,,3/8,,3/4,2/5,
{16},,6,5,6,,4/7,,,,1,,1,,,,
{8}5/7>2[8:1],,5,,4,,3,3,
{8}2<7[8:1]/4,,4,,5,5,4/6,,
{8}1/6>3[8:1],,1,,2/8,,1,1,
{8}3<6[8:1]/8,,8,,1/7,,3,5,
{8}4/6,,5,5<1[4:1],,1>5[4:1],,5,
{8},1,1h[4:1],,8,,4/5,,
{16}2/7,,,,3/6,,4,5,4,,3/6,,2-5[8:1]/7-4[8:1],,,,
{4}2x/7x,,,3/6-3[8:1],
{8}1/6x,,2/4,,4/5,1-4[8:1]/8-5[8:1],,1x/8x,
{8},3/6,2/7h[4:1],,5,5,4,3,
{8}2/5,,1,2qq1[4:1]/8,,1>8[8:3],,5x,
{8},,,,3/5,,4/6,7,
{8}1/8,,3,3-7[8:1],,6-2[8:1],,1h[4:1],
{8},,2/8,2-5[8:1]/8,,6-1[8:1],,3h[4:1],
{8},,4/8,4/8-4[8:1],,1-5[8:1]/8,,1/7,
{16},,6,,6,,5,,3,4,3,,2-6[8:1]/5-8[8:1],,,,
{8}2/5,,3x/7x,,1,1>6[4:1],,8h[2:1],
{8},,,4,4,,5/6,4,
{8}3-7[8:1],,8,,6-3[8:1],,1,1,
{16},,2,,2,,6,5,7,,4/8x<3[2:1],,,,3,,
{8},,,,1h[8:3],,,4,
{16},,6,,6,,,,8h[16:3],,,7h[16:3],,,6,,
{8}5V37[2:1]/7V15[2:1],,,,,,,2>5[4:1],
{8},,,,7h[4:1],,5,4,
{8}3/5,,2/6,1>4[8:1]/5<8[8:1],,1x/5x,,3h[4:1]/7h[4:1],
{4},2-7[8:1]/6-3[8:1],,1b/5b,
{8}6h[2:1],,,,5,6,3,7h[8:5],
{16},,E5,E4,E3,,,,5,,7,,2,,8h[8:5],,
{16},,E5,E4,E3,,,,5,,8-4[8:1],,1,,8x,,
{32},,,,,,,,,,,,,,,,1x,2,3,4,5,6,7,8,1,,,,,,,,
{8}3x/7x,,2,2h[4:1],,4h[4:1],,5h[4:1],
{8},7-3[8:1],,1>4[8:1],,8,8,,
{8}2/6,,7,7h[4:1],,5h[4:1],,4h[4:1],
{8},2-6[8:1],,8<5[8:1],,1,1,,
{8}3/7,,2,2,,3/4,,2/5,
{16}2h[4:1]/5,,,,E6,E5,E4,,,,1/8,,1/8,,,,
{8}2/6,,7,7h[4:1],,5,,4/8,
{8},3/5,,2-6[8:1]/6,,8,8,,
{8}5/7,,3,3h[4:1],,1h[4:1],,8h[4:1],
{8},6-2[8:1],,5>1[8:1],,8,8,,
{8}2/5,,6,6h[4:1],,8h[4:1],,1h[4:1],
{48},,,,,,3,,,,,,,,,,,,E6,,,E5,,,B3/E4,,,,,,,,B6/B7,,,,,,,,B1/B8,,,,,,,,
{8}C1f/B4/B5,,,1/8,,5/7,,2/4,
{8},1/8,2/7,3>1[8:1]/6<8[8:1],,,,2/7,
{8}2/7,,4/6,,3,3,2/4,1,
{16}8,,7,,3/6,,2,,1/5,,,,2,5,4,7,
{8}1b,,,,,,,2/7,
{16},,4,5,4,,,,,,,,3-6[8:1]/6,,,,
{8}3x/8,,5/7,,3/6,4-1[8:1]/5-8[8:1],,4x/5x,
{8},3/6,2h[4:1]/7,,4,4,5,6,
{8}5/6,,8,1/7pp8[4:1],,8<1[8:3],,4x,
{8},,,,4/6,,3/5,2,
{8}1/8,,6,6-2[8:1],,3-7[8:1],,8,
{16}8,,,,2/7,,,,1,8,1,,2-5[8:1]/7-4[8:1],,,,
{1}2/7,
{8},3b/6b,3b/6b,,,,4-1[8:1]/7-3[8:1],,
{8}4/7,,2x/6x,,8,8<3[4:1],,1h[2:1],
{8},,,5,5,,3/4,5,
{8}6-2[8:1],,1,,3-6[8:1],,8,8,
{16},,7,,7,,3,4,2,,1x>6[2:1]/5,,,,6,,
{8},,,,8h[8:3],,,5,
{16},,3,,3,,,,1h[16:3],,,2h[16:3],,,3,,
{8}2V84[2:1]/4V62[2:1],,,,,,,7<4[4:1],
{8},,,,2h[4:1],,4,5,
{8}4/6,,3/7,4>1[8:1]/8<5[8:1],,4x/8x,,2h[4:1]/6h[4:1],
{16},,,,3/7,,3/7,,,,2/6,,1,8,1,8,
{8}1-5[4:1],,6,7-3[4:1],,4,4>5[2:1],,
{4},,,3/5,
{8}1>6[2:1],,,8,8,,7,,
{8}8<3[2:1],,,1,1,,2,,
{8}1>6[2:1],,,8,8,,7,,
{8}8h[8:3],,,1,1,,2/7,,
{8}4>1[8:1]/8<5[8:1],,4x/8x,,2/6,3,4-1[8:1]/8-5[8:1],,
{2}4/8,8x,
{8}3h[2:1],,,,4,3,6,2h[8:5],
{16},,E5,E6,E7,,,,4,,2,,7,,1h[8:5],,
{16},,E5,E6,E7,,,,4,,1-5[8:1],,8,,1x,,
{1},
{1},
{1},
E
