&title=wheel
&wholebpm=136
&artist=Syrufit + HDLV
&des=シチミヘルツ
&shortid=11139
&genre=東方Project
&cabinet=DX
&version=maimai DX PLUS
&chartconverter=Neskol
&lv_2=2
&des_2=
&lv_3=6
&des_3=
&lv_4=9
&des_4=はっぴー
&lv_5=12+
&des_5=シチミヘルツ
&des_6=
&inote_2=
(136){1},
{1},
{1},
{1},
{1},
{1},
{1},
{1}4,
{1}4,
{1}5,
{1}5,
{2}4,4,
{1}4,
{2}5,5,
{1}5b,
{2}4,4,
{2}3,3,
{2}2,2,
{4}1,1,1,,
{2}8,8,
{2}7,7,
{2}6,6,
{4}5,5,4x/5x,,
{1}5h[2:1],
{1}6h[2:1],
{1}7h[2:1],
{4}8,8,1,1,
{1}2h[2:1],
{1}3h[2:1],
{1}4h[2:1],
{4}5,5,4x/5x,,
{1}E6,
{1}B6,
{1}B7,
{1}B8,
{1}B1,
{1}B2,
{1}B3,
{1}B4,
{1}B5,
{1}E5/B6,
{1}B4,
{1}B3/E5,
{1}B4/B5,
{1}B3/B6,
{1}C1xh[1:1],
{1},
{4}8,8,8,,
{4}7,7,7,,
{4}6,6,6,,
{4}5,4,5x,,
{4}4,4,4,,
{4}3,3,3,,
{4}2,2,2,,
{4}1,8,1b,,
{1}1-4[4:3],
{1},
{1}8-5[4:3],
{1},
{1}2-5[4:3],
{1},
{1}7-4[4:3],
{1},
{4}1,1,1,,
{4}2,2,2,,
{4}3,3,3,,
{4}4,5,4x,,
{4}5,5,5,,
{4}6,6,6,,
{4}7,7,7,,
{4}8,1,8b,,
{2}1,1,
{2}2,2,
{2}3,3,
{2}4,4,
{1}5h[1:1],
{1},
{1}4h[1:1],
{1},
{1}4x/5x,
{1},
{1},
{1},
E
&inote_3=
(136){1},
{1},
{1},
{1},
{1},
{1},
{1},
{4}3x,3,3/4,,
{4}6,6,5/6,,
{4}3,3,3/4,,
{4}5,5,4/6,,
{4}7,7,7/8,,
{4}2,2,1/2,,
{4}7,7,1/8,,
{1}1b-5[2:1]/8b-4[2:1],
{4}3h[4:1],4,4,,
{4}6h[4:1],5,5/6,,
{4}3h[4:1],4,4,,
{4}5/6,5/6,5/6,,
{4}7h[4:1],8,8,,
{4}2h[4:1],1,1/2,,
{4}7h[4:1],8,8,,
{4}1,8,2/7,,
{4}3,3,4,,
{4}6,5,5/6,,
{4}3,3,4,,
{4}6,5,4/6,,
{4}7,7,8,,
{4}2,1,1/2,,
{4}7,7,8,,
{4}1/8,1/8,2/7,,
{1}3>6[4:5],
{1},
{1}6<3[4:5],
{1},
{1}3-6[2:1],
{1}7-3[2:1],
{1}2pp6[4:5],
{1},
{2}B5,B6,
{1}B7/E8,
{2}B1,B2,
{1}B3/E4,
{2}E4/E6,B3/B6,
{2}B2/B7,E2/E8,
{1}C1hf[1:1],
{1},
{4}2,1/2,7,7/8,
{4}2,2,1/3,,
{4}3,3/4,6,5/6,
{4}4,4,3/5,,
{4}7,7/8,2,1/2,
{4}7,7,6/8,,
{4}6,5/6,3,3/4,
{4}5,4/5,3/6,,
{4}2,1x/2x,2,1x/2x,
{4}2,1x/2x,1x/2x,,
{4}7,7x/8x,7,7x/8x,
{4}7,7,6/8,,
{4}6,5x/6x,6,5x/6x,
{4}6,5x/6x,5x/6x,,
{4}3,3x/4x,3,3x/4x,
{4}3,4x/5x,3x/6x,,
{4}2,2,1,1,
{4}8,8,1/7,,
{4}6,6,5,5,
{4}4,4,3/5,,
{4}2,2,1,1,
{4}8,8,1/7,,
{4}6,6,5,5,
{4}4/5,4/5,3/6,,
{4}2,2,1/2,,
{4}7,7,7/8,,
{4}2,2,1/2,,
{4}1/8,1/8,2/7,,
{1}3>4[2:3],
{1},
{4}3,3,3,,
{4}5,5,4/5,3/6,
{1},
{1},
{1},
E
&inote_4=
(136){1},
{1},
{1},
{1},
{1},
{1},
{1},
{8}3h[2:1]/5,,5,,5,,5,4,
{8}3h[2:1]/5,,5,,5,,5,4,
{8}3h[2:1]/5,,5,,5,,5,4,
{8}3h[2:1]/5,,5,,5,,5,4,
{8}3/5,,5/6,,3/5,,5/6,4,
{8}3/5,,5/6,,3/5,,5/6,4,
{8}3/5,,5/6,,3/5,,5/6,4,
{1}C1f,
{8}5/6h[4:3],,5,,5,,5,6,
{8}6/7h[4:3],,6,,6,,6,7,
{8}7/8h[4:3],,7,,7,,7,8,
{8}1h[4:3]/8,,8,,8,,8,1,
{8}1/2h[4:3],,1,,1,,1,2,
{8}2/3h[4:3],,2,,2,,2,3,
{8}3/4h[4:3],,3,,3,,3,4,
{4}4/5h[2:1],4h[4:1],,,
{8}3h[4:1]/4,,4,3h[8:3],4,,4,3,
{8}2h[4:1]/3,,3,2h[8:3],3,,3,2,
{8}1h[4:1]/2,,2,1h[8:3],2,,2,1,
{8}1/8h[4:1],,1,8h[8:3],1,,1,8,
{8}7h[4:1]/8,,8,7h[8:3],8,,8,7,
{8}6h[4:1]/7,,7,6h[8:3],7,,7,6,
{8}5h[4:1]/6,,6,5h[8:3],6,,6,5,
{8}4h[4:1]/5,,5,4h[8:3],5,,5,,
{2}6-1[4:1],2-5[4:1],
{8}6,,4/7,6,6,5,4,3,
{2}3-8[4:1]/4,7-4[4:1],
{8}3,,2/5,3,3,4,5,6,
{2}5/6-1[4:1],2-5[4:1],
{2}6-3[4:1],2-7[4:1],
{4}6,4/6,3,3/5,
{4}6,5/6,4,4/5,
{2}3-8[4:1],7-4[4:1],
{8}3,,2/5,3,3,4,5,6,
{2}5/6-1[4:1],2-5[4:1],
{8}6,,4/7,6,6,5,4,3,
{2}2h[2:1],3h[2:1],
{2}4h[2:1],5h[2:1],
{1}C1xh[1:1],
{4}E1,,,1b,
{2}4x-1[8:1]/8x-5[8:1],1x-4[8:1]/5x-8[8:1],
{8}4x/8x,,2/6,,5,4,3/7,,
{2}1x>4[8:1]/5x<8[8:1],4x>1[8:1]/8x<5[8:1],
{8}1x/5x,,3/7,,4,5,2/6,,
{2}4x-1[8:1]/8x-5[8:1],1x-4[8:1]/5x-8[8:1],
{8}4x/8x,,2/6,7,1,1,8,,
{2}3x-8[8:1]/7x-4[8:1],1x-4[8:1]/5x-8[8:1],
{2}3x-6[8:1]/7x-2[8:1],4x/8x,
{2}1x-4[8:1]/5x-8[8:1],4x-1[8:1]/8x-5[8:1],
{8}1x/5x,,3/7,,4,5,2/6,,
{2}4x>1[8:1]/8x<5[8:1],1x>4[8:1]/5x<8[8:1],
{8}4x/8x,,2/6,,5,4,3/7,,
{2}1x-4[8:1]/5x-8[8:1],4x-1[8:1]/8x-5[8:1],
{8}1x/5x,,3/7,2,8,8,1,,
{2}2x-5[8:1]/6x-1[8:1],4x-1[8:1]/8x-5[8:1],
{4}2x-7[8:1]/6x-3[8:1],,1x/5x,3x/7x,
{2}4x>1[8:1]/8xv5[8:1],1xv4[8:1]/5x<8[8:1],
{8}4x/8x,,2/6,,5,4,3/7,,
{2}1x>4[8:1]/5x<8[8:1],4x>1[8:1]/8x<5[8:1],
{8}1x/5x,,3/7,,4,5,2/6,,
{2}4xv1[8:1]/8x<5[8:1],1x>4[8:1]/5xv8[8:1],
{8}4x/8x,,2/6,7,1,1,8,8,
{1}4h[1:1],
{1}C1hf[1:1],
{4}E1,,,1/8,
{8}7h[4:1],,5,,8,8,1,,
{8}2h[4:1],,4,,5,5,4,,
{4}6h[4:1],5,4/7,2/5,
{16}6xh[16:9],,,,,,,,,8xh[2:1],,,,,,,
{16},1xh[2:1],,,,,,,,3xh[16:7],,,,,,,
{4}5,5/6,7,1/8,
{4}2,3/4,5,4/6,
{1}8b,
{1},
{1},
{1},
E
&inote_5=
(136){1},
{4},,,4b>5[1:4]/5b<4[1:4],
{1},
{1},
{1},
{1},
{2},3b/6b,
{4}6-3[8:1],2h[2:1],3-6[8:1],,
{4}3-6[8:1],7h[2:1],6-3[8:1],,
{4}6-3[8:1],2h[2:1],3-6[8:1],,
{4}1-4[8:1],8-5[8:1],,,
{4}7-2[8:1],3h[2:1],2-7[8:1],,
{4}2-7[8:1],6h[2:1],7-2[8:1],,
{4}5-8[8:1],2h[4:1],8-5[8:1],1s5[16:3],
{1},
{8}3,3,5,4,6-4[16:1],6-8[16:1],,,
{8}3,3,4qq5[16:5],5,6h[4:1],,,,
{8}6,6,4,5,3-5[16:1],3-1[16:1],,,
{8}6,6,5pp4[16:5],4,3h[4:1],,,,
{8}3,3,5,4,6-4[16:1],6-8[16:1],,,
{8}3,3,4qq5[16:5],5,6h[4:1],,,,
{8}6,6,4,5,3-5[16:1],3-1[16:1],,,
{8}6,7,8qq8[16:5],1,2,,,,
{8}3,3,5,4,7-5[16:1],7-1[16:1],,,
{8}4,3,2qq3[16:5],2,4h[4:1],,,,
{8}6,6,4,5,2-4[16:1],2-8[16:1],,,
{8}5,6,7pp6[16:5],7,5h[4:1],,,,
{8}3,3,5,4,7-5[16:1],7-1[16:1],,,
{8}4,3,2qq3[16:5],2,4h[4:1],,,,
{8}3,3,5,4,7-5[16:1],7-1[16:1],,,
{8}4,2,1-5[8:1],,8b,,3>6[8:9],,
{4},B5/E5,,B3/E3,
{4},B1/E1,5,6<3[8:9],
{4},B4/E5,,B6/E7,
{4},E1/B8,4,3>1[16:3],
{4},6<8[16:3],,2>4[16:3],
{4},7<5[16:3],4,3<2[4:3],
{4},,,6-3[8:1],
{4},3-6[8:1],,7<2[8:9],
{4},E1/B8,,B6/E7,
{4},B4/E5,1,2>7[8:9],
{4},E1/B8,,B2/E3,
{4},B4/E5,8,7<5[16:3],
{4},4>2[16:3],,5<7[16:3],
{4},2>4[16:3],,7<8[4:3],
{4},,,2-6[8:1],
{4},,,1q8[4:1]/5,
{4}8p2[4:1],2>7[4:1],7p1[4:1],1,
{8}4w8[8:1],,4,,2/6,3,4>7[4:1]/8,,
{4}7p2[4:1],2<5[4:1],5p8[4:1],8,
{8}6<5[4:1],,C1f,,1,2,3-1[8:1]/8,,
{4}3-5[8:1]/6-8[8:1],3-1[8:1]/6,3-5[8:1]/6-8[8:1],3/6,
{8}1w5[8:1],,1,,3/7,6,1>4[8:1]/5,,
{4}1-6[8:1]/7v4[8:1],1>4[8:1]/7,1-6[8:1]/7v4[8:1],1/7,
{8}1/5,2,3/8,7,1b/6b,,4/8p1[4:1],,
{4}1q7[4:1],7<2[4:1],2q8[4:1],8,
{8}5w1[8:1],,5,,3/7,6,1/5<2[4:1],,
{4}2q7[4:1],7>4[4:1],4q1[4:1],1,
{8}3>4[4:1],,C1f,,8,7,1/6-8[8:1],,
{4}3-1[8:1]/6-4[8:1],3/6-8[8:1],3-1[8:1]/6-4[8:1],3/6,
{8}8w4[8:1],,8,,2/6,3,4/8<5[8:1],,
{4}2v5[8:1]/8-3[8:1],2/8<5[8:1],2v5[8:1]/8-3[8:1],2/8,
{8}4/8,7,2/4,3,5/7,6,1b>8[4:1]/5b,,
{4}8p2[4:1],2>7[4:1],7p1[4:1],1,
{8}4w8[8:1],,4,,2/6,3,4>1[8:1]/8<5[8:1],,
{4}4q8[8:1]/8q4[8:1],4>1[8:1]/8<5[8:1],4q8[8:1]/8q4[8:1],4/8,
{8}3/7>6[4:1],,C1f,,1,2,3>8[8:1]/8,,
{4}3-5[8:1]/5<8[8:1],3>8[8:1]/5,3-5[8:1]/5<8[8:1],3/5,
{8}8w4[8:1],,8,,2/6,3,4/8,,
{1}C1f/5pp5[2:1]*qq5[2:1],
{4}1-5[8:1]/7,1/5-3[8:1]*-7[8:1],5,4b/8b,
{16}2/5,,3,,4/5,,6,5,7,5,8,,1/2,,3/8,,
{16}4/7,,6,,4/5,,3,4,2,4,1,,7/8,,1/6,,
{16}2/5,,3,,4/5,,6,5,7,5,8,,1/2,,3/8,,
{8}4/7,2/5,1>4[8:1]/8<5[8:1],,1/8,,2b/7b,,
{16}1,2-4[4:1],8,7,,4v5[4:1],,,,5-7[8:1],,,,8,,,
{16},8-5[4:1],,,,5q4[4:1],,,,4,,,,1,,,
{4}6-2[8:1],2<4[4:1],4,1,
{4}2-6[8:1],2<3[4:1],2x,8,
{1}1b/5b-1[2:3],
{1},
{1},
{1},
E
