&title=Witches night
&wholebpm=154
&artist=Liz Triangle
&des=某S氏
&shortid=11137
&genre=東方Project
&cabinet=DX
&version=maimai DX PLUS
&chartconverter=Neskol
&lv_2=3
&des_2=
&lv_3=6
&des_3=
&lv_4=9
&des_4=サファ太
&lv_5=12+
&des_5=某S氏
&des_6=
&inote_2=
(154){1},
{1},
{1},
{1},
{1},
{1},
{1}1,
{1}1,
{1}8,
{1}8h[1:1],
{1},
{2}1,1,
{1}1,
{2}2,2,
{1}2,
{2}3,3,
{1}3,
{2}4,4,
{2}5,5h[1:1],
{1},
{2},4,
{2}4,4/5,
{2},5,
{2}5,4x/5x,
{2},6,
{2}6,7,
{2}7,8,
{2}8,1b/8b,
{2},8-5[4:3],
{1},
{2},1-4[4:3],
{1},
{2},8h[1:1],
{1},
{2},7,
{2}7,6,
{2}6,4/5,
{4}4/5,,5,4,
{2}5x,4/5,
{4}4/5,,4,5,
{2}4b,3,
{2}3,2,
{2}2,1,
{4}1,,8,8,
{2}8,7-3[4:3],
{1},
{2},2-6[4:3],
{1},
{2},B7,
{2},B6,
{2},B5,
{2},B4,
{2},B3/E5,
{2},B4/B5,
{2},E5/B6,
{2},B4/B5,
{2},C1xh[1:2],
{1},
{1},
{1},
{4},,1x,1x,
{4}1b,,8,8,
{4}8,,7,7,
{4}7,,6,6,
{2}6,4/5,
{4}4/5,,3,3,
{4}3,,2,2,
{2}2,1/8,
{4}1/8,,1,8,
{4}1b,,2,2,
{4}2,,3,3,
{4}3,,4,4,
{2}4,4/5,
{4}4b/5b,,6,6,
{4}6,,7,7,
{2}7,1/8,
{2}1/8,1-4[4:3],
{1},
{2},8-5[4:3],
{1},
{2},1x/8x,
{2}8,7,
{2}7,6,
{4}6,,5,5,
{2}4/5,4,
{2}4,3,
{2}3,2,
{4}2,,1,1,
{2}1/8,1h[2:1]/8h[2:1],
{4},,1,8,
{4}1,8b,,,
{1},
{1},
{1},
E
&inote_3=
(154){1},
{1},
{1},
{1},
{1},
{1},
{4}3x,3,3/4,,
{4}6,6,5/6,,
{4}3,3,4,4,
{4}5,6,7,8,
{4}1/8,1/8,2b/7b,,
{2}3h[2:1],4,
{4}6h[4:1],,5x/6x,5x/6x,
{2}3h[2:1],4,
{2}5h[4:1]/6h[4:1],5/6,
{2}7h[2:1],8,
{4}2h[4:1],,1x/2x,1x/2x,
{2}7h[2:1],8,
{2}1/8,2>5[8:3],
{2},6<1[8:3],
{4},,2,2,
{4}1,,7,7,
{4}8,,2,2,
{4}1,,8,8,
{4}1/7,,6,6,
{4}5,,3,3,
{4}4,,6,6,
{4}5,,4,4,
{2}3/5,B4,
{2}B3,C1xh[2:1],
{2},B6,
{2}B5,C1xh[2:1],
{2},B1,
{2}B2,B3/B4,
{2},B5,
{2}B6,B2/B7,
{2},3-8[8:3],
{4},,7,7,
{2}7/8,7-4[8:3],
{4},,3,3,
{2}3/4,2b/7b,
{4},,7,7,
{4}7/8,,2,2,
{4}1/2,,8,1,
{2}2/7,3>6[8:9],
{1},
{2},6<3[8:9],
{1},
{2},3>8[8:3],
{2},7-3[8:3],
{2},2-6[8:3],
{2},7<4[8:3],
{2},3xh[2:1],
{2}4h[2:1],5h[2:1],
{2}6x,7h[2:1],
{2}8h[2:1],1h[2:1],
{2}2x,3h[4:1]/4h[4:1],
{2}3/4,5h[4:1]/6h[4:1],
{2}5/6,2x/7x,
{1},
{2},B2/B7,
{4}C1f,,1x,2,
{4}1/2,1/2,2,1,
{4}2/8,,7,7,
{4}6,6,5x,4x,
{4}3x/6x,,7,7,
{4}7/8,7/8,7,8,
{4}1/7,,2,2,
{4}3,3,4x/5x,4x/5x,
{4}3x/6x,,7h[2:1],8,
{4}8,,2h[2:1],1,
{4}1,,7,7,
{4}6,6,5,5,
{4}4/6,,3h[2:1],4,
{4}4,,6h[2:1],5,
{4}5,,4,4,
{4}5,5,6h[2:1],,
{2}5h[2:1],4h[2:1],
{2}3x,2h[2:1],
{2}1h[2:1],8h[2:1],
{4}7x,,6b,6,
{4}5/6,,3,3,
{4}3/4,,6,6,
{4}5,5,4,4,
{4}3/5,,2,2,
{4}1/2,,7,7,
{4}7/8,,2,2,
{4}1,1,1x/8x,1x/8x,
{4}1x/8x,1x/8x,1pp4[1:1]/8qq5[1:1],,
{1},
{4},4x/5x,,,
{1},
{1},
{1},
E
&inote_4=
(154){1},
{1},
{4}5h[1:1],,4,4,
{4}4h[1:1],,5,5,
{1}5<4[4:3],
{4},,4/5,2/7,
{8}6,,5/6,,4,4,5,,
{8}3,,3/4,,5,5,4,,
{4}6,5/7,3,2/4,
{2}1x-5[4:1],8x-4[4:1],
{8}3,,2,,1,1,1x/7x,,
{2}6h[2:1],5h[2:1],
{4}4,5,5/6,4/7,
{2}6h[2:1],5h[2:1],
{8}4,,3,3,4,,2/5,,
{2}3h[2:1],4h[2:1],
{8}5,,4,,3,3,4,,
{2}5h[4:1]/7h[4:1],2h[4:1]/4h[4:1],
{8}1,1,8,,2/7,,3>8[4:1]/4,,
{4},,1/7,5/6<1[4:1],
{4},,3h[4:5]/5,5,
{4}4,4,6,4,
{8}5,5,4,,3/6h[4:3],,3,,
{4}5,5>2[4:1],,,
{4}8,1,2x/8x,3x/7x,
{4}4/6h[4:3],5,7,5,
{8}4/7,4/7,4/7,,2,2,4,,
{8}7,7,5,,4/6,,3/5,,
{2}2x/6x,3/4h[2:1],
{4}2h[2:1],,E2,C1,
{2}E5/E7,5h[2:1]/6,
{4}7h[2:1],,E8,C1,
{2}E3/E5,1/2h[2:1],
{4}4h[2:1],,E4,C1,
{8}E1/E7,,,,6h[2:1],,,5,
{4}5,4/7,8-4[4:1],,
{8}2h[2:1],,,,1b,,,3x,
{8}2x/4x,,,6,6,5,7,1,
{8}8,,1/7,,2b/8b,,,6x,
{8}5x/7x,,,3,3,4,2,8,
{4}1,2/8,3b/7b,4/5,
{8}3,3,4,,4/5,,3/6,,
{8}7,7,8,,1>4[4:1],,,,
{4}8<5[4:1],,3x,2x/4x,
{8}3x/7x,3x/7x,3b/7b,,5h[4:1]/6h[4:3],,,,
{2}5h[4:1],3h[4:3]/4h[4:1],
{2}4h[4:1],5h[4:1]/7h[4:3],
{4}5h[4:1],,6x,8x,
{4}1x,3x,6h[2:1],,
{2}5h[2:1],4<7[8:3],
{2},3h[2:1],
{2}4h[2:1],5>2[8:3],
{4},,4/6h[4:1],5,
{4}3h[4:1]/5,4,4/7h[4:1],5,
{4}4/6,3/5,2h[4:1]/6,4,
{4}3/7h[4:1],5,2h[4:1]/6,4,
{4}3/5,1/7,8h[4:1],7h[4:1],
{4}6h[4:1],5h[4:1],4h[4:1],3h[4:1],
{4}2h[4:1],1s5[8:7],8b,,
{1},
{4},,B6/B7/E7,B2/B3/E3,
{4}B4/B5/E5,C1,1b-5[8:1]/8b,7b-4[8:1],
{4}3b,2/5,7/8,5>2[4:1]/6p1[4:1],
{4},,7h[4:1],5h[4:1],
{8}3h[4:1],,1,,3,4,2/5,,
{8}6,5,4/7,,1x/8-4[8:1],,2-5[8:1],,
{4}6,4/7,1/2,3q8[4:1]/4<7[4:1],
{8},,,,1/2,,5,4,
{8}3/5,,4,5,4/6q3[4:1],,,,
{4},1x/8x,2-5[8:1]/7-4[8:1],,
{8}3b/7b,,,6,5/6-1[8:1],,2>7[4:1],,
{4}8b,,1h[4:1],7h[4:1],
{8}5h[4:1],,3,,2,1,3/8,,
{8}7,8,1/6,,5-1[8:1],,3-8[8:1],,
{4}7,1/6,3/4,5q2[4:1]/6<1[4:1],
{8},,,,3h[4:1],,4,2,
{8}6h[4:1],,5,7,1x>4[4:1],,,,
{2}5<8[4:1],1-5[4:1],
{2}6-2[4:1],4-8[4:1],
{2}7-3[4:1],2h[2:1],
{4}8,1b/7b,2/6,4,
{8}6,6,7,,3/8,,5,,
{8}3,3,2,,1/2h[4:1],,4,,
{4}5/7h[4:1],8z4[2:1],,,
{4},2x/6x,4/5,7/8,
{8}1,1,2,,4/7,,1/2,,
{8}8,8,7,,5/6h[4:1],,1,,
{8}3h[4:1]/4,,8,,7,7,5,6,
{8}3,3,4,2,C1xh[2:1],,,,
{4},,1b/8b,5b/7b,
{1}2b-4[8:1]/6b-4[8:1],
{1},
{1},
{1},
E
&inote_5=
(154){1},
{1},
{8}5h[8:3],,,4,5,,4>5[4:3]/5,,
{4},,,8>7[4:3],
{1},
{8}3/4,3,4/6,6,2/4,2,4/7,7,
{16}4,,4,5,3V51[4:1],,6,,8,,8,,8,,,,
{16}5,,5,4,6V48[4:1],,3,,1,,1,,1,,,,
{16}3,,3,4,2h[4:1],,,,6,,6,5,7h[4:1],,,,
{8}3h[4:1],4,6h[4:1],5,2h[4:1],1,7h[8:1],8,
{8}7/8,7/8,5/6,5/6,3/4,3/4,1/2,1/2,
{4}3<6[4:1],8,7p2[4:1],1,
{8}1>5[4:1],,6,,8,7,1/6,,
{4}8<5[4:1],2,1>4[4:1],7,
{8}6,7,1/8,2,3/6,,3h[4:1],,
{4}6>3[4:1],1,2q7[4:1],6,
{8}5s1[4:1],,2,,3,8,2/7,,
{4}2V48[4:1],5,7V51[4:1],4,
{8}4,4,3/5,,B4/8,,B5/8,,
{8}C1xh[4:1]/B4/8h[4:1],,,,B5/B6/1,1,B3/B4/1,1,
{4}C1xh[4:1]/B5/B6/1h[4:1],,8h[4:1],6h[4:1],
{8}4,2,8<4[4:1]*>4[4:1],,,,,,
{8}5/6,4/7,3/8,,1h[4:1],,3h[4:1],,
{8}5,7,8>3[8:1],,4<7[8:1],,8q1[4:1],,
{2}4,3-8[8:1]/7-4[8:1],
{8}2>5[8:1],1,8,7,6<1[8:1],5,4,3,
{8}2,8,1,,2-6[8:1],6-2[8:1],2,,
{8}7-3[8:1],3-7[8:1],7,,4,6,2,8,
{4}3/7,1-5[2:1],6h[4:1],,
{4}7h[4:1],8-4[2:1],3h[4:1],,
{4}2h[4:1],1s5[2:1],6h[4:1],,
{4}7h[4:1],8z4[2:1],3h[4:1],,
{4}2h[4:1],3-7[2:1],6h[4:1],,
{4}5h[4:1],8-4[2:1],3h[4:1],,
{8}2h[4:1],,1,,2h[4:1],,4,3,
{8}5h[4:1],,6,,7h[4:1],,5,6,
{8}4h[4:1],,3,,2h[4:1]/5h[4:1],,,4,
{8}4h[4:1]/7h[4:1],,,5,2/5,4,4/7,5,
{8}2/5,,4/6,,3h[4:1]/7h[4:1],,,5/6,
{8}2h[4:1]/6h[4:1],,,3/4,3/7,5/6,2/6,3/4,
{4}3/7,1-5[4:1]/5<4[2:1],1b,,
{8}8,8,4>5[2:1]/8-4[4:1],,8b,,,,
{8}1,1,1-5[4:1]/5<4[2:1],,1b,,,,
{8}8,8,1/8,,5/7,6,3/5,4,
{8}5,4,5,,3h[2:1]/4,,B2,,
{4}1h[2:1],B8,7h[2:1],B6,
{4}5h[2:1],B4,3<6[4:1],C1,
{4}1>4[4:1],C1,7>2[4:1],C1,
{8}5<8[4:1],,C1,,3qq7[8:3],,,5,
{8}5,,6/8,,5pp1[8:3],,,3,
{8}3,,2/8,,2pp6[8:3],,,8,
{8}8,,5/7,,5pp1[8:3],,,3,
{8}3,,2/8,1-4[8:1],5-8[8:1],,,2-5[8:1],
{8}6-1[8:1],,,3-6[8:1],7-2[8:1],,,4,
{8}8,3,7,7-4[8:1],3-8[8:1],,,6-3[8:1],
{8}2-7[8:1],,,5-2[8:1],1-6[8:1],,,4,
{8}8,5,5h[8:3],,6h[8:3],,7h[8:3],,
{4}1h[8:3],3h[8:3],6h[8:3],1h[8:3],
{4}4h[8:3],7p4[2:3]*pp4[2:3],7,,
{1},
{8},,,4/5,3/6,1/8,2/7,4/5,
{4}C1hf[4:1]/B2/B3/B6/B7,,1>4[8:1]/7,6,
{8}5<8[8:1],,2,2h[8:5],1,1,3,3,
{8}4<7[8:1],,,,4/8,3/7,2/6,1/5,
{8}4-7[8:1]/8-3[8:1],,4/8,,1-6[8:1]/2-6[8:1],3/8,1/2,,
{8}3-7[8:1]/4-7[8:1],2/5,3/4,,2/8<5[8:1],,3,,
{8}4>1[8:1],,7,7h[8:5],8,8,6,6,
{8}5>2[8:1],,,,6-1[8:1],,1/6,2,
{8}3-8[8:1],,3/7,6,5-8[8:1],5-2[8:1],5-1[8:1],,
{32},B5,C1f,B1,,,,,2/6,,,,,,,,2-5[8:1]/8,,,,,,,,6<4[4:1],,,,,,,,
{8}1h[1:1],,,6,7,8,2,3,
{8}4-7[8:1],,,1,1/5,2/6,3/7,4/8,
{8}1-6[8:1]/5-2[8:1],,1/5,,1v4[8:1]/5v8[8:1],2/6,1/5,,
{8}4>1[8:1]/8<5[8:1],1/5,4/8,,3/7-4[8:1],,3>5[4:1],,
{8}7h[1:1],,,3,2,1,8,6,
{8}5-2[8:1],,,,8-4[8:1],,3,2,
{8}1-5[8:1],,6,7,8,8-4[8:1],1/7,8,
{8},1-5[8:1],2/8,1,,7-3[8:1]/8-4[8:1],1/6,7/8,
{8},1-5[8:1]/2-6[8:1],3/8,1/2,,3-8[8:1]/7-4[8:1],4/8,3/7,
{8},2-5[8:1]/6-1[8:1],1/5,2/6,,1/7,2/6,3/5,
{16}4/6,,3/7,,2b/8b,,,,6,,6,5,7V51[4:1],,4,,
{16}B3,,E3,,B2,,,,3,,3,4,2V48[4:1],,5,,
{16}B6,,E7,,B7,,,,4/5-1[8:1],,6,4,5,,,,
{16}4-8[8:1]/5,,3,5,4,,,,7h[4:1],,6,,2h[4:1],,3,,
{16}1,,3/8,,4/7,,5/6,,7,,7,8,6V84[4:1],,1,,
{16}B2,,E3,,B3,,,,2,,2,1,3V15[4:1],,8,,
{16}B7,,E7,,B6,,,,1-5[8:1]/8,,2,8,1,,,,
{16}1/8-4[8:1],,7,1,8,,,,1/2,,4,,7/8,,5,,
{8}1/2,3/8,5/6,4/7,2h[4:3]/8h[4:3],,,,
{8},,,,E6/1,1,B3/E3/1,1,
{4}B7/B8/E8/1w5[8:1],1,,,
{1},
{1},
{1},
E
