&title=Valsqotch
&wholebpm=125
&artist=owl*tree feat.chi*tree
&des=jacK on Phoenix
&shortid=11106
&genre=maimai
&cabinet=DX
&version=maimai DX PLUS
&chartconverter=Neskol
&lv_2=6
&des_2=
&lv_3=8+
&des_3=
&lv_4=13
&des_4=はっぴー
&lv_5=14+
&des_5=jacK on Phoenix
&des_6=
&inote_2=
(125){1},
{1}4h[1:1],
{1},
{1}5h[1:1],
{1},
{2}E4,E3/E5,
{2}E6,E5/E7,
{1}C1hf[1:1],
{1},
{2}1,1,
{4}2,2,1/2,,
{2}3,3,
{4}4,4,4/5,,
{1}5h[2:1],
{1}6h[2:1],
{2}7x/8x,1x/2x,
{4}8x,1x,8xh[2:1],,
{4},8,8,1,
{1}1-5[2:1],
{4},1,1,8,
{1}8-4[2:1],
{4},3,3,4,
{4}4,3h[2:1]/5h[2:1],,,
{4},6,6,5,
{4}5,4/6,4/6,3/5,
{4}3b/5b,2h[4:1],,2,
{4}1h[4:1],,1,8h[4:1],
{4},8,7h[4:1],,
{4}7,C1hf[4:9],,,
{1},
{1},
{8},,8,,7,7,,6,
{8}6,,5,4/5,,,4,,
{8}3,3,,2,2,,1,1/8,
{8},,1,,2,2,,3,
{8}3,,4,4/5,,,5,,
{8}6,6,,7,7,,8,1b/8b,
{4},1h[8:3],,,
{8}2,2,2,1/2,,,8h[8:3],,
{8},,,,7,7,7,7/8,
{4},1h[8:3]/2h[8:3],,,
{8}8,8,8,1/8,,,7h[8:3]/8h[8:3],,
{2},1h[8:3]/2h[8:3],
{8},,7x/8x,,,1x/2x,,,
{8}1x/8x,,,2b/7b,,,B3,,
{4},B2/B4,,B5,
{4},B4/B6,,B7,
{4},B6/B8,,B1,
{4},B2/B8,,B3/B4,
{4},B5/B6,,B2/B3,
{4},B6/B7,,B4/B5,
{4},B2/B7,,C1hf[1:1],
{1},
{1},
{4},,,4h[2:1],
{4},,,5h[2:1],
{4},,,4,
{4}4,5,5,4,
{8}3/4,,5,,5/6,,4,4,
{8}4,,5,5,5,,4,4,
{8}5,5,4b,,,,3,,
{4}3/4,3,3/4,3,
{8}3/4,,5,5,5,,6,,
{4}5/6,6,5/6,6,
{8}5/6,,4,4,4b,,3h[4:1]/5h[4:1],,
{4},4h[4:1]/6h[4:1],,5,
{8}4,,5,5,4/5,,3x/4x,,
{4},5x/6x,,4/5,
{4}3/6,2b/7b,,1h[8:3]/2h[8:3],
{2},3h[8:3]/4h[8:3],
{8},,5xh[16:3]/6xh[16:3],,,7x,,7xh[16:3]/8xh[16:3],
{8},,1x,,1xh[16:3],,,8,
{8},8xh[16:3],,,1,,1xh[16:3]/2xh[16:3],,
{8},8,,7xh[16:3]/8xh[16:3],,,1b,,
{16},,1x/2x,,,1x/2x,,,1x/2x,,,1x/2x,,,8,,
{16}8,,1,,1,,,,7x/8x,,,7x/8x,,,7x/8x,,
{16},7x/8x,,,1,,1,,8,,8,,7,,7,,
{8}6,6,5,5,4,4,3h[2:1]/6h[2:1],,
{8},,,,,C1f/B2/B3/B6/B7,,,
{1},
{1},
{1},
E
&inote_3=
(125){1},
{1}C1xh[1:1],
{1},
{1}C1xh[1:1]/B2/B7,
{1},
{4}E4,E3,E2,E1,
{4}E8,E7,E4/E6,,
{2}B3/E3/B4,B5/B6/E7,
{1}B1/C1hf[2:1]/B8,
{8}1x,1,1,,2/4,,3/5,,
{8}6,6,6,,5/7,,5/7,,
{8}8,8,8,,5/7,,4/6,,
{8}3,3,3,,2b/4b,,,,
{4}6h[4:1],5h[4:1],6,4/7,
{4}3h[4:1],4h[4:1],3,2/5,
{8}6,6,6x,,4,4,4x,,
{4}4/5,3/6,2b/7b,,
{4}4h[4:1]/5h[4:1],,3,3/4,
{4}2,2h[4:1]/5h[4:1],,2x/5x,
{4},4/5,6,5/6,
{8}7,,1h[4:1]/7h[4:1],,,,8,8,
{4}8b,5/7,6,4/5,
{8}3/4,,2h[4:1]/5h[4:1],,,,1,1,
{4}1,2/8,3,1/7,
{4}6,5/6,4/5,3/4,
{4}2x/5x,3x-6[4:1],,,
{4}7x-4[4:1],,,3x-8[4:1],
{2},7x<4[4:1],
{16},,,,2x,,,3x,,,4x,,,5x,,,
{16}6x,,,7x<2[16:9],,,,,,,,,,,,,
{2},C1f/B2/B7,
{8},,1x/8x,,7,7,,6,
{8}5/6,,4/5,4/5,,3,3,,
{8}2,2,,1,1/8,,2/7,2x/7x,
{8},,4/5,,6,5/6,,7,
{8}7/8,,1/8,1/8,,2/7,2/7,,
{8}3,3/4,,6,5/6,,4/5,4b/5b,
{8},,5/6,,7,5/7,,8,
{8}1/8,,2/7,2x/7x,,3,3/4,,
{8}2,2/4,,1,1-4[16:5]/8-5[16:5],,,,
{8},,3x/6x,,2,2/4,,5,
{8}4/5,,2/7,2x/7x,,,1/2,,
{8}3/4,3/4,,5/6,5h[8:3]/6h[8:3],,,,
{4},4-1[16:5]/5-8[16:5],,,
{8}2x/7x,,3/6,3b/6b,,,6,6,
{8}5,5,6h[4:1],,5,,3,3,
{8}4,4,3h[4:1],,4,,7x,7,
{8}8,,2,2,1,,8,8,
{8}1,1,8,,2b/7b,,1,2,
{8}3,4,5,6,7,8,8,7,
{8}6,5,4,3,1x/2x,,8h[4:1],,
{8}7h[4:1],,6h[4:1],,5,,4,4,
{8}5,5,3/6,,1x/8x,,2b>6[2:1],,
{4},,,7<3[2:1],
{4},,,2h[4:1],
{4}1x,7h[4:1],8x,3h[4:1],
{8}1x,,1/8,,2x/7x,,3,3,
{8}4,,6,6,5,,2,2,
{8}4,,7,7,5,,3/4,,
{4}2/5,5/6,4/7,4h[4:1]/5h[4:1],
{8},,C1f/B2/B7,,,,8x,8,
{8}1/8,,2,2,2/4,,5-8[4:1],,
{8},,1-4[4:1],,,,6,6,
{8}5/6,,2,2,2/4,,1>4[4:1],,
{8},,5<8[4:1],,,,2,2,
{8}1,1,3,3,3/4,,6,6,
{8}5,5,7,7,7/8,,1-5[4:1],,
{4},6-3[4:1],,2h[4:1],
{8}1,,3/7,3/7,3b/7b,,4/5,,
{8}3,3/4,,7,5/7,,2,2/4,
{8},5/6,5xh[4:1]/6xh[4:1],,,4/7,,3xh[4:1]/4xh[4:1],
{8},,2/5,,8,8,8,1x/7x,
{8},3,3,3,2x/4x,,6,6,
{8}6,5x/7x,,4/5,4/5,3/6,2b/7b,,
{16},,3x/4x,,,3x/4x,,,5x/6x,,,5x/6x,,,7,,
{16}7h[4:1],,,,8b,,,,5x/7x,,,5x/7x,,,2x/4x,,
{16},2x/4x,,,1x/2x,,3,,4,,5x/6x,,7,,8,,
{8}1x/8x,2/7,3/6,4x/5x,3/6,2/7,1xh[2:1]/8xh[2:1],,
{24},,,,,,,,,,,,,,,2x/7x,,2x/7x,,,,,,,
{1},
{1},
{1},
E
&inote_4=
(125){1},
{1}8<5[4:3],
{1}1>4[4:3],
{1}8<5[4:3],
{1}1>4[4:3],
{4}8<5[4:3],4,3,2,
{4}1>4[4:3],5,6,7,
{4}8<5[4:3],4,3,2,
{8}1-5[8:1],1,8-4[8:1],8,1,1,2b/7b,3,
{8}6-3[8:1],6,1,1,2-7[8:1],2,5,5,
{8}6-1[8:1],6,2-5[8:1],2,8,8,5/8,4,
{8}3-6[8:1],3,8,8,7-2[8:1],7,4,4,
{8}3-8[8:1],3,7-4[8:1],7,1,1,1/4,5,
{8}6-3[8:1],6,2-7[8:1],2,6,6,5/6,4,
{8}3-6[8:1],3,7-2[8:1],7,3,3,3/4,5,
{8}5/6,7,3/4,2,5/6,7,3/4,2,
{8}5/7,8,2/4,1,1/8,2/7,3b/6b,,
{24}C1,,,,,,1,,1,8,,8,7,,7,6,,6,5,,5,4,,4,
{24}3,,3,2,,2,1-4[8:1],,,,,,5-8[8:1],,,,,,1,,,1,,,
{24}1/8,,,,,,8,,8,1,,1,2,,2,3,,3,4,,4,5,,5,
{24}6,,6,7,,7,8-5[8:1],,,,,,4-1[8:1],,,,,,8,,,8,,,
{24}1/8,,,,,,5,,5,4,,4,3,,3,2,,2,1,,1,8,,8,
{24}7,,7,6,,6,5v8[8:1],,,,,,1>4[8:1],,,,,,5,,,5,,,
{24}4/5,,,,,,4,,4,5,,5,6,,6,7,,7,8,,8,1,,1,
{24}2,,2,3,,3,4v1[8:1],,,,,,8<5[8:1],,,,,,4,,,4,,,
{8}3/5,,4/7,3/6,2/5h[8:1],8h[8:1],3h[8:1],4,
{8}2/5,3/6,4h[8:1]/7,1h[8:1],6h[8:1],5,4/7,3/6,
{8}2/5h[8:1],8h[8:1],3h[8:1],4,2/5,3/6,4h[8:1]/7,1h[8:1],
{16}6h[8:1],,5,,3,4,3,6,5,6,3,4,2,6,5,7,
{16}2,4,3,7,5,6,,5/7,,2/4,,1,1h[8:1],,3h[8:1],,
{8}4h[8:1],5h[8:1],6h[8:1],8h[8:1],1b,,,4/5,
{8}6,4,3<6[8:1],8,8,7,6,4,
{8}3<6[8:1],7,7,8,6,4,3<6[8:1],8,
{8}8,7,6,4,3h[8:1],1h[8:1],8h[8:1],6h[8:1],
{8}3,5,6>3[8:1],1,1,2,3,5,
{8}6>3[8:1],2,2,1,3,5,6>3[8:1],1,
{8}1,2,3,5,4/6,3/5,1/8,2/7,
{8},4,2<7[8:1],5,5,6,7,1,
{8}2<7[8:1],6,6,5,7,1,2<7[8:1],5,
{8}5,6,7,1,2h[8:1],4h[8:1],5h[8:1],7h[8:1],
{8}2,8,7>2[8:1],4,4,3,2,8,
{8}7>2[8:1],3,3,4,2,8,7>2[8:1],4,
{8}4,3,2,8,7h[8:1],5h[8:1],4h[8:1],2h[8:1],
{8}8h[8:1],1,2h[8:1],4h[8:1],5h[8:1],7h[8:1],1h[8:1],8,
{8}E2/E8,B3/B6,B1/B8,C1hf[16:3],,,8h[4:1],7,
{8}1h[4:1],2,7-4[8:1],8-3[8:1],,,4,3/5,
{8}2/6,1/7,8<5[8:1],1>4[8:1],,,8b,1,
{8}8h[4:1],7,2-5[8:1],1-6[8:1],,,5,4/6,
{24}3/7,,,2/8,,,1>4[8:1],,,8<5[8:1],,,,,,,,,2,,2,4,,4,
{24}5,,5,7,,7,1,,1,8,,8,1,,1,7,,7,5,,5,4,,4,
{24}2,,2,8,,8,1x,,2x,,3x,,4x,,,3/5,,,4/6,,,1b/7b,,,
{8}3/5,2b/8b,5/7,7b/8b,2/4,1b/2b,5/6,7b/8b,
{8}3/4,1b/2b,4/5,2/7,1b>8[1:1]/8b,,C1f,,
{1},
{12},,,,,,,,,B8/E8,B5/E6,B7/E7,
{12}C1/B6,,,B1/E2,B4/E4,B2/E3,C1/B3,,,B8/E8,B5/E6,B7/E7,
{24}C1f/B6,,,,,,B1/E2,,B4/E4,,B2/E3,,C1f/B3,,,,,,6h[4:1],,,8,,,
{8}5h[4:1],8,6h[4:1],8,4h[4:1],8,5h[4:1],1,
{8}3h[4:1],1,4h[4:1],1,3h[4:1],1,4,5/6,
{8}7/8,1/2,2/4,4/5,5/7,1/8,2/3,4/5,
{24}6/7,,,1/8,,,2x/7x,,,4/5,,,8b,,3,4,,4,2,,2,8,1,8,
{24}1,,6,5,,5,7,,7,1,8,1,8,,3,4,,4,2,,2,8,,8,
{24}1,,1,4,,3b/5b,,,4b/7b,,,1b/5b,,,6,5,,5,7,,7,1,8,1,
{24}8,,3,4,,4,2,,2,8,1,8,1,,6,5,,5,7,,7,1,,1,
{24}8,,8,5,,4b/6b,,,2b/5b,,,4b/8b,,,3,4,,4,2h[24:5],,,3,,3,
{24},,6,5,,5,7h[24:5],,,6,,6,,,3,4,,4,2h[4:1],,,3,,,
{8}7h[4:1],6,1h[4:1],3,8h[4:1],6,3<6[8:1],7,
{8}8,7,6>3[8:1],2,1,2,3<6[8:1],3,
{8}7>2[8:1],7,4,4,2/6,,4>1[4:1]/5,7,
{8}8,E1,C1,E5,4/5<8[4:1],2,1,E5,
{8}C1,E1,1>4[4:1]/8,6,5,E5,C1,1/8<5[4:1],
{16}3,,4,,E5,,C1,,2-6[8:1],,8,8,,,7,,
{16}5/8,,7-3[8:1],,1,1,,,2,,1/4,,2-6[8:1],,8,8,
{16},,7,,5/8,,7-3[8:1],,1,1,,,2,,2/4,,
{16}1/8,,6,5/7,,3,2/4,,6,5/7,,3,4,1,8,2,
{16}6,5,8,1,7,3,4/5,,3,2/4,,6,5/7,,3,2/4,
{16},6,5,8,1,7,3,4,1,8,2,6,4/5,,2/7,,
{32}1/8,,1/8,,2/7,,2/7,,3/6,,3/6,,4/5,,4/5,,4/5,,3/6,,2/7,,1/8,,1x,2x,3x,4x,5x,6x,7x,8x,
{96}1x,,,2x,,,3x,,,4x,,,5x,,,6x,,,7x,,,8x,,,1xh[24:5],,,,,,,,,,,,,,,,,,,,8,,,,1,,,,,,,,,,,,3b/6b,,,,,,,,3b/6b,,,,,,,,,,,,,,,,,,,,,,,,,,,,
{1},
{1},
{1},
E
&inote_5=
(125){1},
{96}E1,E2/E8,C1f/E3/E7,E4/E5/E6,4x>5[24:29]/5x,,,,,,,,,,,,,,,,,,,,,,,,,,,,,,,,,,,,,,,,,,,,,,,,,,,,,,,,,,,,,,,,,,,,,,,,,,,,,,,,,,,,,,,,,,,,
{1},
{96}E1,E2/E8,C1f/E3/E7,E4/E5/E6,4x/5x<4[24:29],,,,,,,,,,,,,,,,,,,,,,,,,,,,,,,,,,,,,,,,,,,,,,,,,,,,,,,,,,,,,,,,,,,,,,,,,,,,,,,,,,,,,,,,,,,,
{24},,,,,,,,,,,,,,,,,,,,4,5,,5,
{24}4x,,,3/4,,,3,,3h[8:1],,,4,,,5,4,,,6,,6,5,,4,
{24}5,,,5/6,,,6,,6h[8:1],,,5h[8:1],,,6,5,,5,4,,4,3,,,
{24}2x/5x,,,4/7,,,8,,8h[8:1],,,1h[8:1],,,8,1,8,2,7,2,6,3,6,4,
{8}5p4[4:1],,,,C1,4/5,B1/C1f/E1/B5/E5,,
{24}2x-5[8:1]/5x,,3,4,,4,2,,,6,,,4x/7x-3[8:1],,6,5,,5,7,,,1,,,
{24}2/4,,3,5,,4,6,,5,7,,1-6[8:1]/2-5[8:1],,,3/8,,,1b/2b,,,,,,,
{24}4x/7x-4[8:1],,6,5,,5,7,,,3,,,2x-6[8:1]/5x,,3,4,,4,2,,,8,,,
{24}5/7,,6,4,,5,3,,4,2,,7-4[8:1]/8-3[8:1],,,1/6,,,7b/8b,,,,,,,
{24}1h[12:1]/8,,4,3,,5,4,,6,5,,1,8h[12:1],,5,6,,4,5,,3,4,,2,
{24}4-8[8:1],,,8-4[8:1],,,B2/E3,,,B6/E7,,,1,,1,,,2b/8b,,,6,5,,3,
{24}4x,,,1/8,,,3/6-1[8:1],,5,4,,4,6x,,,4,,,3-8[8:1]/6,,4,5,,5,
{8}3x<6[8:1],5,3v8[8:1]/7x,B1/B2,3x/6x,B4/B5,2b/7b,,
{24}3xh[24:5]/6xh[24:5],,,,,,4x/5x,,3,4,,5,4,,3,4,,5,4,,3,4,,5,
{24}4,,3,4,,5,1h[4:3],,,,,,4h[8:1],,,,,,B3,B4,B5,B6,,,
{24}8b,,,,,,4x/5x,,6,5,,4,5,,6,5,,4,5,,6,5,,4,
{24}5,,6,5,,4,8h[4:3],,,,,,5h[8:1],,,,,,B2/E3,,,B6/E7,,,
{24}4b,,,,,,4/5,,4,2,,4,6,,4,2,,4,6,,4,2,,4,
{24}5,4,5,3,4,3,7h[4:3],,,,,,B6/E6,,,E1/B8,,,B4/E5,,,B2/E2,,,
{24}3b,,,,,,4/5,,5,7,,5,3,,5,7,,5,3,,5,7,,5,
{24}4,5,4,6,5,6,1xh[8:1],,,B3/B4,,,2x/6xh[8:1],,,B1/B8,,,3xh[8:1]/7x,,,B5/B6,,,
{24}4x/8xh[8:1],,,C1,,,1x/8x,,,2>5[12:1]/7,,6,6<1[12:1],,,2-6[12:1],,,6,,,2,,,
{24}7,,,5/8<5[12:1],,4,4>1[12:1],,,8-4[12:1],,,4,,,8,,,3,,,1/2-7[12:1],,6,
{24}6-1[12:1],,,2>5[12:1],,,6,,,2,,,6,,,7/8-5[12:1],,3,3-7[12:1],,,8>3[12:1],,,
{16}3,,8,,1,8,8,1,7,7,1,6,6,1,5,5,
{16}1,4,4,1,E3,1,E5,1,E7,1,C1,1,1h[8:1],,3h[8:1],,
{8}5h[8:1],7h[8:1],1pp4[8:3]*qq6[8:3],4/6,1b,,,,
{24}5,,,4,,,3/7qq4[8:5],,,2,3,4,5,,,4,,,3,,,2,,,
{24}1,,,8<5[8:1],,,5,,1,8,,,,,,3/4,,,2pp5[8:5]/6,,,7,6,5,
{24}4,,,5,,,6,,,7,,,8,,,1>4[8:1],,,4,,8,1,,,
{24},,,5/6,,,2/7pp2[8:5],,,3,4,5,6,,,5,,,4,,,3,,,
{24}4,,,5,,,6,,5/7,5/7,,,2/4<3[4:1],,,3/5,,,4x/6xh[24:5],,,,,,
{24}6,,,5/7,,,4/6,,,3/5,,,2,4,3,7,5,6,3,5,4,C1f,,,
{24},,,1,8,1,2/7<4[12:1],,,4,3,2,1,,,1h[8:1],,,2h[8:1],,,3,,3,
{24}4,,4,5,,5,6,,6,7-4[8:1],,,4<8[6:1],,,7>2[8:1],,,3xh[24:5],,,,,,
{24}3,,,2/4,,,3/5-2[12:1],,,4/6-1[12:1],,,5/7,,,6,,,3,,1/8,2b/7b,,,
{24},,,8,1,8,2>5[12:1]/7,,,5,6,7,8,,,8h[8:1],,,7h[8:1],,,6,,6,
{24}5,,5,4,,4,3,,3,2-5[8:1],,,5>1[6:1],,,2<7[8:1],,,6h[24:5],,,,,,
{8}6,5/7,4>5[8:3]/6,3/5,2xh[2:1]/4x,,,,
{24}6,,,3/7,,,4/8h[8:1],,,1,,2/7,,,5,4,,,2/4,,,5/7,,,
{24}2,4,3,7,5,6,1,8,2-5[12:1]/7-4[12:1],3/6,,3/6,,,2b/7b,,,,8,1,8,1,,,
{24}3,4,3,4,,,7,5,6,4,5,4,6,,5/7,,,1,2,3,4,5,6,7,
{24}3,4,5,6,7,8,2,1,2,1,,,3/8,,1/6,,,4/5,3b/6b,,,1x/8x,,,
{24}6,5,6,5,,,2,4,3,5,4,5,3,,2/4,,,5/7h[8:1],,,6,,5/7,,
{24}4/6,,3/5,,2/4,,1/8,,,3/6,4,5,3/6,,,1b/8b,,,4,5,4,7,6,7,
{24}5,6,5,7,6,7,5,6,4,5,3,4,2,1,2,3b/8b,,,5,4,5,2,3,2,
{24}4,3,4,2,3,2,4,,3/5,,4/6,,5/7,,,1b/8b,,,4/5,,,2x>5[8:1]/7x,,,
{8}B3/B4,2/7-3[8:1],E1/B8,1-5[8:1]/7,B2/E2,1/8<5[8:1],B6/B7,3>8[8:1]/8,
{48}B1/B2,,,,,,3/5-1[8:1],,,,,,B7/E7,,,,,,4/5,,,,,,B3/E3,,,,,,,,,,,,3bqq4[4:5]/6bpp5[4:5],B4/B5/E5,,,,,,,,,,,
{1},
{12},,,,,,,,,3-1[12:1]/4,4,4,
{48}B4,C1f,B8,,,,,,,,,,1/8-6[12:1],,,,1,,,,1,,,,B1,C1f,B5,,,,,,,,,,5-3[12:1]/6,,,,6,,,,6,,,,
{48}B6,C1f,B2,,,,,,,,,,2-8[12:1]/3,,,,3,,,,3,,,,B3,C1f,B7,,,,,,,,,,4/6,,,,,,3/5,,,,,,
{24}2,,2h[8:1],,,4,,,5,4,,,6,,6,5,,4,5,,,5/6,,,
{24}7,,7h[8:1],,,5h[8:1],,,6,5,,5,4,,4,3,,,1-6[12:1]/2,,,7/8-3[12:1],,,
{24}1,,,8,,,4,5,4,6,5,6,3,4,3,7,5,6,2,4,3,7,6,7,
{192}2,,,,,,,,3,,,,,,,,2,,,,,,,,8,,,,,,,,1,,,,,,,,8,,,,,,,,1w5[12:1],,,,,,,,,,,,,,,,,,,,,,,,3/7,,,,,,,,,,,,,,,,,,,,,,,,1b,,,B1,,,C1f,,,B5,,,,,,,,,,,,,,,,,,,,,,,,,,,,,,,,,,,,,,,3x/7xp3[12:1],,,,,,,,,,,,,,,,6,,,,,,,,5,,,,,,,,,,,,,,,,5,,,,,,,,
{24}7,,2,1,,8,1v6[12:1],,3,4,,4,1,,7,8,,7,5,,6,4,,5,
{24}3,,4,2,,3qq1[8:1]/7qq5[8:1],,,2/6,,,3b/7b,,,,,,,2xq6[12:1]/6x,,3,4,,4,
{24}2,,7,8,,1,8v3[12:1],,6,5,,5,8,,2,1,,2,4,,3,5,,4,
{24}6,,5,7,,2pp4[8:1]/6pp8[8:1],,,3/7,,,2b/6b,,,,,,,1/8h[12:1],,5,6,,4,
{24}5,,3,4,,1/8,1h[12:1]/8,,4,3,,5,4,,6,5,,7,5-1[8:1],,,1-5[8:1],,,
{24}B7/E7,,,B3/E3,,,8,,8,,,1b/7b,,,3,4,,6,5x,,,1/8,,,
{24}3-8[8:1]/6,,1,4,,4,3x,,,5,,,3/6-1[8:1],,8,5,,5,6x>3[8:1],,,4,,,
{24}2x/6v1[8:1],,,B7/B8,,,3x/6x,,,C1f/B4/B5,,,2b/7b,,,,,,3/5,,,3,,4,
{24}3,,,E5/3,,,E6/3,,,E7/3,,,4/6,,,6,,5,6,,,E5/6,,,
{24}E4/6,,,E3/6,,,2/5,,,2,,3,2,,,B3/E4/2,,,B6/E6/2,,,4/7,,,
{24}7,,6,7,,,B6/E6/7,,,B3/E4/7,,,1/2,,,3/4-7[8:1],,2,1-5[8:1],,,3/4,,,
{24}1,,,8,,,7-3[8:1]/8,,2,1>4[8:1],,,7/8,,,1,,,7,,,5-2[8:1]/6,,7,
{24}8-4[8:1],,,5/6,,,8,,,1,,,1/2-6[8:1],,7,8<5[8:1],,,1/2,,,8,,,
{48}C1f,,,,,,1x/8x,,,1/8,,,,,,5x/6x,,,5/7,,,,,,3x/4x,,,2/4,,,,,,1x/8x,,,1/8,,,,,,2,,4,,3,,
{192}7,,,,,,,,5,,,,,,,,6,,,,,,,,3,,,,,,,,5,,,,,,,,4,,,,,,,,6,,,,,,,,4,,,,,,,,5,,,,,,,,2,,,3,,,4,,,5,,,6,,,7,,,8,,,1,,,2x/5x,,,,,,,,,,,,2/5,,,,,,,,,,,,,,,,,,,,,,,,4x/7x,,,,,,,,,,,,4/7,,,,,,,,,,,,,,,,,,,,,,,,1x/5x,,,,,,,,,,,,1/5,,,,,,,,,,,,
{16},4x/8x,3/7,2/6,1/5-7[8:1],,2/4-8[8:1],,3/5-1[8:1],,4-2[8:1],,5,,4,,
{32}7,,7,,4/8,,4/8,,1/5,,1/5,,E6/2,,E5/1,,E4/8<1[32:7],,E3/7,,E2/6,,E1/5,,E8,E7,E6,E5,E4,E3,E2,E1,
{48}8,7,6,5,4,3,2,1,8,7,6,5,4,,,,,,,,,,1-5[12:1]/8-4[12:1],,2/7,,,,4/5,,3/6,,,,1b/8b,C1f,,,,,,,,,,,,,
{1},
{1},
{1},
E
