&title=UniTas
&wholebpm=205
&artist=Masahiro "Godspeed" Aoki VS Kai
&des=シチミヘルツ
&shortid=11093
&genre=maimai
&cabinet=DX
&version=maimai DX PLUS
&chartconverter=Neskol
&lv_2=5
&des_2=
&lv_3=8
&des_3=
&lv_4=11+
&des_4=はっぴー
&lv_5=14
&des_5=シチミヘルツ
&des_6=
&inote_2=
(205){1},
{1},
{1},
{1},
{1},
{1},
{1},
{1},
{1},
{1},
{2}1,1,
{2}2,2,
{2}3,3,
{2}4,4,
{2}4x/5x,5,
{2}5,6,
{2}6,7,
{2}7,1x/8x,
{1}8-4[4:3],
{1},
{2}3,3,
{2}2,2,
{1}1-5[4:3],
{1},
{2}6,6,
{2}7,7b,
{1}8-5[4:3],
{1},
{1}1-4[4:3],
{1},
{1}5xh[4:3],
{2},4xh[4:3],
{1},
{1}5xh[4:3]/6xh[4:3],
{2},3xh[4:3]/4xh[4:3],
{1},
{4}3,,4,4,
{4},5,5,,
{4}6,5x/6x,,,
{4}6,,5,5,
{4},4,4,,
{4}3,3x/4x,,,
{1}2-6[4:3],
{1},
{2}7,7,
{2}8,8,
{1}7-3[4:3],
{1},
{1}1h[1:1]/2h[1:1],
{1},
{2}1x/2x,3,
{2}3,4x/5x,
{2}6,6,
{2}7x/8x,6,
{2}6,4xh[4:3]/5xh[4:3],
{1},
{4}3,3,3,3b,
{4},,6,6,
{4}6,6b,,,
{4}4/5,,,3/6,
{2},2xh[4:3]/7xh[4:3],
{1},
{1}1-5[8:7],
{4},,,8x,
{4},8-4[8:7],,,
{1},
{2}2x,2-5[8:7],
{1},
{4},7x,,7-4[8:7],
{1},
{1},
{4}1,1,1,,
{4}2,2,2,,
{4}3,3,4,4,
{2}5,4/5,
{4}5,5,5,,
{4}6,6,6,,
{4}7,7,8,8,
{2}1,1x/8x,
{1}1h[2:1]/2h[2:1],
{4}8,1,8,,
{1}7h[2:1]/8h[2:1],
{4}1,8,1,,
{1}1-4[4:3]/8-5[4:3],
{4},,,3h[4:7]/6h[4:7],
{1},
{1},
{2},B4,
{1},
{1}B5,
{2},B3,
{1},
{1}B6,
{2},B4/B5,
{1},
{1}B3/B6,
{2},B2/B7,
{1},
{1}C1hf[2:3],
{1},
{1},
{4}1,1,,2,
{4}2,,3,3,
{4},4/5,,,
{4}5,5,,6,
{4}6,,7,7,
{4},1x/8x,,,
{4}1,1,,2x/8x,
{4},,8,8,
{4},1/7,,,
{4}6,6,,5,
{4}5,,4,4,
{4},3x/5x,,,
{4}3,3,3,4,
{4}4,4,5,5,
{4}5,4x/6x,,,
{4}6,6,6,5,
{4}5,5,4,4,
{4}4,3x/5x,,,
{4}1,1,1,2/8,
{4},,8,8,
{4}8,1/7,,,
{4}1,1,1,8,
{4}8,8,2h[4:3]/7h[4:3],,
{1},
{1}1-4[8:7],
{4},,,8x,
{4}8x,8-5[8:7],,,
{1},
{4}1x,1b,,,
{1},
{1},
{1},
E
&inote_3=
(205){1},
{1},
{1}3-6[4:3],
{1},
{1}7-2[4:3],
{1},
{1}3-7[4:3],
{1},
{1}8-4[4:3],
{1},
{4}3,3,3,5,
{4}4,5,3,3/4,
{4},6,6,6,
{4}4,5,4,6,
{4}5/6,,2,2,
{4}2,8,1,8,
{4}2,1/2,,2,
{4}3,4,5,4,
{8}3h[8:7]/6b,,,,,,,4h[8:9],
{1},
{1}5h[1:1],
{4}7,7,7x,,
{8}5h[8:7],,,,,,,3h[1:1],
{8},,,,,,,4-8[8:7],
{1},
{2},1x,
{8}2,,3,,4,,5,5x,
{8},4h[8:3]/6h[8:3],,,,,,,
{4}5,5,4,4,
{4}4/5,4/5,3x/6x,,
{4}B4/E5,,,B3/E4,
{2},B6/E7,
{4},B5,B4,B3,
{4}E3,,,B5/E7,
{2},B4/B6,
{4},B3,B4,B5,
{4}E6,,,C1/B6,
{2},B2/E2,
{4},E7,B6,B5,
{4}E4/E5,,,B5/B6/E7,
{2},E3/B3/B4,
{4},C1f/B6/B7,,,
{4}8x,,6,6h[4:3],
{2},5,
{4}4,4h[4:3],,,
{4}3,,2,2,
{1}3b>6[4:5],
{1},
{1}C1hf[16:15],
{1},
{4}3,3,3/4,2,
{4}2,1/2,8,8,
{4}1/8,7,6,5,
{4}4,4,4/5,6,
{4}6,4/6,3,3,
{4}3/5,4x/6x,3x/7x,2x/8x,
{4}1x,1,1-5[2:1]*-6[2:1],,
{4},,4x,4x,
{1}4-7[2:1]*-8[2:1],
{4}1x,1x,2/4,5,
{8}6,,7,,8,,1,1,
{8},8,8x,,2,,3x,,
{8}4b/6b,,,,,3xh[2:1],,,
{8},5h[8:5],,,,,4,,
{8}4,,4h[8:5],,,,,6h[2:1],
{8},,,4h[8:5],,,,,
{4}5,5,3x,3,
{4}2,1,8,7,
{4}6,5x,4x,3,
{8}2/8,,1,1,,8p1[4:3],,,
{1},
{2}2xh[2:1]/8x,4h[2:1],
{4}3,4/5,5/6,,
{2}7h[2:1],5h[2:1],
{4}6,4/5,3/4,,
{4}1h[2:1],,8,8,
{4}1/7,1/7,2/6,,
{8}4/6,,5,5,,4>1[8:5],,,
{1},
{4}8x,7,6,6,
{4}1/6,2,3/4,,
{4}1,2,3,3,
{4}3/8,7,5/6,,
{8}3x/4x,,,4x/5x,,,5x/6x,,
{8},4x/5x,,,3x,,2x,,
{8}1,1,,8,8,,1,,
{4}2,3/5,4xh[2:1]/6xh[2:1],,
{2},5b<4[1:2],
{1},
{1},
{2},4xq5[4:5],
{1},
{4},,,4/5,
{4},3,3xp2[4:5],,
{1},
{4},,,3/6,
{4},7,7xp6[4:5],,
{1},
{4},,,1h[8:3]/8h[8:3],
{2},2xh[8:3]/7xh[8:3],
{4},2b/7b,,,
{4}2,1,1/2,3/8,
{4}4/7,5/6,7,8,
{4}7/8,1/6,2/5,3/4,
{4}5,5,4/6,3,
{4}3,2/4,3,4,
{4}5,3x/6x,2b/7b,,
{4}8,8,7<4[2:1],,
{4},,3x,3x,
{1}2q6[2:1],
{4}8,7,6,5,
{4}4,3,2,1,
{4}8,2b/7b,,,
{8}3x,3,3,,4/5,,5/6,,
{8}4/7,,3/8,,2,2,2,,
{4}1/2,3/8,,3/6,
{4}7,7,7/8,1,
{4}2,1/2,3,4,
{4}3/4,5,6,7,
{4}7x,7x/8x,7-3[2:1]/8-4[2:1],,
{4},,2x,1x/2x,
{1}1-5[2:1]/2-6[2:1],
{4}7x,8x,1x/6x,2x,
{4}1x,3x/8x,4/7,5/6,
{4}3/4,2b/5b,,6,
{8}3x/6xh[8:5],,,,,5xh[2:1],,,
{8},4xh[8:5],,,,,3x,,
{8}3x/4x,,2,,3,,4x,4x,
{8},5,,3x/6x,,3x/6x,,4x/5x,
{4}4x/5x,3b/6b,,,
{1},
{1},
{1},
E
&inote_4=
(205){1},
{1},
{4}6h[4:9],5,5,4,
{4}4,5,5,4,
{4}5,3h[4:9],4,4,
{4}5,5,4,4,
{4}5,4,7h[4:9],5,
{4}5,4,4,6,
{4}6,4,5,2h[4:3],
{4}4,4,5,4/6,
{8}8,8,5,5,6,6,4,4,
{8}8-5[8:1],,1-4[8:1],,8,8,5/7,,
{8}3/5,,1,1,4,4,3,3,
{8}5,5,1-4[8:1],,8-5[8:1],,1,1,
{8}2/4,,4/6,,8,8,5,5,
{8}6,6,4,4,8-5[8:1],,1-4[8:1],,
{8}8,8,5/7,,3/5,,1,1,
{8}4,4,3,3,5,5,4/5,,
{8}2h[4:1],,4h[4:1],,5h[4:1],,7,7-3[4:1],
{8},,,1,1,,3/4,,
{8}6,6,4,4,5<8[4:1],,,,
{4}1>4[4:1],,5,6,
{8}7h[4:1],,5h[4:1],,4h[4:1],,2,2-6[4:1],
{8},,,8,8,1V35[8:3]/8v6[8:3],,,
{4},,7h[4:1],5h[4:1],
{4}4h[4:1],2h[4:1],1h[4:1],8,
{8}2b/7b,,,6,6h[4:1],,5,5,
{8},3/7,,1,1h[2:1],,4,,
{4}8h[2:1],5,1h[2:1],3,
{4}8h[2:1],6,1b,,
{16}2h[16:3],,,3h[16:3],,,4,,4,,,,1/2,,,,
{16}7/8,,,,5/6,,,,7h[16:3],,,6h[16:3],,,5,,
{4}5,7/8,4/5,3/6,
{16}7h[16:3],,,6h[16:3],,,5,,5,,,,7/8,,,,
{16}1/2,,,,3/4,,,,2h[16:3],,,3h[16:3],,,4,,
{4}4,1/2,4/5,3/6,
{16}2h[16:3],,,3h[16:3],,,4,,4,,,,2/8,,,,
{16}1/7,,,,4/6,,,,7h[16:3],,,6h[16:3],,,5,,
{4}5,1/7,4/5,2/6,
{16}7h[16:3],,,6h[16:3],,,5,,5,,,,1/7,,,,
{16}2/8,,,,3/5,,,,2h[16:3],,,3h[16:3],,,4,,
{8}4,,2/8,,3/6,,1/8,1/8,
{4}2b/7b,6,5,4,
{8}3,,3,,4,4,5,,
{4}6,6,5,4,
{8}3,,2,2,4,,5,,
{4}6,6,5,4,
{4}3,4,5,6,
{8}3/5,3/5,,4/6,4/6,,3/5<4[8:5],,
{1},
{8}1h[8:3]/8b,,,4,4-8[4:1],,2,,
{4}1>4[4:1],5,6,5/7,
{8}8,,1,1,4,4,3,3,
{8}6h[8:3],,,5,5,,4/7,,
{8}3/6,,2/5,,1,1,8,2,
{8}5,5,4,6,1,1,8,,
{4}4/7,6-1[4:1],,2h[4:1],
{4}3h[4:1],4,2/5,3-8[4:1],
{4},7h[4:1],6h[4:1],5,
{4}7/8,1/2,3/4,5/6,
{4}7/8,1/2,3/4<3[4:3],,
{1},
{8}3h[2:1]/5h[2:1],,,,,3/5,,,
{8},3h[2:1]/5h[2:1],,,,,3/5,,
{8}4/6,,4h[2:1]/6h[2:1],,,,,4/6,
{8},,,4h[2:1]/6h[2:1],,,,,
{4}4/6,3/5,3,4,
{8}5,5,,4/6,,6,,5,
{8},4,4,,3/5,,3,,
{8}4,,5,5,,4/6,,C1hf[8:5],
{1},
{8}1x,,2x/8x,2x/8x,,1x/7x,1x/7x,,
{4}8-4[8:1],1-3[8:1],7-5[8:1],1,
{8}3,,4/6h[4:1],,5,5>1[4:1],,,
{8},8,8-4[8:1],,1-5[8:1],,7,,
{16}7,,6,,5,,4,,3h[16:3],,,2h[16:3],,,1,,
{8},8,8-4[8:1],,2-6[8:1],,8,8h[4:1],
{8},1,1,,4/5,4/5,,2b/7b,
{8},3x,3x/5x,,4x/6x,,2x/7x,,
{4}1-5[8:1],8-6[8:1],2-4[8:1],8,
{8}7,7,5,5,8,8,3,3,
{4}8-4[8:1],1-3[8:1],7-5[8:1],1,
{8}2,2,4,4,1,1,2/7,,
{8}6,4,7,3,5,2,6,5,
{8}7,3,4,2,8,8,3/7,,
{8}5/6,5/6,,3/4,3/4,,1b/8b,,
{4}2b/7b,3b/6b,7h[4:1],5h[4:1],
{4}4h[4:1],2h[4:1],8b<1[1:2],,
{1},
{1},
{2},1-5[4:3],
{1},
{4}6,4,3,3,
{8}5,,3/6h[8:1],,E1,E8,C1,E7,
{8}E5,E6,2,,2,,2h[8:1],,
{8}E1,E2,C1,E3,E5,E4,7,,
{8}7,,7h[8:1],,E1,E8,C1,E7,
{8}E5,E6,2,,2,,2h[8:1],,
{8}E1,E2,C1,E3,E5,E4,8w4[4:1],,
{8},,,,4/5,4/5,,4/5,
{4}4/5<4[2:1],C1f,,,
{4}2-6[8:1],7-1[8:1],3-5[8:1],8-4[8:1],
{8}1-3[8:1],,7-5[8:1],,1h[4:1],,4,4-8[8:1],
{8},1,1-5[8:1],,6,,7,,
{4}7-3[8:1],2-8[8:1],6-4[8:1],1-5[8:1],
{8}8-6[8:1],,2-4[8:1],,8h[4:1],,5,5-1[8:1],
{8},8,8-4[8:1],,3,,2,,
{8}1,1,4,4,2>7[8:3],,8,,
{8}8,,1/8,,8,8,5,5,
{4}7<2[8:3],1,1,1/8,
{12}2h[6:1],,4,4h[6:1],,5,5h[6:1],,7,7h[6:1],,1,
{12}1h[6:1],,8,8h[6:1],,1,1,,,2/4,,,
{4}5/7,1b/8b,,4/5,
{4}3/6,7-3[8:1],2-6[8:1],8-5[8:1],
{8}4-1[8:1],,8,,7,7,1,8,
{8}4,4,5,3,7,7,1,8,
{4}2/6,3/7,4/8-4[8:1],2-7[8:1],
{8}6-3[8:1],,1,,2,2,8,1,
{8}5,5,4,6,2,2,8,,
{8}4/6,,7,5/7,,8,5/8,,
{8}3/6,,1/4,,3/5,,2,2/4,
{8},1,1/4,,3/6,,5/8,,
{8}7,7,4,6,1,1,5,3,
{8}8,8,4,,5/7,,1/8,,
{8}2/4,,4/5,,6,5,4,3,
{8}3/5,,,,,4/7,,,
{8},1/8,,,,,2/5,,
{8}4/5,,4/7,,3,3,5,5,
{8}4,6,3,3,5,4,5,3/6,
{1}3-8[8:1]/6-1[8:1],
{1},
{1},
{1},
E
&inote_5=
(205){1},
{1},
{8}5/6h[4:1],,5,,5/7<5[4:1],5,,4,
{8},3,3,,2/4,,3,,
{8}3h[4:1]/4,,4,,2>4[4:1]/4,4,,5,
{8},6,6,,5/7,,7,,
{8}5/6h[4:1],,5,,5/7<5[4:1],5,,4,
{8},3,3,,2/4,,1,,
{8}2/4,,3,3,4/5,,6,6,
{8}4/7,8,8,2/7,1,1,3b/6b,,
{8}2-4[8:1],4,4,,2-5[8:1],5,5,,
{8}2-6[8:1],6,6,,7,7,6,,
{8}5/7,,7-5[8:1],5,5,,7-4[8:1],4,
{8}4,,7-3[8:1],3,3,,2,2,
{8}3,,2/4,,1-7[8:1],7,7,,
{8}1-6[8:1],6,6,,1-5[8:1],5,5,,
{4}6<1[8:1],2-5[8:1],7-4[8:1],3>8[8:1],
{4}5,3-6[8:1]/7-2[8:1],,4b/8b,
{8}B3/E4,E6/B6,B2/E3,B7/E7,1h[8:3],,,B1/E2,
{8},B4/E4,,7,7/8,,3/5,,
{8}B7/E8,B1/E2,C1,B3/E4,B5/E6,C1f,,,
{8}8,1,6,3,7,2,3/5,,
{24}6,,5,,7,,3,,4,,2,,6h[8:3],,,4,,,4,,,B5/E6,,,
{8},B8/E8,,2h[4:1],,C1,,4h[2:1]/8h[2:1],
{12},,,,,,7,6,5,1,2,3,
{12}E8,E7,E6,E2,E3,E4,1,8,7,2,3,4,
{8}5h[8:3]/8,,,6,5,6,4,B8/E8,
{8},B5/E6,,2,1/2,,2/4,,
{8}4/7,6,1,3,2/5,4,8,6,
{8}2-5[8:1],2,8-4[8:1],8,1w5[8:1],,1b,,
{16}2-4[16:3],,,4-6[16:3],,,7,,7,,,,7-5[16:3],,,5-3[16:3],
{16},,2,,2,,,,1-3[16:3],,,3-5[16:3],,,6,,
{4}6qq1[8:5],4,3,2,
{16}2-4[16:3],,,4-8[16:3],,,7,,7,,,,7-5[16:3],,,5-1[16:3],
{16},,2,,2,,,,3-1[16:3],,,1-5[16:3],,,8,,
{12}8,,,7,5,6,2,4,3,6,,,
{16}7<5[16:3],,,5>3[16:3],,,2,,2,,,,2>4[16:3],,,4<6[16:3],
{16},,7,,7,,,,8<6[16:3],,,6>4[16:3],,,3,,
{4}3pp8[8:5],5,6,7,
{16}7<5[16:3],,,5-1[16:3],,,2,,2,,,,2>4[16:3],,,4-8[16:3],
{16},,7,,7,,,,7h[16:3],,,4h[16:3],,,5,,
{16}2/6,,,,3,4,3,4,2,4,2,4,1-6[8:1],,,,
{4}1b/6b,5,5,5,
{8}5,,5,,5,3h[8:3],5,,
{4}5,2h[4:3]/5,5,5,
{16}5,,,,5,,2,3,4h[4:1]/5,,,,5,,,,
{4}4/6bpp1[2:3],4,4,4,
{4}3,3,2,2,
{16}2,4,3,4,,,7,5,6,5,,,1/8h[16:3],,,1,
{24}2,,3,,4,,1,,2,,3,,8b,1,2,3,4,5,6v1[8:1],7,8,1,2,3,
{16}4b/6b,,,,,,7,8,7,,1/6,,3h[16:3]/5,,,4,
{8}3,1/2,3h[4:1]/8,,7-4[8:1],8,7,2-4[8:1],
{24}1,,,2,,,7,,5,,6,,2,,4,,3,,8pp4[8:3],,1,,6,,
{16}8,,,,,,7,,7,,3/8,,4/6h[16:3],,,5,
{16}6,,7/8,,1/6,,2/5,,3,4,3,4,2,5,2,5,
{16}1,6,1,6,2,1,2,1,3,8,3,8,4,7,4,7,
{16}4<2[8:3],,,,,,8h[4:1],,,,,,8h[16:3],,,2h[16:3],
{8},4,3-7[8:1]/4,,5>7[8:3],,1,1h[4:1],
{16},,,,1h[16:3],,,7h[16:3],,,5,,5/6<1[8:1],,,,
{16}2b,3,4,5,6,7,8,1,7b,6,5,4,2b,1,8,7,
{16}6,5,4,3,8b,7,6,5,1h[2:1]/4b,,,,5,,5,,
{16}6,,6,,5/7,,,,1,8,3,6,2,7,4,5,
{8}2b/7b,,,,,2,2,4,
{8}3,2h[2:1]/4h[2:1],,,,,2,2,
{8}4,3,2h[2:1]/4h[2:1],,,,,2,
{8}2,4,3,2h[2:1]/4h[2:1],,,,,
{8}3/5,5,4/6,4,5/7h[2:1],,5,,
{8}5,7,7,5,6,5/7h[2:1],,5,
{8},5,7,7,5,6,5/7h[2:1],,
{16}5,,,,5,,4/5,,,,2b/7b,,,,1,2,
{16}3,4/5,6,7,1,2,3,4/5,6,7,1,2,3,4/5,6,7,
{8}1b-5[8:1]/8b,,1,7-4[8:1],,7,8,1,
{8}2>5[8:1],1,2,8-4[8:1],,8,2-5[8:1],,
{8}2/6<4[4:1],,2h[4:1]/6,,,1,1-4[8:1],,
{16}1/8,,,,8,7,6,5,1,2,3,4,1,8,7,6,
{8}1/5,,6-1[8:1],5,6,3>5[4:1],,3/8h[4:1],
{8},,7,7-2[8:1]*-4[8:1],,7,,1V36[4:1]/5V72[4:1],
{8},,,,4/8,3-8[8:1]/7-4[8:1],,3b/7b,
{16},,1,,1,,6,5,6,,7,,4/8,,,,
{8}6,6h[4:1],8,8h[4:1],1,1h[4:1],3,3,
{12}7,5,6,2,4,3,8,6,7,1,3,2,
{8}8,8h[4:1],6,6h[4:1],4,4h[4:1],1,1h[24:5],
{12},8,8,2,4,3,7,5,6,1/5,,,
{8}3/5,3,3,5/7,7,7,2/4,2,
{8}2,1/8,8,8,1/2-5[8:1],2,8b-4[8:1],8,
{8}1b-5[8:1],1,7b-4[8:1],7,2b,2,1b-5[8:1]/8b-4[8:1],,
{24}1b>4[8:1]/8b<5[8:1],,,,,,1b/8b,,,,,,8,7,6,,1h[6:1],,7,6,5,,1h[6:1],,
{24}6,5,4,,1h[6:1],,5,4,3,,1,,1bq3[4:11]/3b<2[4:11],,,,,,,,,,,,
{1},
{1},
{1},
{1},
{24}4,,,3h[4:1]/5,,,,,,6,,,5/7h[4:1],,,,,,3,,4,,2,,
{48}6,,,,5,,,,7,,,,3,,,,,,,,,,,,7-5[16:3],,,,,,,,,5-3[16:3],,,,,,,,,2,,,,,,
{16}2h[4:1],,,,7-5[16:3],,,5-3[16:3],,,2,,2,,,,
{16}2-4[16:3],,,4-6[16:3],,,7,,7qq1[8:5],,,,4,,,,
{16}3,,,,2,,,,2-4[16:3],,,4-6[16:3],,,7,,
{16}7h[4:1],,,,3-1[16:3],,,1-7[16:3],,,6,,6,,,,
{12}3,4,3,6,5,6,2,4,3,5/7,,1,
{24}8,,2,,1,,3/8,,,,,,1b/5b,,,1b/5b,,,,,,3b/7b,,,
{32}3b/7b,,,,,,,,2,3,4,5,6,7,8,1,2,3,4,5,6,7,8,1,2b/6b,,,,,,,,
{4}2/8,6/8<5[8:1],2/8>3[8:1],6/8-5[8:1],
{8}2/8-3[8:1],,6/8<2[4:1],,2/8,,1,1-5[8:1],
{16},,1,,8<5[8:1],,,,4,3,2,1,8,7,6,5,
{4}4/8,2/4>1[8:1],4<7[8:1]/6,2/4-1[8:1],
{8}4-7[8:1]/6,,2/4>6[4:1],,4/6,,5,5-1[8:1],
{8},5,2qq5[2:1],,2/6h[4:1],,,,
{24}8,,,8,,,1/7,,,1,,,2/6,,,2,,,6,,4,,6,,
{24}2,,4,,2,,1/7,,,,,,1,,,1,,,2/8,,,8,,,
{24}3/7,,,7,,,3,,5,,3,,7,,5,,7,,2/8,,,,,,
{12}1/6b,2,3,4/7b,3,2,1/6b,2,3,4/7b,6,5,
{12}1b/4,5,6,2b>1[8:3]/7,6,5,2b/4h[4:1],,,,,,
{4}7<1[8:3],3h[4:1]/7b,,3v8[8:1]/7-4[8:1],
{16}3b/7b,,,,,,2,1,2,,3/8,,4/6h[16:3],,,5,
{8}6,7/8,1/6h[4:1],,2-5[8:1],1,2,7-1[8:1],
{24}8,,,7,,,2,,4,,3,,7,,5,,6,,1qq5[8:3],,8,,3,,
{16}1,,,,,,2,,2,,1/6,,3h[16:3]/5,,,4,
{16}3,,1/2,,3/8,,4/7,,6,5,6,5,7,4,7,4,
{16}8,3,8,3,7,8,7,8,6,1,6,1,5,2,5,2,
{16}5>7[8:3],,,,2,,1h[8:1],,,,2,,2h[16:3],,,7h[16:3],
{8},5,5/6-2[8:1],,4<2[8:3],4,8,8h[8:1],
{16},,7,,7h[16:3],,,2h[16:3],,,4,,3>8[8:1]/4,,,,
{16}7b,6,5,4,3,2,1,8,2b/7b,3,4,5,7b,8,1,2,
{16}3,4,5,6,1b/7b,2,3,4,5b/8h[2:1],,,,4,,4,,
{32}3,,,,3,,,,2/8,,7,,6,,5,,2b,3,4,5,6,7,8,1,2b/6b,,,,,,,,
{8}5/7,6,6,6,6,2/4,3,3,
{32}3,,,,2/8,,,,1,,,,1,,,,1,,,,1,,,,7/8,6,5,4,,,,,
{32}1/2,3,4,5,,,,,6/8,,,,7,,,,7,,,,7,,,,7,,,,2/4,,,,
{8}3,3,3,1/7,8,8,8,8,
{32}1b/2b,3,4,5,,,,,7b/8b,1/6,2/5,3/4,,,,,,,,,,,,,,,,,,,,,
{1},
{1},
{1},
E
