&title=Stardust Memories
&wholebpm=180
&artist=Maozon
&des=シチミヘルツ
&shortid=11091
&genre=maimai
&cabinet=DX
&version=maimai DX PLUS
&chartconverter=Neskol
&lv_2=4
&des_2=
&lv_3=7+
&des_3=
&lv_4=10+
&des_4=華火職人
&lv_5=13
&des_5=シチミヘルツ
&des_6=
&inote_2=
(180){1},
{1},
{1},
{1},
{1},
{1},
{1},
{1},
{1},
{1}1h[1:1],
{1},
{1}8h[1:1],
{1},
{2}1,1,
{2}8,8,
{1}1b/8b,
{1},
{1}B2,
{1}B3,
{1}B4,
{1}B3/B5,
{1}B6,
{1}B7,
{1}B8,
{1}B1/B7,
{1}B8,
{1}B7,
{1}B6,
{1}B5/B7,
{1}B3/B4,
{1}B5/B6,
{1}C1hf[1:1],
{1},
{1}1,
{1}2,
{1}3,
{1}4,
{1}5,
{1}6,
{1}7,
{1}1/8,
{2}7,7,
{1}7,
{2}6,6,
{1}6,
{2}5,5,
{2}4,4,
{1}4h[1:1]/5h[1:1],
{1},
{1},
{1}5x-2[4:3]/6x-1[4:3],
{1},
{1}3x-8[4:3]/4x-7[4:3],
{1},
{1}1x-6[4:3]/2x-5[4:3],
{1},
{1}7x-4[4:3]/8x-3[4:3],
{1},
{2}3,3,
{2}4,4,
{2}5,5,
{2}6,6,
{4}7,7,7,,
{4}8,8,8,,
{4}1,1,1,,
{1}2b,
{1}1h[2:1],
{2}1,1/2,
{1}8h[2:1],
{2}8,7/8,
{4}7,7,7,,
{4}6,6,6,,
{4}5,5,5,,
{4}4,4,4,,
{1}5h[2:1],
{2}5,5/6,
{1}4h[2:1],
{2}4,3/4,
{4}2,2,2,,
{4}1,1,1,,
{4}8,8,8,,
{4}1,1,1h[1:1]/8h[1:1],,
{1},
{1}B7,
{1}B6,
{1}B5,
{1}B4/B6,
{1}B3,
{1}B2,
{1}B1,
{1}B2/B8,
{1}B1,
{1}B2,
{1}B3,
{1}B2/B4,
{1}B5/B6,
{1}B3/B4,
{1}4-1[4:3]/5-8[4:3],
{1},
{1}2x/7x,
{1},
{1},
{1},
E
&inote_3=
(180){1},
{1}3h[1:2],
{1},
{1}4h[1:2],
{1},
{1}5h[1:2],
{1},
{1}6h[2:3],
{2},5,
{2}4h[2:1],5,
{4}3,3,4,,
{2}4h[2:1],5,
{4}6,6,5,,
{4}3,3,2,,
{4}8,8,1,,
{1}2h[8:11]/7h[8:11],
{1},
{1}3b<6[4:3],
{2},7x,
{1}8-4[4:3],
{2},3/5,
{1}2b>5[4:3],
{2},6,
{1}7-2[4:3]*-4[4:3],
{4},,3,3,
{1}2b>6[4:3],
{2},7/8,
{1}6<2[4:3],
{2},3x/4x,
{1}4-1[4:3]/5-8[4:3],
{2},2/7,
{1}1-5[4:3]/8-4[4:3],
{2},3x/6x,
{2}7h[2:1],6h[2:1],
{2}5,4/5,
{2}2h[2:1],3h[2:1],
{2}4,2/5,
{2}3h[2:1],2h[2:1],
{2}1,1/8,
{2}6h[2:1],7h[2:1],
{2}8,1x/7x,
{2}2h[2:1],3h[2:1],
{2}4h[2:1],5h[2:1],
{2}6h[2:1],7h[2:1],
{2}8,1/8,
{1}2h[2:1]/4h[2:1],
{1}5h[2:1]/6h[2:1],
{1}C1hf[8:7],
{1},
{1},
{1}C1f/B6/B7,
{1},
{1}C1f/B4/B5,
{1},
{1}C1f/B2/B3,
{1},
{1}B1/C1f/B8,
{2},1x/8x,
{4}2,2,3h[2:1],,
{2}4,3/5,
{4}6,6,7h[2:1],,
{2}8,1/7,
{4}8,8,7,7,
{4}6,6,4/5,,
{4}2/4,2/4,5/7,5/7,
{1}1b/8b,
{2}2h[2:1]/7,3h[2:1],
{4}4,4,5,6,
{4}7h[4:1],8,2h[4:1],1,
{4}1/8,2/7,3x/6x,,
{4}1,2,3/4,3/4,
{4}5,6,4/7,4/7,
{4}8,1,2/4,2/4,
{2}4h[4:1]/5h[4:1],3x/6x,
{2}2/7h[2:1],6h[2:1],
{4}5,5,4,3,
{4}2h[4:1],1,7h[4:1],8,
{4}1/8,2/7,3x/6x,,
{4}4,3,1/2,1/2,
{4}7/8,1/6,2x/5x,,
{1}C1hf[8:11],
{1},
{1},
{1}1b-4[4:3]/7b-4[4:3],
{2},3x/5x,
{1}4-1[4:3]/6-1[4:3],
{2},2x/8x,
{1}1b-4[4:3]*-6[4:3],
{2},5x,
{2}5h[4:1]/6h[4:1],4/7,
{2}3h[4:1]/4h[4:1],2x/5x,
{1}1b-5[4:3]/2b>5[4:3],
{4},,6x,6x,
{1}7<4[4:3]/8-4[4:3],
{2},3x/5x,
{1}4>5[4:5],
{1},
{1}4h[1:2],
{1}C1xh[1:1],
{1},
{1},
{1},
E
&inote_4=
(180){1},
{1}2>8[2:3],
{1},
{1}7<1[2:3],
{1},
{1}3>5[2:3],
{1},
{1}6<4[2:3],
{1},
{8}4/5,,6,6h[4:1],,,,4/5,
{8},3,3h[4:1],,,,4/5,,
{8}5/6,,7,7h[4:1],,,,1/8,
{8},2,2h[4:1],,,,1/8,,
{4}B1,B2,B3,B4,
{4}B5,B6,B7,B8,
{1}C1hf[8:11],
{1},
{16}1b/8b,,,,,,,,3x/4x,,,3x/4x,,,2x/5x,,
{8},1,1,,6,6,,,
{16}2b/8b,,,,,,,,3x/4x,,,3x/4x,,,2x/5x,,
{8},6,6q3[4:1],,,,,,
{16}1b/8b,,,,,,,,5x/6x,,,5x/6x,,,4x/7x,,
{8},8,8,,3,3,,,
{16}2b/8b,,,,,,,,5x/6x,,,5x/6xh[16:13],,,,,
{4}8x-4[4:1],,,8b,
{16}1b/7b,,,,,,,,3x/4x,,,2x/4x,,,1x/4x,,
{8},6,4/6,,3,3/5,,,
{16}1b/7b,,,,,,,,5x/6x,,,5x/7x,,,5z1[8:3]/8x,,
{4},,,2b/7b,
{8}1/8,,2,2h[4:1],,,,1/8,
{8},7,7h[4:1],,,,1/8,,
{1}2qq7[8:9]/6qq3[8:9],
{4},,,2/6,
{8}4h[2:1]/5,,,,C1,,,3h[8:5]/4,
{2},C1,
{8}4/6h[2:1],,,,C1,,,5/7h[8:5],
{2},C1,
{8}3h[2:1]/5,,,,C1/B7,,,2h[8:5]/4,
{2},C1/B7,
{8}5/6h[2:1],,,,C1/B2,,,5/7h[2:1],
{8},,,C1/B2,,,,,
{8}1/8,,7,,5/6,,,1/8,
{8},6,6,,C1/B2,,,,
{8}1/8,,2,,3/4,,,1/8,
{8},3,3,,C1/B7,,,,
{8}1/8,,7,,5/6,,3/8,3/8,
{4},6,C1/B2,,
{8}1/8,,2,,3/4,,1/6,6q3[8:5],
{1},
{1}C1xh[2:17],
{1}7x<1[4:5],
{1},
{1}1xq8[1:1],
{16},,,,,,,,8x,,,8x,,,8x,,
{1}8xV24[4:5],
{1},
{1}4xp5[4:5],
{1},
{4}6,5/6,4/7,4/6,
{4}3,3/4,2/5,3/5,
{4}4/6,7,3/5,2,
{4}3/4,5/6,2/4,5/7,
{8}2,2,4,,7,7,5,,
{8}2,2,4,4,5,5,7,,
{8}1/8,1/8,2/7,2/7,3/6,3/6,4/5,,
{1}C1f,
{8}3b>8[8:3]/7bV53[8:3],,,,,,,2b/6b,
{8},7/8,7<2[16:5]/8p1[16:5],,,,,,
{16}2x/4x,,,4x/5x,,,5x/7-2[8:1],,,,,,,,3h[4:1],,
{8},1,1,8h[4:1],,1b,1b,,
{8}5/7,,1/8,1/8,,3/4,3/4,2h[4:1],
{8},1h[4:1],,8h[4:1],,7,7,,
{8}4/5,,3,4,2,6,5,7h[4:1],
{8},8,,2h[4:1],,1,1b/2b,,
{8}2bV46[8:3]/6b<1[8:3],,,,,,,3b/7b,
{8},1/2,1q8[16:5]/2>7[16:5],,,,,,
{16}5x/7x,,,4x/5x,,,2-7[8:1]/4x,,,,,,,,6h[4:1],,
{8},8,8,1h[4:1],,8b,8b,,
{8}4/5,,1/2,1/2,,7,7,7/8,
{8},5/6,5/6,,3,3,2/4,,
{8}1xh[4:1]/7xh[4:1],,,,2xh[4:1]/8xh[4:1],,,1xh[4:1]/6xh[4:1],
{8},,,3x>4[8:9]/8xh[8:11],,,,,
{1},
{16}4x/5x,,,3x/6x,,,2x/7x,,2V48[8:3]/7V51[8:3],,,,,,,,
{4},2-4[8:1]/7-5[8:1],,,
{16}3b/7b,,,,,,,,5x/6x,,,4x/7x,,,3xV51[4:1]/8x,,
{4},,B7,C1,
{16}1x/8x,,,2x/7x,,,3x/6x,,3V15[8:3]/6V84[8:3],,,,,,,,
{4},3-1[8:1]/6-8[8:1],,,
{16}2b/6b,,,,,,,,3x/4x,,,3x/4x,,,,,
{4}B7/B8/E8,B1/B2/E2,C1f,,
{16}7x/8x,,,1x/6x,,,2x/5x,,2V84[8:3]/5V73[8:3],,,,,,,,
{4},2-8[8:1]/5-7[8:1],,,
{16}2b/6b,,,,,,,,1x/2x,,,3x/8x,,,4x/7xV15[8:3],,
{1},
{2}1/2h[2:1],C1,
{2}7h[2:1]/8,C1,
{1}2b>7[1:2]/7b,
{1},
{1},
{1},
{1},
E
&inote_5=
(180){1},
{1}7p4[4:7],
{1},
{1}2q5[4:7],
{1},
{1}6q8[8:13],
{1},
{1}1w5[4:3],
{8},,,3x/7x,,,,,
{4}4/6h[2:3],E2,E4,C1,
{4}E6,E8,C1,1x/8x,
{4}3h[2:3]/6,E8,E6,C1,
{4}E4,E2,C1,2x/7x,
{8}E2,E3,E4,E5,E6,E7,E8,E1,
{8}E4,E3,E2,E1,E8,E7,E6,E5,
{1}C1f/B2/B3/B6/B7,
{8},,,1h[4:1]/8h[4:1],,,2z6[8:3]/7s3[8:3],,
{16},,,,,,,,2h[8:1]/4h[8:1],,,3h[8:1]/5h[8:1],,,4/6h[4:1],,
{8},5,4h[4:1]/7,,6,5/7,,,
{16}5v3[8:1]/6v3[8:1],,,,,,,,2h[8:1]/4h[8:1],,,1h[8:1]/3h[8:1],,,2h[4:1]/4,,
{8},3,2/4,,1/2,,3z7[8:3]/8s4[8:3],,
{16},,,,,,,,5h[8:1]/7h[8:1],,,4h[8:1]/6h[8:1],,,3h[4:1]/5,,
{8},4,2/5h[4:1],,3,2/4,,,
{16}3v6[8:1]/4v6[8:1],,,,,,,,5h[8:1]/7h[8:1],,,4b/8b,,,,,
{8}5/6,7,3/4,2,1/8,7,1z5[8:3]/6s2[8:3],,
{16},,,,,,,,2h[8:1]/4h[8:1],,,3h[8:1]/5h[8:1],,,4/6h[4:1],,
{8},5,4h[4:1]/7,,6,5/7,,,
{16}6q3[8:1]/7q3[8:1],,,,,,,,2h[8:1]/4h[8:1],,,1h[8:1]/3h[8:1],,,2/4,,
{16},,2/7,,1,8,2,7,1w5[8:1],,,,,,,,
{8}3h[8:3],4,5,6h[8:3],5,4,3,2h[8:7]/5,
{8},4,3,4,5,6,7,3/8h[8:7],
{8},4,5,6,7,6,5,4h[4:1]/7,
{8},5,3/6,2/7h[4:1],,1,2b/6b,,
{8}1>6[8:5],,,,B2/B3,,,8,
{8},8,8<5[8:3],,B6/B7,,,,
{8}1>6[8:5],,,,B2/B3,,,8,
{8},8,8<5[8:3],,B6/B7,,,,
{8}4>7[8:5],,,,B3/B4,,,5,
{8},5,5<8[8:3],,B5/B6,,,,
{8}4>7[8:5],,,,B3/B4,,,5h[8:3],
{8},,4,4/5,,,2x/7x,,
{8}4/8,8,2/8<3[8:3],,B6/B7,,,1,
{8},1,1>4[4:1],,B2/B3,,8,,
{8}5/8,8,2/8<3[8:3],,B6/B7,,,1,
{8},1,1>4[4:1],,B2/B3,,8,,
{8}4/8,4,4>7[8:3]/6,,B2/B3,,,5,
{8},5,5<8[4:1],,B6/B7,,4,,
{8}1/4,4,4>7[8:3]/7,,B2/B3,,,6>6[8:11]*<6[8:11],
{1},
{1},
{1}C1f/2V84[4:5]*V48[4:5],
{1},
{1}C1f/7-5[2:1]*V15[4:5],
{16},,,,,,,,6h[8:1],,,6h[8:1],,,5/7,,
{1}C1f/3>7[1:1]*<7[1:1],
{2},6h[16:3],
{1}C1f/7<5[16:5]*>5[16:15],
{16}7x,8x,1x,2x,3x,4x,5x,6x,3x,2x,1x,8x,7x,6x,5x,4x,
{8}3x/7b,,5/7,6,4/5,3,2/4h[4:1],,
{8}2,3,4/5,6,5/7,8,1/7,,
{8}4/5,,2/4,3,4/5,6,5h[4:1]/7,,
{8}7,6,4/5,3,2/4,1/8,2b/7b,,
{8}7/8,7/8,1/6,1/6,2/5,2/5,3/4,3/4,
{8}1/2,1/2,3/8,3/8,4/7,4/7,5/6,5/6,
{16}7,8,6,1,5,2,4,3,1,2,8,3,7-3[8:1],4,6,5,
{4}7b,,,2-5[8:1]/6pp4[2:1],
{8}2/6,,,,1,1>7[8:3],,1x/6xh[8:3],
{16},,,,,,,,1h[8:1]/5h[8:1],,,3h[8:1]/7h[8:1],,,4/8,,
{16}2h[8:1]/5h[8:1],,,4h[8:1]/7h[8:1],,,1/5V74[4:1],,,,4V61[8:3],,3,,2-6[8:1],,
{16},,2x,,,,4b/8b,,,,,,3,4,3,,
{8}1/6,2,3,4/8,7,6,2/5,3,
{8}4-8[8:1],4,7-3[8:1],7,1-5[8:1],1,8,8,
{8}1/2,3,4/5,6,7/8,1,2/8,3-8[8:1]/7-4[8:1],
{8},3/7,,2b/6b,,,3qq5[2:1]/7-4[8:1],,
{8}3/7,,,,8,8<2[8:3],,3xh[8:3]/8x,
{16},,,,,,,,4h[8:1]/8h[8:1],,,2h[8:1]/6h[8:1],,,1/5,,
{16}4h[8:1]/7h[8:1],,,2h[8:1]/5h[8:1],,,4V25[4:1]/8,,,,5V38[8:3],,6,,7-3[8:1],,
{16},,7x,,,,1b/5b,,,,,,6,5,6,,
{8}3/8,7,6,1/5,2,3,4/7,6,
{8}5-1[8:1],5,2-6[8:1],2,8-4[8:1],8,1,1,
{8}2b/6b,3,4/8,7,1b/6b,2/7,3/8,1bw5[8:1]/5b,
{8},,,C1f/B3/E3/E4/B7/E7/E8,,,,,
{4},,,3x/6x,
{8}4s8[4:1]/8,,,,6h[8:5],,,5,
{8},5,4/7h[4:1],,6,5/8,,,
{16}5v3[8:1]/7p3[8:1],,,,,,,,2h[8:1]/4h[8:1],,,1h[8:1]/3h[8:1],,,2h[4:1]/4,,
{8},3,1/4,,2/8,,3/7,,
{8}1/5z1[4:1],,,,3h[8:5],,,4,
{8},4,2h[4:1]/5,,3,1/4,,,
{16}2q6[8:1]/4v6[8:1],,,,,,,,5h[8:1]/7h[8:1],,,4b/8b,,,,,
{8}3/4,2,5/6,7,3/8,2/7,1/6,,
{8}4s8[4:1]/8,,,,6h[8:5],,,5,
{8},5,4/7h[4:1],,6,5/8,,,
{16}5v3[8:1]/7V53[8:1],,,,,,,,2h[8:1]/4h[8:1],,,1h[8:1]/3h[8:1],,,2/4h[4:1],,
{16},,2,,1h[4:1]/3,,,,4,5,6,7,1z5[4:1]/8,2,3,4,
{2}1/5,1h[8:5],
{8},7,6/8,4,2,1/3,4/5,1/7,
{1}2h[4:3]/6h[4:5],
{16}2x,1,8,7,,5,4,3,7x,8,1,2,3,4,5,6,
{1}3b>4[4:11]/7h[1:3],
{1},
{1},
{1},
{1},
{1},
E
