&title=Oath Act
&wholebpm=172
&artist=暁Records
&des=隅田川星人
&shortid=11136
&genre=東方Project
&cabinet=DX
&version=maimai DX PLUS
&chartconverter=Neskol
&lv_2=3
&des_2=
&lv_3=6
&des_3=
&lv_4=9+
&des_4=サファ太
&lv_5=12
&des_5=隅田川星人
&des_6=
&inote_2=
(172){1},
{1},
{1},
{1},
{1},
{1},
{1},
{1},
{1},
{1},
{1}1,
{1}1,
{1}2h[1:1],
{1},
{1}3,
{1}3,
{2}4,4,
{1}4/5,
{1}5h[1:1],
{1},
{1}4h[1:1],
{1},
{1}5,
{1}5,
{1}6,
{1}6,
{1}7,
{1}7,
{1}8,
{1}8,
{1}1,
{1}1,
{1}8,
{1}1x/8x,
{1}B7,
{1}B6,
{1}B5,
{1}B4,
{1}B3,
{1}B2,
{1}B1/B8,
{1}C1hf[1:1],
{1},
{2}8,8,
{4}1,1,1,,
{2}2,2,
{1}2h[2:1],
{2}3,3,
{4}4,4,4,,
{4}5,5,5,,
{1}4x/5x,
{2}4,4,
{4}5,5,5,,
{2}6,6,
{1}6h[2:1],
{2}7,7,
{4}8,8,8,,
{4}1,1,1,,
{1}1b/8b,
{1}8-4[4:3],
{1},
{1}1-5[4:3],
{1},
{1}7-4[4:3],
{1},
{1}2-5[4:3],
{1},
{2}6,6,
{1}5/6,
{2}3,3,
{1}3/4,
{1}B5,
{1}B4,
{1}B6,
{1}B3,
{1}B2/B7,
{1}C1hf[1:1],
{1},
{1}1h[1:2],
{1},
{1},
{1},
{1}8h[1:1],
{1},
{2}1/8,1/8,
{1}1b/8b,
{2}1,1,
{4}8,8,8,,
{2}7,7,
{1}7h[2:1],
{2}6,6,
{4}5,5,5,,
{4}4,4,4,,
{1}4b/5b,
{2}4/5,4/5,
{1}3h[4:3]/6h[4:3],
{1},
{1},
{1},
E
&inote_3=
(172){1},
{1},
{1}3xh[1:2],
{1},
{1}5h[1:2],
{1},
{2}3,3,
{2}2,2,
{2}1,1,
{4}1/8,1/8,2b/7b,,
{4}2,2,1/2,,
{4}7,7,7/8,,
{4}2,2,1/2,,
{4}8,8,1/7,,
{4}6,6,5/6,,
{4}3,3,3/4,,
{4}5,5,4,4,
{4}4x/5x,4x/5x,3x/6x,,
{1}2>6[8:9],
{1},
{1}8<4[8:9],
{1},
{4}3,3,4,,
{4}6,6,5,,
{4}3,3,4,4,
{4}5,5,4/6,,
{1}7-3[8:3],
{1}2-6[8:3],
{1}8-5[8:3],
{1}4-1[8:3],
{4}7,7,8,,
{4}2,2,1,,
{4}7,7,8,8,
{4}1x/8x,1x/8x,2x/7x,,
{2}B2,B3,
{2}B4,B5,
{2}B6,B7,
{1}C1,
{2}2x,1/2,
{2}7,7/8,
{4}2,2,1/2,,
{4}7,7,7/8,,
{4}1/8,1/8,2b/7b,,
{4}2,2,1,1,
{4}8,8,1/7,,
{4}6,6,5,5,
{4}4,4,3/5,,
{4}2,2,1,1,
{4}8,8,2/7,,
{4}2,1/2,7,7/8,
{4}1,1/8,2/7,,
{4}7,7,8,8,
{4}1,1,2/8,,
{4}3,3,4,4,
{4}5,5,4/6,,
{4}7,7,8,8,
{4}1,1,2,2,
{1}3-8[8:3]/5,
{1}1xh[2:1]/8xh[2:1],
{1}2>7[1:1],
{1},
{1}7<2[1:1],
{1},
{1}1>4[8:3],
{1}5<8[8:3],
{1}1>4[8:3],
{1}5xh[2:1],
{1}4-1[8:3],
{1}8-4[8:3],
{1}2-6[8:3],
{1}7<4[8:3],
{2}3,2,
{2}1,8,
{4}7,7,7/8,,
{4}2,2,1/2,,
{4}7,7,7/8,,
{4}1,1,8,8,
{1}2/7,
{1}C1xh[1:3],
{1},
{1},
{1},
{2}2/7,3/6,
{2}2/7,1/8,
{4}7,7/8,2,1/2,
{4}8,1,2/7,,
{4}2,2,1/2,1/2,
{4}3,3,2/4,,
{4}6,6,5/6,5/6,
{4}7,7,6/8,,
{4}2,2,1/2,1/2,
{4}3x,4x,5x,6x,
{2}5x/7x,2x/4x,
{1}3x/6x,
{1}4-8[8:3]/5-1[8:3],
{1}1-5[8:3]/8-4[8:3],
{1}3x/6x,
{1},
{1},
{1},
E
&inote_4=
(172){1},
{1},
{1}C1xh[1:3]/B2/B3/B6/B7,
{1},
{1},
{1},
{4}3,3,4,4,
{4}5,5,6,6,
{4}3h[4:1],4,6h[4:1],5-1[4:1],
{2},2b/8b,
{4}3,4,3,2/5,
{4}6,5,6,4/7,
{4}2,1,2,3>6[2:1]/8,
{4},,,1/8,
{2}2h[4:1]/4h[4:1],5h[4:1]/7h[4:1],
{4}2/4,4/5,5x/7x,5x/7x,
{4}8,1/7,6,5/6q3[2:1],
{4},,,4/5,
{1}2h[2:3]/7b,
{2}3,4,
{1}5<8[2:1],
{4}1h[2:1],,8,2/7,
{8}3/4,,2/5,,4,4,5,,
{8}5/6,,4/7,,5,5,4,,
{4}3,2/4,6,5/7,
{4}4h[4:1]/6h[4:1],,3/5,4/5,
{4}6,5/6,3,3/4,
{4}6h[4:3],5,7,5,
{4}3,3/4,6,5/6,
{4}2h[2:1],1,1,8b,
{8}5/7,,5/6,,3,3,4,,
{8}2/4,,3/4,,6,6,5,,
{8}3h[4:1]/4h[4:1],,,3/4,,1p5[8:3]*q5[8:3]/2,,,
{4},,7x,7x,
{4}5h[2:1]/6,,E6,E7,
{4}E8,E1,E2/E3,,
{4}3h[2:1]/4,,E4,E6,
{1}C1xh[2:1]/B2/B7,
{2}1h[4:1]/2h[4:1],7h[4:1]/8h[4:1],
{4}E1,C1,E4/E6,,
{8}1/8,,2/4,2/4,,5/6<3[4:3],,4b,
{1},
{8}4,5,4,,2b/7b,,,,
{2}1/2-5[8:1],7-4[8:1]/8,
{16}2h[16:3],,,3h[16:3],,,4,,4/5,,,,6,,6,,
{16}5,,,,4/7,,,,6h[16:3],,,7h[16:3],,,8,,
{4}1/8,1/8,3b/6b,,
{2}7-4[8:1]/8,1/2-5[8:1],
{16}7h[16:3],,,6h[16:3],,,5,,4x/5x,,,,2x/7x,,,,
{4}3h[4:1]/4,1,7h[4:1]/8,5,
{16}2x/8x,,,1x/7x,,,2x/6x,,,,4,,4/5,,,,
{2}5/6-1[8:1],3-8[8:1]/4,
{16}6h[16:3],,,7h[16:3],,,8,,1/8,,,,2,,2,,
{16}1,,,,3/8,,,,2h[16:3],,,3h[16:3],,,4,,
{4}4/5,4/5,2b/7b,,
{2}3-8[8:1]/4,5/6-1[8:1],
{16}3h[16:3],,,2h[16:3],,,1,,1/8,,,,2/7,,,,
{16}3/5,,,,4/6,,,,3h[16:3],,,4,,,2/5,,
{2}2-6[8:1]/5,1b/7b,
{4}3h[8:3]/4h[8:3],,3/4,2>5[8:3]/5,
{2},B7/B8,
{4}5h[8:3]/6h[8:3],,5/6,4q1[8:3]/7,
{4},,8x,8x,
{8}7h[2:1],,,5,5,,4/6,,
{8}2h[2:1],,,4,4,,3/5,,
{8}4h[4:1]/6h[4:1],,,3h[4:1]/5h[4:1],,,2x/6x,,
{8}3,,4/5,,6,5,6,,
{8}7h[2:1],,,8,8,,1/6<1[8:3],,
{2},B3/B4,
{8}2h[2:1],,,1,1,,3/8,,
{8}4h[4:1]/6h[4:1],,,4/6,,2,2b/8b,,
{16}7h[16:3],,,5h[16:5],,,6,,6,,,,4/5,,,,
{16}3h[16:3],,,4h[16:5],,,2,,2,,,,1/8,,,,
{4}7h[4:3],8,6,5,
{4}3h[4:3],4,2,1,
{8}1/8,,5/7,5/7,,2<5[4:3]/4,,8b,
{1},
{8}1,8,1,,3x/6x,,,,
{1}4h[1:1]/5h[1:3],
{2},3,
{1}4h[1:2],
{2},6,
{2}6,3/5,
{16}1x/8x,,,2x/7x,,,3x/6x,,3x/6x,,,,1x/8x,,,,
{4}2h[4:1],4h[4:1],5h[4:1],7pp4[2:1],
{4}4b,,,3x/5x,
{2}1-5[8:1]/2-5[8:1],7-4[8:1]/8-4[8:1],
{16}3h[16:3],,,2h[16:3],,,1,,7/8,,,,6,,6,,
{16}5,,,,3/8,,,,7h[16:3],,,6h[16:3],,,5,,
{4}3/4,3/4,1b/6b,,
{2}1-5[8:1]/2-6[8:1],7-3[8:1]/8-4[8:1],
{16}2h[16:3],,,3h[16:3],,,4,,5x/6x,,,,2b/7b,,,,
{4}6h[4:1],8h[4:1],1h[4:1],3>5[2:1],
{4},,,3/4,
{16}1h[4:1]/2h[4:1],,,,,,,,7h[16:3],,,6h[16:3],,,5,,
{4}3/4-8[8:1],,1/7,3/5,
{1}C1f/B2/B6,
{1},
{1},
{1},
E
&inote_5=
(172){1},
{1},
{1}2h[4:7]/8h[4:15],
{1},
{1}4h[1:2],
{1},
{4}5,5,4,4,
{4}5,4/5,4,4/5,
{4}6,5/6,3,3/4,
{16}4/5,,,4/5,,,2/7,,2b/7b,,,,,,,,
{4}2-7[8:1]/4,5,6-3[8:1]/8,1,
{4}2-7[8:1]/4,6-3[8:1],1-5[8:1],6,
{4}1/7-4[8:1],2,3-8[8:1]/5,6,
{4}1/7-4[8:1],3-8[8:1],7,2/5,
{16}3h[4:1]/7,,,,4,,4,3,5xh[16:3],,,6h[16:3],,,7h[8:1],,
{16}8xh[16:3],,,1h[16:3],,,2h[8:1],,3xh[16:3],,,4h[16:3],,,5h[8:1],,
{16}7,,,,2/5,,,,7h[16:3],,,3h[16:3],,,4h[8:1],,
{1}1>8[2:1],
{1}4xq5[4:3],
{1}C1xh[1:2],
{1}7x>5[4:5],
{4},,,2/7,
{8}7-4[8:1]/8-4[8:1],,7x/8x,,2/5,1,8,1/7h[4:1],
{8},6,5/7,6,4/5,3,2/4,,
{8}1-5[8:1]/2-5[8:1],,1x/2x,,4/7,8,1,2h[4:1]/4,
{8},3,2/4,3,4/5,,2/7,,
{4}3/5s1[1:1],2,2,2,
{4}2,3,3/8,2/5,
{4}5pp4[1:1],3,3,3,
{4}2,2,1/5,2/6,
{8}7-4[8:1]/8-4[8:1],,7x/8x,,2/5,1,8,5/7h[4:1],
{8},6,5/7,6,4/5,3,2/4,,
{8}2-5[8:1],,6-1[8:1],6,,4>5[2:1],,8h[8:5],
{4},,,3/7,
{16}3h[16:3],,,4,,,2/5,,2-4[8:1]/5-1[8:1],,,,,,,,
{16}6h[16:3],,,5,,,4/7,,3h[16:3],,,4,,,2/5,,
{16}2h[16:3],,,1,,,3/8,,7h[16:3],,,8,,,2/6,,
{4}4qq5[8:3]/8qq1[8:3],,,2/6,
{4}1>4[4:1],4<7[4:1],7>2[4:1],2qq5[2:1],
{4}6h[2:1],,,1/7,
{8}6-1[8:1],,2-5[8:1],2,,7,,1/8,
{16}2/7,,2/7,,8,1,8,1,7,2,7,2,8,1,8,1,
{8}8,2/7,2/7,,C1f/B3/B4/E4/B7/B8/E8,,,,
{8}2/7-4[8:1],,7/8,1,2-5[8:1],,1/2,8,
{32}5x/7x,,,,,,7<4[8:1]/8>3[8:1],,,,,,1/6,,,,E1/E7,E5/E6,E2/E3,,,,,,1b/6b,,,,,,,,
{16}2h[8:3]/5,,,,4,,5,,6h[8:3],,,8,,,2pp6[8:3],,
{8}2h[2:1],,,,,,7/8,1,
{16}2/4,,,,8h[4:1],,5x,4x,3xV15[4:1],,,8,,,7,,
{16}6V84[4:1],,,1,,,2,,B1/E1/B8,,,,B4/B5/E5,,,,
{4}3-8[8:1]/7-4[8:1],3b/7b,2-5[8:1]/6-1[8:1],2b/6b,
{16}4/8,,,2/5,,,3b/7b,,,,,,1/8,,,,
{8}2>5[8:1]/7,,1/2,8,7<4[8:1],,7/8,1,
{32}2x/4x,,,,,,1<6[8:1]/2>5[8:1],,,,,,3/8,,,,E1/E3,E4/E5,E7/E8,,,,,,3b/8b,,,,,,,,
{16}4/7h[8:3],,,,5,,4,,3h[8:3],,,1,,,6qq1[8:3],,
{8}6h[2:1],,,,,,1/2,3,
{16}4/6,,,,4h[4:1],,1x,8x,7xV51[4:1],,,2,,,3,,
{16}4V26[4:1],,,8,,,7,,B1/E1/B8,,,,B4/B5/E5,,,,
{16}6<1[8:1]/8-4[8:1],,,,,,,,5/7,,,2/4,,,1/8,,
{4}1pp4[8:3]/8qq5[8:3],,,2b/7b,
{1}7h[4:3]/8<2[2:3],
{1}8h[4:3],
{1}1>7[2:3]/2h[4:3],
{1}1h[4:3],
{1}C1/3>7[2:1]*<7[2:1],
{1}C1/6>2[2:1]*<2[2:1],
{8}2b/6b,,3/4,1b/5b,,5/6,4b/8b,,
{8}7/8,,1/7,3h[4:1]/4h[4:1],,,2/6,,
{1}6h[4:3]/8<2[16:23],
{1}8h[4:3],
{1}1>7[2:3]/3h[4:3],
{8}B4/B5,,,B1/B8,,,,,
{16}3h[16:3],,,2h[16:3],,,1,,8-3[8:1]*-5[8:1],,,,,,,,
{16}6h[16:3],,,7h[16:3],,,8,,1-4[8:1]*-6[8:1],,,,,,,,
{4}8<5[4:1],5>2[4:1],2<7[4:1],7pp4[2:1],
{4}3h[2:1],,,2/6,
{8}2-5[8:1],,6-1[8:1],6,,3,,4/5,
{16}2/7,,2/7,,4,5,4,5,3,6,3,6,4,5,4,5,
{8}4,3/6,3/6,,2b/7b,,,,
{1}C1xh[1:3],
{1},
{1},
{1},
{32}1h[2:3]/4,,,,,,,,,,,,,,,,E7,B6,B5,,,,,,,,,,,,,,
{32}E3,B3,B4,,,,,,,,,,,,,,B4/B5/E5,,,,,,,,B1/E1/B8,,,,,,,,
{4}2-5[8:1]/5-1[8:1],2b/5b,4-8[8:1]/7-4[8:1],4b/7b,
{16}1/5,,,3/7,,,1/5,,1b/5b,,,,2/7,,,,
{8}1-5[8:1]/2,,1/6,7,4/8-4[8:1],,3/8,2,
{32}1/5,,,,,,7<4[8:1]/8>3[8:1],,,,,,1/6,,,,E1/E7,E5/E6,E2/E3,,,,,,1b/6b,,,,,,,,
{16}5/7h[8:3],,,,5,,4,,3h[2:1],,,1,,,8qq3[8:3],,
{8}8h[2:1],,,,,,3/4,2,
{16}1/7,,,,6h[4:1],,8x,1x,2xq8[4:1],,,4x,,,5x,,
{16}6xq4[4:1],,,1x,,,2x,,B1/E1/B8,,,,B3/E3/B6/E7,,,,
{4}1-4[8:1]/5-8[8:1],1b/5b,2-7[8:1]/6-3[8:1],2b/6b,
{1}4pp7[2:1]/8pp3[2:1],
{2}B1/C1f/B3/B5/B7,C1f/B2/B4/B6/B8,
{4}1>7[8:3]/5h[2:1],,,1/5,
{1}3b/7b,
{1},
{1},
{1},
E
