&title=My My My
&wholebpm=175
&artist=C-Show
&des=Jack
&shortid=11092
&genre=maimai
&cabinet=DX
&version=maimai DX PLUS
&chartconverter=Neskol
&lv_2=4
&des_2=
&lv_3=7+
&des_3=
&lv_4=11
&des_4=華火職人
&lv_5=13+
&des_5=Jack
&des_6=
&inote_2=
(175){1},
{1},
{1},
{1},
{1},
{2}1,1,
{2}1,1,
{2}8,8,
{1}1/8,
{4}1,1,1,,
{1}2h[2:1],
{4}3,3,3,,
{1}4h[2:1],
{4}5,5,5,,
{1}6h[2:1],
{4}7,7,7,,
{1}1x/8x,
{1}1-4[4:3],
{1},
{1}5-8[4:3],
{1},
{1}1-5[4:3],
{1},
{2}6,6,
{1}5/6,
{1}3/4,
{1}5/6,
{1}3/4,
{4}2,2,2,,
{1}1/2,
{1}7/8,
{1}1h[1:1]/8h[1:1],
{1},
{1}B1/B2,
{1}B4/B5,
{1}C1xh[1:1],
{1},
{1}B7/B8,
{1}B4/B5,
{1}C1f,
{1},
{2}1,1,
{4}2,2,2,,
{2}3,3,
{4}4,4,4,,
{2}5,5,
{4}6,6,6,,
{2}7,7,
{4}8,8,8b,,
{2}7,7,
{4}6,6,6,,
{2}5,5,
{4}4,4,4,,
{2}3,3,
{4}2,2,2,,
{2}1,1,
{4}1/8,1/8,1b/8b,,
{1}1x/8x,
{1}2x/7x,
{1}3x/6x,
{1}4x/5x,
{1}B4/B5,
{1}B3/B6,
{1}C1hf[1:2],
{1},
{1},
{1},
{4}1,1,1,,
{4}2,2,2,,
{4}3,3,4,4,
{4}5,5,4/5,,
{4}6,6,6,,
{4}7,7,7,,
{4}8,8,1,1,
{1}1h[2:1]/8h[2:1],
{4}8,8,8,,
{4}7,7,7/8,,
{4}6,6,6,,
{4}5,5,4/5,,
{4}4,4,4,,
{4}3,3,3/4,,
{4}2,2,2,,
{1}1b/8b,
{2}1,1,
{1}1h[2:1]/8h[2:1],
{2}8,8,
{4}1,1,8,8,
{1}2x/7x,
{1},
{1},
{1},
E
&inote_3=
(175){1},
{1}3p5[4:5],
{1},
{1}6q4[4:5],
{1},
{1}3p4[4:5],
{1},
{1}6q5[4:5],
{1},
{1}3h[2:1]/4h[2:1],
{1}5h[2:1]/6h[2:1],
{1}2h[2:1]/4h[2:1],
{1}5h[2:1]/7h[2:1],
{2}6h[2:1],5h[2:1],
{2}4h[2:1],3,
{2}2h[2:1],1h[2:1],
{2}8,2x/7x,
{2}E2,C1,
{1}B5/B6,
{2}E8,C1,
{1}B3/B4,
{4}E3,B2,B1,,
{4}B8,B7,E7,,
{1}C1xh[2:1],
{4}1x/8x,1x/8x,2b/7b,,
{4}3,3/4,2/5,,
{4}6,5/6,4/7,,
{4}6,6,5,5,
{4}4,3,2x/5x,,
{4}6,5/6,4/7,,
{4}3,3/4,2/5,,
{4}1,1,8,8,
{2}1h[4:1]/8h[4:1],2x/7x,
{4}7,7/8,1/6,,
{4}2,1/2,3/8,,
{1}2h[2:1]/7h[2:1],
{4}4/5,4/5,3x/6x,,
{4}2,1/2,3/8,,
{4}7,7/8,1/6,,
{1}8z4[8:7],
{2},3x/5x,
{1}4qq1[4:5],
{1},
{1}8qq5[4:5],
{1},
{1}4qq1[4:5],
{1},
{1}1h[2:1]/8h[2:1],
{4}1x,2x,3b,,
{4}6h[2:1],5,5,,
{4}3h[2:1],4,4,,
{4}2h[2:1],1,1,,
{4}8h[4:1],1,2/7,,
{4}6h[2:1],5,4,,
{4}3h[2:1],4,5,,
{4}2h[2:1],1,8,,
{4}1/8,2/7,3x/6x,,
{2}2h[2:1],3h[2:1],
{2}4,4/5,
{2}7h[2:1],6h[2:1],
{2}5,3/4,
{2}2h[2:1],3h[2:1],
{2}4h[2:1],5h[2:1],
{2}6h[2:1],7h[2:1],
{4}8,8,1/7,,
{1}2h[2:1]/8h[2:1],
{4}3,3,3,2b/8b,
{4}1,2,3/4,5,
{4}6,6,5/6,4/7,
{4}8,7,5/6,4/5,
{8}3,3,3,,2/5,,,,
{4}8,7,5/6,4,
{4}3,3,3/4,4/5,
{4}5/6,4/7,3/8,1/2,
{8}8,8,8,,1x/7x,,,,
{4}3,2/4,6,5/7,
{8}8,8,8,,1/7,,1/7,,
{4}6,5/7,3,2/4,
{8}1,1,1,,1/8,,2x/7x,,
{4}3,2/4,6,5/7,
{4}2,1/3,7,6/8,
{8}1,1,1,,8,8,8,,
{4}1/7,2/6,3x/5x,,
{4}4,3,2,1,
{4}8,7,6,4/5,
{1}C1xh[2:1],
{4}1/8,2/7,3/6,4x/5x,
{1}C1f/B2/B7,
{1},
{1},
{1},
E
&inote_4=
(175){1},
{1}4/5h[1:1],
{2}4h[2:1],B3/B4,
{1}4h[1:1]/5,
{2}5h[2:1],B5/B6,
{4}B7,B8,B1,B2,
{4}B3,B4,B5,B6,
{4}B7/E8,B2/E2,B6/E6,B3/E4,
{1}C1hf[2:1],
{8}1xh[4:1]/2xh[4:1],,,3xh[8:3]/8xh[8:3],,,,,
{16}7x/8x,,,7x/8x,,,1xh[8:3]/6xh[8:3],,,,,,,,,,
{8}5xh[4:1]/6xh[4:1],,,4xh[8:3]/7xh[8:3],,,,,
{16}3x/4x,,,3x/4x,,,2xh[8:3]/5xh[8:3],,,,,,,,,,
{4}4/6,7,3/5,2,
{4}5/6,7,3/4,2,
{4}5/7,8,2/4,1,
{8}1b/8b,,2b/7b,2h[8:3]/7h[8:3],,,,,
{1}5h[4:7]/6<3[2:1],
{4}2,2,3,4,
{1}3>6[2:1]/4h[4:7],
{4}7,7,6,5,
{1}5q3[8:3]/6h[4:3],
{1}3h[4:3]/4p6[8:3],
{1}1-4[2:1]/8-5[2:1],
{4}B6/B7/E7,B2/B3/E3,B4/B5/E5,C1f,
{8}1/7,,2,2,4,4,3,,
{8}2/8,,7,7,5,5,6,,
{4}1/8,2/4,4/5,5/7,
{4}1s5[16:5]/8,,,3b/7b,
{8}2/8,,7,7,5,5,6,,
{8}1/7,,2,2,4,4,3,,
{4}1/8,5/7,4/5,2/4,
{4}1h[2:1]/8h[2:1],,,C1f/B4/B5,
{8}1/7,,3,3,4,4,1,,
{8}2/8,,6,6,5,5,8b,,
{1}2q7[2:1]/7,
{4}3/6>3[8:3],,,1b,
{8}7/8,,6,6,5,5,8,,
{8}1/2,,3,3,4,4,1>7[2:3],,
{1}C1xh[4:7],
{1},
{1}1h[4:7]/8<3[2:1],
{4}4,4,3,2,
{1}1>6[2:1]/8h[4:7],
{4}5,5,6,7,
{1}1q7[8:3]/2h[4:3],
{1}7h[4:3]/8p2[8:3],
{1}1p4[2:1]/8q5[2:1],
{4}4x/5x,3x/6x,2x/7x,4b/5b,
{4}1/8,3/4,2/8,3/4,
{8}1/8,,3/4,3h[8:3]/4,,1,1,,
{4}1/8,5/6,1/7,5/6,
{8}1/8,,5/6,5/6h[8:3],,8,8,,
{4}1/7,3/4,2/8,3/4,
{8}1/8,,3/4,3h[8:3]/4,,1,1,,
{4}2/8,5/6,1/7,5/6<3[2:1],
{4},,,2b/6b,
{2}4h[2:1]/5,B3/E3/E4,
{2}4/5h[2:1],B6/E6/E7,
{2}3h[2:1]/4,B1/B2/E2,
{2}5/6h[2:1],B7/B8/E8,
{2}3-1[8:1]/4,5/6-8[8:1],
{2}1/2-4[8:1],7-5[8:1]/8,
{4}3/4,1/2,7/8,5/6,
{8}3,3,1,1,8,8,6,,
{1}1-4[2:1]/8-5[2:1],
{4}B6/B7/E7,B2/B3/E3,B4/B5/E5,C1f,
{8}1/8,,2,2,4-1[8:1],4,3b,,
{8}2/5,,7,7,5-8[8:1],5,6b,,
{8}4/7,,3,4,2,6,5,7,
{4}2h[4:1],4h[4:1],5h[4:1],7b,
{8}1/8,,7,7,5-8[8:1],5,6b,,
{8}4/7,,2,2,4-1[8:1],4,3b,,
{8}2/5,,6,5,7,3,4,2,
{8}1x/8x,,2/7,2/7,2/7,2/7,2b/7b,,
{8}4/5,,8<4[4:1],8,2,,8b,,
{8}1/7,,5/6,5h[8:3]/6,,8,8,,
{8}4/5,,1>5[4:1],1,7,,1b,,
{8}2/8,,3/4,3/4h[8:3],,1,1,,
{8}4/6,,7-4[8:1],7,8,,2b/6b,,
{8}3/5,,2-5[8:1],2,1,,3b/7b,,
{16}4/5,,4/5,,3/6,,3/6,,2/7,,2/7,,8x,1x,8x,1x,
{8}8h[4:1],,,2h[4:1]/7h[4:1],,,4b/5b,,
{4}5/6q3[8:3],4,4,4,
{4}3p6[8:3]/4,5,5,5,
{1}1-4[2:1]/8-5[2:1],
{4}B6/B7/E7,B2/B3/E3,B4/B5/E5,B1/C1hf[4:1]/B8,
{1},
{1},
{1},
E
&inote_5=
(175){1},
{16}3h[16:9]/8,,,,,,4,,,4,,,3/5,,,,
{16}2/6h[16:9],,,,,,5,,,5,,,4/6,,,,
{16}3/5h[16:9],,,,,,6,,,6,,,4/7,,,,
{16}4h[16:9]/6,,,,,,3,,,3,,,2/5,,,,
{16}4/7h[4:1],,,,6,,,6,5,,5,,3/7,,,,
{16}2h[4:1]/6,,,,3,,,3,4,,4,,2/6,,,,
{16}4/5h[4:1],,,,4,,,4,5,,3/6,,2/7,,2/7,,
{8}3,4,5,6,7-4[8:1]/8-3[8:1],1/6,7x/8x,,
{8}2xh[4:1]/5xh[4:1],,,4xh[4:1]/7xh[4:1],,,4/7,3/6,
{16}2h[16:3]/5,,,3h[16:3],,,4<7[8:1],,,,,,8,1,2,3,
{8}4xh[4:1]/7xh[4:1],,,2xh[4:1]/5xh[4:1],,,2/5,3/6,
{16}4h[16:3]/7,,,5h[16:3],,,6<3[4:1],,,,,,C1f,,,,
{8}7-4[8:1],8,7,,3-8[8:1],4,3,,
{8}6-1[8:1],5,6,,2-5[8:1],1,2,,
{8}6,5/7,3,2/4,7,6/8,2,1/3,
{8}8x<5[8:1],1x>4[8:1],8x,1x,,5/6,3b/8b,,
{4}1x/6h[4:7],C1,5,C1,
{4}1,C1,5-1[8:1],C1f,
{4}3h[4:7]/8x,C1,4,C1,
{4}8,C1,4-8[8:1],C1f,
{4}1/6h[4:1],B2/B3,4/7h[4:1],B4/B5,
{4}3h[4:1]/8,B6/B7,2h[4:1]/5-1[8:1],C1f,
{8}1x/8x,2,3,4,5,6,7,8,
{4}1x-3[8:1]/7x-5[8:1],1xv4[8:1]/7xv4[8:1],1x/7x,8b,
{16}2h[8:1]/4h[8:1],,,,3,5,2,4,3,5,2,4,3,5,4,,
{16}3h[8:1]/5h[8:1],,,,4,6,3,5,4,6,3,5,4,6,5,,
{16}4h[8:1]/6h[8:1],,,,5,7,4,6,5,7,4,6,5,7,6,,
{4}5h[8:1]/7h[8:1],4h[8:1]/6h[8:1],3h[8:1]/5h[8:1],2b/4b,
{16}5h[8:1]/7h[8:1],,,,6,4,7,5,6,4,7,5,6,4,5,,
{16}4h[8:1]/6h[8:1],,,,5,3,6,4,5,3,6,4,5,3,4,,
{16}3h[8:1]/5h[8:1],,,,4,2,5,3,4,2,5,3,4,2,3,,
{8}2x/4x<7[4:1],,2,3,4,5,6,7,
{16}3h[8:1]/8h[8:1],,,,2,1,3,8,2,1,3,8,2,1,3,,
{16}1h[8:1]/6h[8:1],,,,7,8,6,1,7-3[8:1],8,6,1,7b,,,,
{8}2x/4x,2xz6[4:1]/4x,,8,8-4[8:1],,2,2,
{8}1/3<6[8:1],,,7p2[8:1],,,8b,,
{16}1h[8:1]/6h[8:1],,,,7,8,5,4,7,8,5,4,7,8,5,,
{16}3h[8:1]/8h[8:1],,,,2,1,4,5,2,1,4,5,2qq7[2:3],,,,
{1},
{4},,,4b-1[8:1]/5b-8[8:1],
{1}C1f/E1/E5,
{1},
{8}3h[4:1],,4,,2/5,,,6h[4:1],
{8},5h[4:1],,6,4z8[4:1]/7,,,,
{8}7xh[4:1],,8,,1/5,,,2h[4:1],
{8},1,,4/8,4>1[8:1]/8<5[8:1],,,,
{8}2/4,3,5/7,6,1/4,3,5/8,6,
{4}1b/4h[2:1],2b,3b<6[8:1],C1f,
{8}5/6,1,3/4,8,5/6,1,3/4,8,
{8}5/6,1pp5[2:1],4,5,6-8[8:1],,,,
{8}4h[4:1],,5,4,3/6,3/6-3[8:1],,2-7[8:1],
{8},7,,3q8[4:1]/6p1[4:1],3/6,,,,
{8}1/2,5,7/8,4,1/2,5,7/8,4,
{8}1/2,5,7/8,4,1/2-5[8:1],5,2x/7x,,
{8}6/8,6/8,1/3,1/3,7-4[8:1]/8,4,2x/7x,,
{16}1,5,1,5,2,6,2,6,3v8[6:1],7v4[48:5],3,7,C1f,,,,
{8}2xh[4:3]/6xh[4:3],,,,,,,2/6,
{8}4xh[4:3]/8xh[4:3],,,,,,,4/8,
{8}2x/6xh[4:1],,5,,4/7,4/7,,2h[4:1]/5,
{8},4h[4:1],,3,2/5-8[8:1],,1b,,
{8}1x>4[8:1],4,4,C1,8x<5[8:1],5,5,C1,
{8}1x>4[8:1],4,4,C1,8x<5[8:1],5,5,C1,
{8}1,1,2/8,2/8,3/7,3/7,4/6,4/6,
{16}5,4,5,4,6,3,6,3,7,2,7,2,8,1,8,1,
{1}2b/7b,
{4}E1/E5/E6/E7/E8,B1/B4/B5/B6/B7/B8,2x<3[4:1],C1f,
{16}8b,,1,5,2,6,3,7h[16:3],,,8,7,8,,1/6,,
{16}3x/8x,,7,4,6,3,5,2h[16:3],,,1,2,1,,3/8,,
{16}1x/6x,,3,5,4,6,5,7h[16:3],,,8,7,8,,1/6,,
{16}3x/8x,,4,7,3,6,2,5,1x,2,3,4,1x,8,7,6,
{16}2x/5x,,7,8,6,1,5,2h[16:3],,,1,2,1,,3/8,,
{16}1x/6x,,2,1,3,8,4,7h[16:3],,,8,7,8,,2/6,,
{8}3-6[8:1]/7-2[8:1],,3/7,,4>1[8:1]/8<5[8:1],1/5,4x/8x,,
{16}E2,E7,E4,E8,E3,E6,E1,E5,B2,B6,B4,B8,C1f,,2b/7b,,
{16},,3/8<5[8:1],,3/8,,,2h[16:3],,,3,,2,,1,,
{8}8-3[8:1],3>8[8:1],8<5[8:1],4h[4:1],,,2/6,,
{16}7/8,,1/6>3[8:1],,1/6,,,2h[16:3],,,1,,2,,3,,
{8}4>1[8:1],8<5[8:1],4,8,,3/4,1b/6b,,
{16}3/8,,1>4[8:1]/6,,1/6,,,7h[16:3],,,6,,7,,8,,
{8}1-6[8:1],6<1[8:1],1>4[8:1],5h[4:1],,,3/7,,
{16}5/6,,1,,3/4,,8,,2/7,,2/7,,4,5,4,5,
{8}3x/4x,2,1,5x/6x,7-3[8:1],8,C1f/3b/7b,,
{4}2h[4:1]/6,B3/E4,6h[4:1]/8,B4/B5,
{4}3/7h[4:1],B6/E6,3h[4:1]/8-4[8:1],C1f,
{8}3/5,2,4/6,7,3/5,2,1/7,5,
{4}2x-4[8:1]/8x-6[8:1],2xv5[8:1]/8xv5[8:1],2x/8x,1b/5b,
{1}C1f/B3/B4/E4/B7/B8/E8,
{1},
{1},
{1},
E
