&title=Lunar Mare
&wholebpm=165
&artist=xi vs sakuzyo
&des=シチミヘルツ
&shortid=11146
&genre=ゲームバラエティ
&cabinet=DX
&version=maimai DX PLUS
&chartconverter=Neskol
&lv_2=5
&des_2=
&lv_3=8
&des_3=
&lv_4=11+
&des_4=サファ太
&lv_5=13+
&des_5=シチミヘルツ
&des_6=
&inote_2=
(165){1},
{1},
{1}1-4[4:7],
{1},
{1},
{1}8,
{1}8-5[4:7],
{1},
{1},
{1}1,
{2}1,1,
{2}2,2,
{2}3,3,
{2}4,4,
{4}5,5,5,,
{4}6,6,6,,
{4}7,7,7,,
{2}1/8,1/8,
{1}1b/8b,
{1}B2,
{1}B4,
{1}B8,
{1}B6,
{1}B7,
{1}B5,
{1}B1,
{1}B3,
{1}5h[2:1],
{1}4h[2:1],
{1}6h[2:1],
{4}5,5,5/6,,
{1}4h[2:1],
{1}5h[2:1],
{1}3h[2:1],
{4}4,4,3/4,,
{1}2h[2:1],
{1}8h[2:1],
{1}1h[2:1],
{4}7,7,7/8,,
{2}1,1,
{4}8,8,8b,,
{1}7h[2:1]/8h[2:1],
{1}5h[2:1]/6h[2:1],
{4}4,4,3,3,
{4}2,2,1/8,,
{1}E2,
{1}B2,
{1}B3,
{1}E4,
{1}E6,
{1}B6,
{1}B7,
{1}E8,
{2}8,8,
{2}7,7,
{2}6,6,
{2}5,5,
{4}4,4,4,,
{4}5,5,5,,
{1}C1hf[1:1],
{1},
{1}1h[2:1]/8h[2:1],
{1}1-6[4:3]/2-5[4:3],
{1},
{1}7-4[4:3]/8-3[4:3],
{1},
{1}5-2[4:3]/6-1[4:3],
{1},
{1}3-8[4:3]/4-7[4:3],
{1},
{4}1,1,2,,
{4}3,3,4,,
{4}5,5,6,,
{4}7,7,7/8,,
{4}8,8,7,7,
{4}6,6,4/5,,
{4}4,4,3,3,
{4}2,2,1b/8b,,
{2}1h[2:1],8x,
{2}1h[2:1],8x,
{2}8h[2:1],1x,
{2}8h[2:1],1x,
{2}1h[2:1],8x,
{2}8h[2:1],1x,
{2}1xh[2:1],8xh[2:1],
{2}1x,1b/8b,
{2}1,1,
{4}2,2,1/2,,
{2}3,3,
{4}4,4,4/5,,
{2}5,5,
{4}6,6,5/6,,
{2}7,7,
{4}8,8,1b/8b,,
{4},,1/8,1/8,
{4}2/7,2/7,3/6,3/6,
{1}4x-1[4:7]/5x-8[4:7],
{1},
{1},
{1},
{1},
E
&inote_3=
(165){1},
{1},
{1}3xh[2:7]/5xh[2:7],
{1},
{1},
{1},
{1}4x>5[4:11],
{1},
{1},
{2},4/5,
{2}6h[2:1],5,
{4}6,6,5,,
{2}3h[2:1],4,
{4}3,3,3/4,,
{4}2,2,1,,
{4}7,7,8,,
{2}1h[2:1],8h[2:1],
{4}1,1,1/8,2/7,
{1}3b/6b,
{2}E5,B4,
{1}B3,
{2}E7,B7,
{1}B8,
{2}E3,B3,
{2}B4,E5,
{2}B5,B6,
{2}E7,B2/B7,
{1}C1xh[1:1],
{4},,,1x-5[2:1],
{1},
{4}6,6,7,7-3[2:1],
{1},
{4}2,2,2x/8x,,
{1}1-4[2:1]*-6[2:1],
{4}5,5,3/5,,
{1}4-1[2:1]*-7[2:1],
{4}8,8,1/8,1>5[16:9]/8,
{1},
{4}6,6,7,7p3[2:1],
{1},
{4}2,2,1x/7x,,
{1}8-3[2:1]*-5[2:1],
{4}4,4,3/5,,
{2}2h[2:1],8h[2:1],
{4}1,1/8,2x/7x,,
{1}3h[1:1],
{1}4h[1:1],
{1}5h[1:1],
{2}6,5/6,
{1}7h[1:1],
{1}8h[1:1],
{1}1h[1:1],
{2}2,2x/8x,
{4}1,1,2,2,
{4}3,4,3/5,,
{4}5,5,6,6,
{4}7,8,1/7,,
{4}8,7,6,5,
{4}4,3,2,1,
{4}7/8,7/8,1/2,1/2,
{4}1/8,1/8,2x/7x,,
{1}7-4[2:1]/8-3[2:1],
{4}2x/5x,2/5,2/5,,
{1}1-6[2:1]/2-5[2:1],
{4}4/7,4/7,4/7,,
{1}5-2[2:1]/6-1[2:1],
{4}3/8,3/8,3/8,,
{1}3-8[2:1]/4-7[2:1],
{4}1/6,1/6,1/6,,
{4}2/8,2/8,1b/7b,,
{4}8,7,5/6,5/6,
{4}4,3,2/5,,
{4}1,2,3/4,3/4,
{4}5,6,7/8,,
{8}1,,2,,3,3,3,,
{8}4,,5,,6,6,6,,
{4}7/8,7/8,1/2,1/2,
{4}1/8,2/7,3b/6b,,
{4}3h[4:1]/4h[4:1],,3/4,4/5,
{2}5h[4:1]/6h[4:1],4/7,
{4}7h[4:1]/8h[4:1],,7/8,1/8,
{2}1h[4:1]/2h[4:1],3/8,
{4}2h[4:1]/4h[4:1],,2/4,3,
{4}4h[4:1]/5h[4:1],,4/5,6,
{2}5h[4:1]/7h[4:1],4h[4:1]/5h[4:1],
{2}2h[4:1]/4h[4:1],1b/7b,
{8}8,8,8,,1/7,,1/7,,
{8}6,6,6,,5/7,,,,
{8}4,4,4,,3/5,,3/5,,
{8}2,2,2,,1/3,,,,
{8}2,2,2,,3x/4x,,5/6,,
{8}7,7,7,,5x/6x,,3/4,,
{8}1/2,1/2,1/2,,7/8,7/8,7/8,,
{8}1/8,1/8,1/8,,2b/7b,,,,
{8}4x/5x,,,,2,2,7,7,
{8}1,1,8,7,6,5,4,3,
{1}2h[1:2]/7h[1:2],
{1},
{1},
{1},
{1},
E
&inote_4=
(165){1},
{1}C1xh[1:1]/B6/B7,
{8}8b,,,7,7h[8:3],,,5,
{8}5h[8:3],,,6,6h[8:3],,,3,
{8}3h[8:3],,,4,4h[8:3],,,2,
{4}2/4,3,5,7,
{8}2h[8:3]/8b,,,4,4h[8:3],,,3,
{8}3h[8:3],,,6,6h[8:3],,,5,
{8}5h[8:3],,,7,7h[8:3],,,5,
{4}5/7,8,1/7,3/5,
{4}2h[4:3]/6b,6,4,4,
{4}3/7h[4:3],3,5,5,
{4}6>3[4:1],,2,2/4,
{4}3<6[4:1],,7,5/7,
{8}6,6,2,2,4,4,1h[4:1],,
{8}5,5,3,3,8,8,5h[4:1],,
{8}7,7,4,4,5,5,2,2,
{16}2xh[4:1]/8xh[4:1],,,,,,,,1x/7x,,,2x/6x,,,3x/5x,,
{1}3bp6[4:1]/5b,
{2}B4/E5,B7/E7,
{2}B3/E3,E1/B8,
{4}E2,C1,E4,E5,
{4}E6,C1,E2/E8,,
{2}B1/E1,B6/E7,
{2}B2/E3,B5/E5,
{4}E4,E2,E8,E6,
{4}E3,E1,E7,E5,
{1}C1xh[1:1]/B2/B3/B6/B7,
{4},,2/7,1>6[16:5]/8h[4:1],
{4},,7x,7/8,
{4}1-5[8:1]/2,3>6[16:5],6x,,
{4}3/4-8[8:1],2>7[16:5],7x,,
{2}1-3[8:1]/8-4[8:1],1b,
{4}5-1[8:1]/6,7V53[4:1],3x,,
{8}2,2,2V46[4:1]/8,,6x,,,,
{4}7-3[8:1],3,1xs5[4:1],6,
{4}6,5-1[8:1]/6,7,8x<3[16:5],
{4}3x,,2b,1/2,
{4}7/8-4[8:1],5<2[16:5],2x,,
{4}3/4-8[8:1],1>6[16:5],6x,,
{2}1-5[8:1]/8-6[8:1],8b,
{4}3/4-8[8:1],2V46[4:1],6x,,
{8}7,7,1/7V53[4:1],,3x,,,,
{4}2-6[8:1],6,8z4[4:1],,
{4}3,3/4-8[8:1],3,2,
{2}1b/7b,3,
{2}3h[1:2]/5,5,
{2}4,4,
{1}C1xh[2:1],
{2}2h[1:3]/7,7,
{2}5,5,
{2}3,3,
{1}C1xh[2:1],
{8}1b/8b,,3/4,2,1/7,,5/6,7,
{8}2/8,,2/4,1,7/8,,5/6,,
{8}1/7,,4/5,3,1/2,,4/5,6,
{8}7/8,,4/6,3/7,2/8,,1b/5b,,
{8}4/6,7,8,1,2/5,3,4/8,,
{8}3/5,2,1,8,4/7,6,1/5,,
{16}2,,2,,7,,7,,1,8,1,8,1,8,1,,
{4}2x/7x,4x/5x,C1f/B2/B6,,
{4}1-5[8:1]/7-4[8:1],,3x/6x,4/5,
{8}2h[8:1]/4h[8:1],,5h[8:1]/7h[8:1],,4x/5x,,3/8,3xh[4:1]/8xh[4:1],
{4},3-7[8:1]/8,7b,1x>6[16:5]/6xh[4:1],
{8},,,,7h[8:3],,1,1b,
{8},2/8,2-5[8:1]/8-4[8:1],,,,3x/6x,,
{8}5h[8:1]/7h[8:1],,2h[8:1]/4h[8:1],,4x/5x,,1/6,1xh[4:1]/6xh[4:1],
{4},1/6-2[8:1],2b,3xh[4:1]/8x<3[16:5],
{4},,2h[4:1],1w5[4:1],
{2},3xh[4:1]/7xh[4:1],
{8}1b/8b,,4/6,3,1/2,,3/5,6,
{8}7/8,,1/2,3/8,4/7,,2/5,,
{8}4/6,,7/8,1/6,2/5,,1/2,3/8,
{4}4/7h[4:1],5h[4:1],4h[4:1],2,
{16}3,4,3,,6,5,6,,2,4,2,,7,5,7,,
{16}2,1,2,,7,8,7,,2,3,2,,7,6,7,,
{16}3,4,2,,6,5,7,,2,1,3,,7/8w4[4:1],,,,
{2},2b/6b,
{4}3h[4:1]/5,4q1[4:1],2xh[4:3],,
{4}4,3q8[4:1],1xh[2:1],,
{4}7h[4:1],8q5[4:1],6xh[2:1],,
{4}5h[4:1],4h[4:1],3,2/5,
{4}4/6h[4:1],5p8[4:1],7xh[4:3],,
{4}5,6p1[4:1],8xh[2:1],,
{4}2h[4:1],1p4[4:1],3xh[2:1],,
{4}4h[4:1],5h[4:1],6,2x/7x,
{4}3h[4:1]/4,2pp4[4:1],1xh[2:1],,
{4}2h[4:1],3pp5[4:1],4xh[2:1],,
{4}6h[4:1],7qq5[4:1],8xh[2:1],,
{4}7h[4:1],5,4/5,2b/7b,
{4}7h[4:1]/8,6pp8[4:1],5xh[2:1],,
{4}6h[4:1],7pp1[4:1],8xh[2:1],,
{4}2h[4:1],3qq1[4:1],4xh[2:1],,
{4}3h[4:1],2h[4:1],1,1/8,
{16}4x/5x,,,,,,,,3,4,3,4,2,,7,8,
{16}7,8,6,,4,5,4,5,3,6,3,6,2,7,2,,
{1}B1/C1xh[1:2]/B8,
{1},
{1},
{1},
{1},
E
&inote_5=
(165){1},
{1},
{16}2x/7x,,,,,,3,4,3h[8:3],,,,,,6,5,
{16}6h[8:3],,,,,,3,4,2h[8:3],,,,,,6,5,
{4}7,5h[4:1]/7,6,4/5h[4:1],
{4}3,2h[4:1]/4,1,2/8,
{16}3x/7x,,,,,,6,5,6h[8:3],,,,,,3,4,
{16}3h[8:3],,,,,,6,5,7h[8:3],,,,,,3,4,
{4}2,2/4h[4:1],3,4h[4:1]/5,
{4}6,5/7h[4:1],8,1/7,
{16}2x/6x,,,,1,,3,4,3h[4:1],,,,8,,6,5,
{16}6h[4:1],,,,1,,3,4,3,,,,1/8,,6,5,
{16}7h[8:1],,3,4,2h[8:1],,7,8,6h[8:1],,2,1,3h[8:1],,6,5,
{16}7h[8:1],,3,4,2h[8:1],,7,8,6h[8:1],,1,8,1,,2x/7x,,
{16}3,4,3,4,2,5,2,5,1,6,1,6,8,7,8,7,
{16}2,1,2,1,3,8,3,8,4,7,4,7,5,6,5,6,
{16}3h[8:1],,5,4,6h[8:1],,3,4,2h[8:1],,6,5,7,,1/8,,
{16}2x/7x,,,,1/5,,,,5h[8:1]/7h[8:1],,,2h[8:1]/4h[8:1],,,1/8,,
{1}2b/7b,
{2}5<4[8:13],4h[4:1],
{4}3h[4:1],,1,1>7[2:3],
{2}5h[4:1],6h[4:1],
{4}8h[4:1],,1,1>8[2:5],
{4}6,5,4,2,
{4}1,8,7,5,
{4}4,3,2,1,
{8}5/7,,2/4,,2/7,3/6,4qq1[8:7]/5pp8[8:7],4/5,
{1},
{16}2x/7x,,,,4/5,,,,3,4,3,,2bV41[8:3]/6bV47[8:3],,,,
{16},,,,,,,,2x/6x,,3,2/4,,6,5/7,,
{16}2,1,3,8,4,7,5,6,4x/7x,,,,3>8[8:1],4,2,4,
{16}3<6[8:1],,,,,,,,3b/7b,,,,1x,1x,1x,1x,
{16}1x,,7,6/8,,3,2/4,,B7/E7,,B3/E3,,B8,B2,B6,B4,
{8}C1hf[2:1],,2-6[8:1],,2b,,1/8,2/7,
{16}3,4,3,2x/5x,,7,7,,1bs5[8:1]/5b,,,,1x/6x<3[4:1],,,,
{16},,,,,,,,3x/7x,,,,2,1,2,1,
{16}3x/8x,,6,5/7,,3,2/4,,7-3[16:1],8,7,8,7pp2[8:3]*qq4[8:3],,,,
{16},,,,,,,,1x/5x,,6,5/7,,3,2/4,,
{16}7,8,6,1,5,2,4,3,2x/5x,,,,6<1[8:1],5,7,5,
{16}6>3[8:1],,,,,,,,2b/6b,,,,8x,8x,8x,8x,
{16}8x,,2,1/3,,6,5/7,,B3/E3,,B7/E7,,B2,B8,B4,B6,
{8}C1hf[2:1],,7-3[8:1],,7b,,1/8,2/7,
{16}6,5,6,4x/7x,,2,2,,4b/8bz4[8:1],,,,3x>6[4:1]/8x,,,,
{16},,,,,,,,2x/6x,,,,7,8,7,8,
{16}1x/6x,,3,2/4,,6,5/7,,1x-4[16:1]*-6[16:1],1x,1x,1x,,,,,
{2}3b/7b,6h[2:1],
{2}4h[2:1],2h[2:1],
{4}8h[4:3],,6,6>7[4:3],
{4}B4/B5/E5,B1/E1/B8,C1,,
{2}2h[2:1],4h[2:1],
{2}6h[2:1],8h[2:1],
{4}2h[4:3],,4,4<3[4:3],
{4}B1/E1/B8,B4/B5/E5,C1,,
{16}3/7,,,,8h[8:1],,3,3,4h[4:1],,,,1h[8:1],,6,6,
{16}5h[4:1],,,,8h[8:1],,3,3,4,,,,7/8,,,,
{16}1/6,,,,8h[8:1],,3,3,4h[4:1],,,,1h[8:1],,6,6,
{8}5h[4:1],,8,1/2,3/4,5/6,7/8,1/6,
{16}2,1,3,8,4,7,5,6,8,7,1,6,2,5,3,4,
{16}2,1,2,1,3,4,3,4,8,7,8,7,5,6,5,6,
{32}3,,3,,4,,4,,5,,5,,6,,6,,7,,7,,8,,8,,2x,3x,4x,5x,6x,7x,8x,1x,
{16}2x/6x,,,,4/8,,,,2h[8:1]/4h[8:1],,,5h[8:1]/7h[8:1],,,1/8,,
{16}2-5[8:1]/7-4[8:1],,,,2x/7x,,,,2b/7b,,,,2x/6x,3x/7x,4x/8x,1x/5x,
{8}2x-7[8:1]/6x-3[8:1],,2<4[4:1]/6,,2/6,,,2b/6b,
{16},,1/5h[4:1],,2,,3h[4:1],,2,,1,,4xpp8[8:5]/8x,3x/7x,2x/6x,1x/5x,
{8}4x/8x,,1>4[8:1],,1b,,7/8,1/6,
{16},,4/5,,3,,1/2,,3/8,,,,3x/7x,2x/6x,1x/5x,4x/8x,
{8}3x-6[8:1]/7x-2[8:1],,3/7>5[4:1],,3/7,,,3b/7b,
{16},,4h[4:1]/8,,7,,6h[4:1],,7,,8,,1x/5xqq1[8:5],2x/6x,3x/7x,4x/8x,
{8}1x/5x,,8<5[8:1],,8b,,2/6,3,
{16}4/8,,7,,2b/6b,,,,B2,B8,B4,B6,E2,E8,E4,E6,
{16}C1,,,,B7/B8/E8,,E2,B4,B3/E3/E4,,,,B1/B2/E2,,E8,B5,
{16}B6/E6/E7,,,,B7/B8/E8,,E2,B4,B3/E3/E4,,,,E2,B1,B8,E8,
{16}C1,,,,B5/B6/E6,,E4,B1,B2/E2/E3,,,,B5/E5/B6/E7,,,,
{8}2/4,3,4/5,6,5/7,1/8,2b/7b,,
{16}7,8,6,1,5,2,4,3,1,2,8,3,7,4,6,5,
{16}7,8,7,8,6,5,6,5,1,2,1,2,4,3,4,3,
{16}6,6,5,7,3,3,4,2,6,6,5,8,3,3,4,1,
{16}2x/6x,,,,1/5,,,,5h[8:1]/7h[8:1],,,2h[8:1]/4h[8:1],,,1/8,,
{4}2bq6[4:1]/7b,6>2[4:1],2<6[4:1],6,
{4}4q8[4:1],8>4[4:1],4<8[4:1],1,
{4}3p7[4:1],7>3[4:1],3<7[4:1],7,
{4}1qq6[2:1],4,3,2b,
{4}7/8>6[2:1],3,6,1,
{4}1<3[2:1]/3,6,3,8,
{4}6/8>3[4:1],3<6[4:1],6<1[4:1],1>4[4:1],
{16}4-8[4:1],,,,8,,,,7x,6x,5x,4x,3x,2x,1x,8x,
{4}2b-6[8:1]/7b,2V48[2:1]/4,1/2,6,
{4}7-3[8:1],5/7V51[2:1],7/8,4,
{4}3-7[8:1],1/3V15[2:1],3/4,8,
{4}6-2[8:1],8<5[8:1]*>3[8:1],8,2b/6b,
{4}7>2[8:1],5/7V51[2:1],1/7,3,
{4}2<7[8:1],2V48[2:1]/4,2/8,7,
{4}6>3[8:1],6V84[2:1]/8,4/6,3,
{4}2-4[8:1]*-8[8:1],2-6[8:1],2>5[8:1]/6<1[8:1],2/6,
{32}3b/7b,,,,,,,,,,,,,,,,2,,1,,2,,1,,2b,3,4,,8b,7,6,,
{32}3,,4,,3,,4,,3b,2,1,,5b,6,7,,2b,3,4,,8b,7,6,,1b,2,3,4,5,6,7,8,
{1}1b/5b>5[4:7]*>5[4:7],
{1},
{1},
{1},
{1},
E
