&title=KILLER B
&wholebpm=130
&artist=梅とら
&des=はっぴー
&shortid=11128
&genre=niconicoボーカロイド
&cabinet=DX
&version=maimai DX PLUS
&chartconverter=Neskol
&lv_2=3
&des_2=
&lv_3=6
&des_3=
&lv_4=10
&des_4=小鳥遊さん
&lv_5=12+
&des_5=はっぴー
&des_6=
&inote_2=
(130){1},
{1},
{1},
{1},
{1},
{1},
{1}1x,
{1},
{1}1x,
{1},
{1}8x,
{1}8,
{1}1x,
{1}1h[2:1],
{2}8,8,
{2}7,7,
{2}6,6,
{1}5h[2:1],
{2}4,4,
{2}3,3,
{1}2-6[4:3],
{1},
{2}5,5,
{2}6,6,
{1}7-3[4:3],
{1},
{1}B2,
{1}B3,
{1}B4,
{1}B5,
{1}B6,
{1}B7,
{1}C1hf[1:1],
{1},
{4}8,8,8,,
{4}7,7,7,,
{4}6,6,5,5,
{4}4,4,4/5,,
{4}4,4,4,,
{4}3,3,3,,
{4}2,2,1,1,
{4}8,8,1b/8b,,
{1},
{1},
{1},
{1},
{2}1,1,
{2}1/2,1/2,
{2}8,8,
{2}7/8,7/8,
{2}1,1,
{2}2,2b,
{2}3,3,
{2}4,4h[2:1]/5h[2:1],
{1},
{4}5,5x,5,,
{4}6,6,6,,
{4}7,7,8,8,
{4}1,1,1/8,,
{4}8,8,8,,
{4}7,7,7,,
{1}5h[2:1]/6h[2:1],
{1}5b/6b,
{4}4,4,4,,
{4}3,3,3,,
{4}2,2,1,1,
{4}8,8,1b/8b,,
{1}B1,
{1}B8,
{1}B2,
{1}B7,
{1}B3,
{1}B6,
{1}B4/B5,
{1}C1hf[1:1],
{1},
{1},
{1},
E
&inote_3=
(130){1},
{1},
{1},
{1},
{1}4h[2:3],
{1}5h[2:1],
{1}3xh[2:1]/4xh[2:1],
{1}5h[2:1]/6h[2:1],
{1}3h[2:1]/4h[2:1],
{1}5h[2:1]/6h[2:1],
{2}7h[2:1],8,
{2}2h[2:1],1,
{2}8h[2:1],1h[2:1],
{2}8,2x/7x,
{4}1,1,2,2,
{2}3/4,5/6,
{4}7,7,6,6,
{1}4h[2:1]/5h[2:1],
{4}6,6,5,,
{4}4,4,3,,
{4}2,2,1,,
{2}1h[4:1]/8h[4:1],1/8,
{4}7,7,8,,
{4}1,1,2,,
{4}3,3,4,4,
{4}5,6,4x/6x,,
{1}5p4[4:3],
{2},3,
{1}3>6[4:3],
{2},5,
{1}4>1[2:1],
{1}8<5[2:1],
{1}C1hf[1:1],
{1},
{4}3x,3,3/4,4/5,
{4}6,5/6,4/7,,
{4}6,6,5/6,4/5,
{4}3,3/4,2x/5x,,
{4}2x,2,3,4/5,
{4}6,7,7/8,,
{4}8,8,1,1,
{2}1h[4:1]/8h[4:1],2b/7b,
{1}1>8[4:7],
{1},
{1},
{1}C1xh[2:1],
{4}B3,B4,E5,,
{4}E7,B6,B5,,
{4}E4,B3,B2,,
{1}C1xh[2:1],
{4}E7,B6,B5,E5,
{4}B4,B3,E3,,
{4}B2,C1,B6,,
{4}B7,C1,B3,,
{1}C1f,
{4}1x,2x,3,4/5,
{4}6,5/6,4/7,,
{4}4,3,2,1/8,
{4}7,7/8,1/6,,
{4}8x,7,6,5/6,
{4}4,3,2,1/2,
{1}8z4[4:3],
{2},3x/6x,
{4}4x/5x,4/5,3/6,3/6,
{4}2/7,2/7,1x/8x,,
{2}1h[4:1]/2h[4:1],7h[4:1]/8h[4:1],
{2}1h[4:1]/8h[4:1],2b/7b,
{4}2,3,4,5,
{4}6,6,5/7,,
{4}7,6,5,4,
{4}3,3,2/4,,
{4}2h[2:1],1,1,,
{4}7h[2:1],8,8,,
{2}1h[4:1]/2h[4:1],7h[4:1]/8h[4:1],
{4}1/8,2/7,3x/6x,,
{1}C1xh[8:3],
{1},
{1},
{1},
E
&inote_4=
(130){1},
{1},
{1},
{1},
{1}3/5h[4:3],
{4}4h[4:3]/6,,,C1f,
{1}2x<5[1:1]/7x>4[1:1],
{8},,,,,,4/5,4x/5x,
{1}4xqq1[1:1]/5xpp8[1:1],
{4},,1/8,2b/7b,
{16}3xh[16:3],,,5h[16:3],,,4h[16:3],,,6h[16:3],,,5,,,,
{16}6h[16:3],,,4h[16:3],,,5h[16:3],,,3h[16:3],,,4,,,,
{16}3h[16:3],,,4h[16:3],,,5h[16:3],,,6h[16:3],,,5,,,,
{16}6h[16:3],,,5h[16:3],,,4h[16:3],,,3,,,1b/8b,,,,
{16}2xh[16:3],,,3h[16:3],,,4h[16:3],,,5,,,5/6,,,,
{16}7h[16:3],,,6h[16:3],,,5h[16:3],,,4,,,3/4,,,,
{16}2h[16:3],,,4h[16:3],,,5h[16:3],,,6,,,5/7,,,,
{16}7h[16:3],,,5h[16:3],,,4h[8:5],,,,,,,,,,
{4}E4,B2/B4,E6,B5/B7,
{4}E5,E4/E6,E3/E7,E1/E2/E8,
{4}C1xh[2:1],,,7/8,
{4}C1xh[2:1],,,1/2,
{4}E3,E2/E4,E7,E6/E8,
{4}B4/B5/B6,B1/B2/B3,7h[4:1],8b,
{4}C1xh[2:1],,,1/2,
{4}C1xh[2:1],,,7b/8b,
{2}6-3[4:1],2-6[4:1],
{4}8-4[4:1],,,4/5,
{2}3-6[4:1],7-3[4:1],
{4}1-5[4:1],,,4/5,
{4}3/4,3/4,1/2,1/2,
{4}7/8,7/8,5/6,5/6,
{8}4,4,5,5,3,3,6,6,
{16}1x,8x,1x,8x,1x,8x,1x,8x,1x,,,,B1/C1f/B5,,,,
{16}7xh[16:3]/8x,,,6h[16:3],,,5,,,,3,,2/4,,,,
{4}1>4[8:1],8<5[8:1],3,1/6,
{8}4,6,5/7,,5,3,2/4,,
{16}3x/4x,,,5x/6x,,,1b/8b,,,,5,,4,,3,,
{16}1x/2xh[16:3],,,3h[16:3],,,4,,,,6,,5/7,,,,
{4}8<5[8:1],1>4[8:1],6,3/8,
{2}3-1[8:1]/4-8[8:1],5-1[8:1]/6-8[8:1],
{16}2,,2,,1,,,,3x/8x,,,4x/5x,,,1b/6b>7[8:13],,
{1},
{1},
{8},5,,5,,4,,4,
{8},5,,5,4/5,,2b/7b,,
{8}3xh[4:1]/4x,,B2/B3,,5,6,4/7,,
{4}7h[4:1]/8,B6/B7,3/4,1/2,
{8}5/6h[4:1],,B6/B7,,4,3,2/5,,
{4}1/2h[4:1],B2/B3,5/6,C1f,
{8}1/8,2,3/4,,4/7,,2/5,,
{24}5/6,,,7,,,1/8,,,,,,4x/5x,,4x/5x,,4x/5x,,4b/5b,,,,,,
{8}1/8,7,5/6,,2/5,,4/7,,
{8}3/4,2,1/8,,2-4[8:1]/7-5[8:1],,,,
{16}4x,5x,4x,5x,4x,5x,4x,5x,4x,,,,4-1[8:1]/5-8[8:1],,,,
{8},,2b/7b,,3/4,2/5,1/6,,
{4}7<4[8:1],8>3[8:1],6,5/8,
{8}4/5,3,2/4,,4/5,6,5/7,,
{16}2x/4x,,,5x/7x,,,1b/8b,,,,5,,4,,3,,
{16}1x/2xh[16:3],,,4xh[16:3],,,5,,,,7,,6/8,,,,
{4}2>5[8:1],1<6[8:1],3,1/4,
{1}3V52[2:1]/7V16[2:1],
{16}3x/8x,,,4x/5x,,,1b/6b,,,,4,,5,,6,,
{16}7xh[16:3]/8x,,,5xh[16:3],,,4,,,,2,,1/3,,,,
{4}7<4[8:1],8>3[8:1],6,5/8,
{8}1/8,2,1/3,,1/8,7,6/8,,
{16}1,,1,,8,,8,,1x/3x,,,6x/8x,,,2b/7b,,
{4}3-1[8:1],6,3-8[8:1],7,
{4}6-8[8:1],3,6-1[8:1],2,
{4}3-1[8:1],6,3-8[8:1],7,
{4}6-8[8:1],3,1/2,3b/8b,
{16}2xh[16:3],,,4h[16:3],,,5h[16:3],,,6,,,5/7,,,,
{16}7h[16:3],,,5h[16:3],,,4h[16:3],,,3,,,2/4,,,,
{16}3h[16:3],,,1h[16:3],,,8h[16:3],,,6,,,5/7,,,,
{1}4qq1[2:1]/8qq5[2:1],
{16}1x/8x,,,4x/5x,,,C1f/B2/B3/B6/B7,,,,,,,,,,
{1},
{1},
{1},
E
&inote_5=
(130){1},
{1},
{1}8h[1:4],
{1},
{1}C1f,
{1}C1f,
{1}1>4[1:1],
{4},,,4,
{1}8<5[1:1],
{4},,,5,
{4}1>4[1:1],5,5,6,
{4}6,5,6,4/7,
{4}8<5[1:1],4,4,3,
{8}2,,1-4[8:1],1,5,,2/7,,
{16}3h[1:1],,,4,4-1[8:1],,5,,,,,,5,,4,,
{16}6h[1:1],,,5,5-8[8:1],,4,,,,,,4,,5,,
{16}3h[1:1],,,4,4-1[8:1],,5,,,,,,5,,4,,
{8}5,6,7-5[8:1],5v3[8:1],,,,,
{8}3-5[8:1]/5,,6,6,5/7,4,4,5,
{8}3-5[8:1]/5,,6,6,5/7,4,4,5,
{8}3-5[8:1]/5,,6,6,5/7,4,4,5,
{8}3-5[8:1]/5,,6,6,5/7,8,1/8,,
{8}3-5[8:1]/5,,6,6,3-5[8:1]/7,7,6,6,
{8}3-5[8:1]/5,,6,6,3-5[8:1]/7,7,8,7,
{8}4/6-4[8:1],,3,3,2/6-4[8:1],2,3,3,
{16}4/6-4[8:1],,,,3,,3,,2/6,,,5,5,4,6,5,
{4}4/7,3-6[4:5],B8/E8,,
{2}B1,E2,
{4}3,6-3[4:5],B1/E2,,
{2}B8,E8,
{4}2-7[2:1],5,5,5,
{4}7-2[2:1],4,4,4,
{8}3-6[8:1],3,7-2[8:1],7,3-6[8:1],3,7,8,
{32}1,,1,,8,,8,,E1,E8,E7,E6,E5,E4,E3,E2,E1,,,,,,,,1/8,,,,,,,,
{8}3/5,2V48[8:1]/4<8[8:1],,2x/4x,,2-7[8:1]/4,,2/8h[4:1],
{8},2,4/6,3,2<6[8:1],6V83[8:1],5,5,
{8},2,4/6,7,8-4[8:1],4q8[8:1],3,2,
{16}2h[16:3],,,4,,,B2/E2/B3/E4,,,,1/8,,2/4,,3/5,,
{8}4/6,5>1[8:1]/7V51[8:1],,5x/7x,,5/7-2[8:1],,1h[4:1]/7,
{8},7,3/5,6,7>3[8:1],3V16[8:1],4,4,
{8},1,3-8[8:1]/7-4[8:1],2/6,3/7,,3/7,,
{8}4/5,2/5,3/7,1/8,3b/6b,,,,
{1}C1f,
{1},
{1},
{32}1-5[8:1],,,,,,,,1b,,,,,,,,E1,E8,E7,E6,E5,E4,E3,E2,E1,,,,,,,,
{16}4/6h[8:1],,5,5,7,,1,8h[8:1],,5,5,,8,8,1,,
{16}3h[8:1]/5,,4,4,2,,8,1h[8:1],,4,4,,1,1,7,,
{16}4/6h[8:1],,5,5,7,,1,8h[8:1],,5,5,,8,8,2,2,
{16}5,5h[8:1],,4,6,3,4h[8:1],,1x,1x,1x,1x,C1f/1x,,,,
{16}2h[8:1]/8,,1,1,3,,5,5h[8:1],,1,1,,6,6,5,,
{48}1/7h[8:1],,,,,,8,,,,,,5/6,,,,,,1,,,1,,,1/8,,,,5/7,,,,4/6,,,,3/5,,,,2/4,,,,1/8,,,,
{16}1/8,,7,7,2,,5,5h[8:1],,1,1,,7,,5/6h[8:1],,
{32}4,,4,,5,,5,,2,,2,,8,,8,,E1,E8,E7,E6,E5,E4,E3,E2,E1,,,,,,,,
{16}1,1,8,8,4,4,5,5,1h[4:1],,,,8,,,,
{64}4-1[16:1]/5-8[16:1],,,,,,,,,,,,,,,,4x/5x,E5,C1f,E1,,,,,,,,,,,,,7-2[8:1],,,,,,,,7,,,,,,,,4-1[8:1],,,,,,,,4,,,,,,,,
{8}8,8,3/6,4/5,7>3[8:1],3V16[8:1],4,4,
{8},7,4/6,2,1-5[8:1],5p1[8:1],6,7,
{16}7h[16:3],,,5,,,B6/E6/B7/E8,,,,1/8,,5/7,,4/6,,
{8}3/5,2V48[8:1]/4<8[8:1],,2x/4x,,2-7[8:1]/4,,2/8h[4:1],
{8},2,3-7[8:1]/5-8[8:1],4,3/5,,3/6,4/5,
{16}3h[8:1]/6,,,7,5/8,,3/6h[8:1],,,2,1/4,,3/6,,4/6,,
{16}3/5,,6,5,,3,4,,7,8,,2,1,,3/5,,
{8}4/6-1[8:1],7,3-8[8:1]/6,2,3/5-1[8:1],7,4-8[8:1]/5,2,
{8}4/6-1[8:1],7,3-8[8:1]/6,2,3/5-1[8:1],7,4-8[8:1]/5,2,
{16}4/5,,5,,4/5,,5/7,,1/8,,2/4,,4/5,,6,6,
{8}5,B7/E8,B2/E2,E5,C1f/E1,,,,
{4}4>1[1:1],5,5,5,
{8}4,,5,,1/6,7,4/6,3,
{4}4/5<8[1:1],4,4,4,
{16}5,,,,4,,,,3,3,6,6,4,4,5,5,
{16}3h[4:3],,,4,4-1[8:1],,6,,,,,,4,3,5,4,
{16}6h[4:3],,,5,5-8[8:1],,3,,,,,,5,6,4,5,
{16}3h[4:3],,,4,4-1[8:1],,6,,,,,,4,3,5,4,
{16}6,6,2,2,7,7,1,1h[8:1],,8,8,,2/7,,2/7,,
{16}B1/E1/B8,,,B4/B5/E5,,,C1/B2/B3/B6/B7,,,,,,,,,,
{1},
{1},
{1},
E
