&title=Drive Your Fire
&wholebpm=164
&artist=A-One
&des=小鳥遊さん
&shortid=11138
&genre=東方Project
&cabinet=DX
&version=maimai DX PLUS
&chartconverter=Neskol
&lv_2=3
&des_2=
&lv_3=6
&des_3=
&lv_4=9+
&des_4=某S氏
&lv_5=12+
&des_5=小鳥遊さん
&des_6=
&inote_2=
(164){1},
{1},
{1},
{1}4/5,
{1}4/5,
{1}4h[2:1],
{1}5h[2:1],
{1}4/5,
{1}4/5,
{1}4h[2:1],
{1}5h[2:1],
{2}4,4,
{1}4,
{2}3,3,
{1}3,
{2}2,2,
{1}2,
{2}1,1,
{1}1,
{1}1h[2:1]/8h[2:1],
{2}8,8,
{1}7h[2:1],
{2}6,6,
{2}4/5,4x/5x,
{2}4,4,
{1}3h[2:1],
{2}2,2,
{1}1b/8b,
{2}1,1,
{2}8,8,
{1}1-5[4:3],
{1},
{2}8,8,
{2}1,1,
{1}8-4[4:3],
{1},
{2}3,3,
{2}4,4,
{1}5h[2:1],
{2}5/6,5x/6x,
{2}6,6,
{2}5,5,
{1}4h[2:1],
{1}3x/4x,
{1}B2,
{1}B3,
{1}B4,
{1}B3/B5,
{1}B6,
{1}B7,
{1}1h[1:1]/8h[1:1],
{1},
{1}B7,
{1}B6,
{1}B5,
{1}B4/B6,
{1}B3,
{1}B2,
{1}C1hf[1:1],
{1},
{2}1,1,
{1}1h[2:1],
{4}2,2,2,,
{1}2h[2:1],
{2}3,3,
{2}4,4,
{4}5,5,5,,
{4}4,4,4b/5b,,
{2}5,5,
{1}5h[2:1],
{4}6,6,6,,
{1}6h[2:1],
{2}7,7,
{2}8,8,
{4}1,1,1,,
{4}1/8,1/8,1b/8b,,
{1}1-5[4:3],
{1},
{2}6,6,
{1}5/6,
{1}7-4[4:3],
{1},
{2}3,3,
{1}3h[2:1]/4h[2:1],
{4}2,2,2,,
{4}3,3,3,,
{4}4,4,4,,
{4}5,4,5,,
{4}6,6,6,,
{4}7,7,7,,
{4}8,8,8,,
{4}1,1,8,8,
{1}2x/7x,
{1},
{1},
{1},
E
&inote_3=
(164){1},
{1},
{1},
{1}1x>6[4:5],
{1},
{4}7,7,7,,
{4}2,2,2,,
{1}8<3[4:5],
{1},
{4}2,2,2,,
{4}7,7,7,,
{2}2,1/2,
{2}7,7/8,
{4}2,2,2,,
{4}8,8,8,,
{4}7,7,7/8,,
{4}2,2,1/2,,
{4}7,7,7/8,,
{4}2,2,1,1,
{1}1-5[8:3]/8,
{4}6,6,5,5,
{4}4,4,3/5,,
{4}2,2,1,1,
{4}8,8,1/7,,
{4}6,6,5,5,
{4}4,4,3/5,,
{4}2,2,1,1,
{4}1/8,1/8,2b/7b,,
{2}3h[2:1],4,
{2}6h[2:1],5,
{2}3h[2:1],4,
{2}5h[4:1]/6h[4:1],5/6,
{4}3,3,4,,
{4}6,6,5,,
{4}3,3,4,,
{4}5,5,4/6,,
{2}7h[2:1],8,
{2}2h[2:1],1,
{2}7h[2:1],8,
{2}1h[4:1]/2h[4:1],1/2,
{4}7,7,8,,
{4}2,2,1,,
{4}7,7,8,,
{4}1,8,2b/7b,,
{1}3>8[8:3],
{1}7-3[8:3],
{1}2-6[8:3],
{1}7<4[8:3],
{1}3-6[8:3],
{1}7-2[8:3],
{4}1,1,1,,
{4}6,6,6,,
{1}7<4[8:3],
{1}3-8[8:3],
{1}7-4[8:3],
{1}3>8[8:3],
{1}7-2[8:3],
{1}3-6[8:3],
{4}6x,6x,5x/6x,,
{4}4/5,4/5,3b/6b,,
{4}2,2,1/2,1/2,
{4}3,4,3/5,,
{4}6,7,8,1,
{1}1-6[8:3]/2-5[8:3],
{4}6xh[2:1],5,5,,
{4}3h[2:1],4,4,,
{4}6,6,7,7,
{4}8,1,2/7,,
{4}7,7,7/8,7/8,
{4}6,5,4/6,,
{4}3,2,1,8,
{1}7-4[8:3]/8-3[8:3],
{4}3xh[2:1],4,4,,
{4}6h[2:1],5,5,,
{4}3,3,2,2,
{4}1/8,1/8,2b/7b,,
{2}B7/E8,B6/E6,
{4}B3,B4,E5,,
{2}B2/E2,B3/E4,
{4}B6,B5,E5,,
{2}B7/E8,B6/E6,
{4}B3,B4,E5,,
{2}E4/E6,B3/B6,
{1}B2/B7,
{4}2,2,1,1,
{4}8,8,1/7,,
{4}7,7,8,8,
{4}1,1,2/8,,
{4}3,3,4,4,
{4}5,5,4/6,,
{4}6,6,5,5,
{4}4/5,4/5,3/6,3/6,
{1}3/6,
{1},
{1},
{1},
E
&inote_4=
(164){1},
{1},
{1},
{4}3h[4:3],5,,5,
{4}6h[4:3],4,,4,
{8}2h[2:1],,4,,4,,5,4,
{8}7h[2:1],,5,,5,,4,5,
{4}3h[4:3],4,,2,
{4}6h[4:3],5,,7,
{4}5/6,3/4,5/7,2/4,
{4}6/8,1/3,1/8,2b/7b,
{4}3h[4:1]/4,5,5/6h[4:1],4,
{4}3,2/4,6,5/7,
{4}5/6h[4:1],4,3h[4:1]/4,5,
{4}6,5/7,3,2x/4x,
{8}5,5,4/6,,3,3,2/4,,
{8}7,7,6/8,,1,1,2/8,,
{1}1pp4[2:1]/5pp8[2:1],
{1}C1hf[1:1]/B2/B3/E3/B6/B7/E7,
{1},
{8}1,,2/8,,1,8,1/7,,
{4}2h[4:1],3h[4:1],4,3/5,
{8}8,,1/7,,8,1,2/8,,
{4}5/6,3/4,1/2,3/8,
{8}8,,1/7,,8,1,2/8,,
{4}7h[4:1],6h[4:1],5,4/6,
{8}1,,2/8,,1,8,1/7,,
{4}2-6[4:1],,,1x/8x,
{4}1h[4:1],2,3h[4:1]/8h[4:1],,
{4}4h[4:1],3,2h[4:1]/5h[4:1],,
{4}3,2/4,6,5/7,
{8}4,5,4,,3/4,,2/5,,
{4}8h[4:1],7,1h[4:1]/6h[4:1],,
{4}5h[4:1],6,4h[4:1]/7h[4:1],,
{4}5,4/6,4,3/5,
{4}3-7[4:1]/4-8[4:1],,,1x/6x,
{8}7,7,6h[4:1]/8,,5h[4:1],,4,,
{8}2,2,1/3h[4:1],,4h[4:1],,5,,
{8}6,5,7,,3,4,2,,
{8}5,4,3/6,,7/8,,1/6,,
{8}2,2,1/3h[4:1],,4h[4:1],,5,,
{8}7,7,6h[4:1]/8,,5h[4:1],,4,,
{8}3,4,2/5,,6,5,4/7,,
{4}5-1[4:1]/6-2[4:1],,,3b/8b,
{4}4/7h[2:1],,B5,C1,
{4}2h[2:1]/5,,B4,C1,
{4}3/6h[2:1],7,7h[2:1],8,
{4}8<4[4:1],,1,2/8,
{4}2h[2:1]/5,,B4,C1,
{4}4/7h[2:1],,B5,C1,
{1}3>6[4:3]/5q4[4:3],
{4},,5,4/6,
{4}3h[2:1]/5,,C1,E2/E6,
{4}4/6h[2:1],,C1,E4/E8,
{4}3h[2:1]/6,2,2h[2:1],1,
{4}1>5[4:1],,8,1/7,
{4}4/6h[2:1],,C1,E3/E8,
{4}3h[2:1]/5,,C1,E2/E7,
{8}8xh[4:1],,,1xh[4:1]/7xh[4:1],,,2x/6x,,
{8}4x,5x,3x,6x,,,2b/7b,,
{8}2h[4:1]/8,,3,3h[4:1],,4,4qq5[2:1],,
{8}5,,,,,8,8,,
{4}4/7h[4:1],8,2h[4:1]/5,1,
{4}8-4[4:1],2,1-5[4:1],7,
{8}8h[4:1],,7,7h[4:1],,6,6,,
{8}1h[4:1],,2,2h[4:1],,3,3,,
{8}3,4,2/5,,7,8,1/6,,
{4}4/5,3/6,2b/7b,,
{8}1/7h[4:1],,6,6h[4:1],,5,5pp4[2:1],,
{8}4,,,,,1,1,,
{4}2h[4:1]/5,1,4/7h[4:1],8,
{4}2-6[4:1],8,7-3[4:1],1,
{8}1h[4:1],,2,2h[4:1],,3,3/4,,
{8}8h[4:1],,7,7h[4:1],,6,5/6,,
{8}6,5,7,,2,1,3,,
{8}4x/5x,4/5,3x/6x,3/6,2b/7b,,,,
{4}4/5,2-6[8:1]/3-8[8:1],,,
{4}4/5,6-1[8:1]/7-3[8:1],,,
{4}4/6,7/8,3/5,1/2,
{8}3,4,3,,2h[4:1]/5h[4:1],,,,
{8}1/7,,5/6,,3h[4:1],4,4,,
{4}2/8,3/4,2h[4:1]/5h[4:1],,
{2}1-4[8:1]/5-8[8:1],4-1[8:1]/8-5[8:1],
{2}1>4[8:1]/5<8[8:1],C1f/B2/B3/B6/B7,
{4}1,2/8,8,1/7,
{8}6,6,4,5,3,3,2/4,,
{4}8,1/7,1,2/8,
{8}3,6,4,5,4/5,,2/7,,
{4}7/8,1/6,1/2,3/8,
{8}3,4,2,5,1,6,7/8,,
{4}2-6[8:1],8,7-3[8:1],1,
{8}2,1,3,8,4,7,5/6,,
{1}C1f/B2/B3/B6/B7,
{1},
{1},
{1},
E
&inote_5=
(164){1},
{1},
{2},C1hf[2:1],
{4}B2/B7,,,5pp1[4:3],
{1},
{16}2h[16:3],,,4h[16:3],,,3h[16:3],,,5h[16:3],,,4qq8[4:3],,4,,
{8},,,,,,,7x,
{1}1x>8[4:3]/6x,
{1}C1xh[4:3],
{8}E3,E7,E1,E8,E5,E6,E3,E2,
{16}7h[16:3],,,5h[16:3],,,6h[16:3],,,4h[16:3],,,5,,5,,
{8}4/5,,4/5,,4/5,3,4/5,6,
{8}4/5,4,4/5,6,4/5,3,4/5,,
{16}2h[16:3],,,3h[16:3],,,4h[16:3],,,5h[16:3],,,4qq8[4:3],,4,,
{4}5,5,5,5,
{8}4/5,,4/5,,4/5,6,4/5,3,
{8}4/5,5,4/5,3,4/5,6,4/5,3,
{8}4/5,6,7,8,1,2,3,4,
{16}5/6,,3,4,3,4,3,,6,5,6,,3,4,3,,
{1}4/5-1[2:1],
{16}3b/7b,,,,1/5,,,,3,4,,2/5,,,6,5,
{16}6,5,6,,7/8,,1,,3,4,2,,6,5,7,,
{16}4x/8x,,,,1/5,,,,6,5,,4/7,,,3,4,
{16}3,4,3,,1/2,,8,,6,5,7,,3,4,2,,
{16}1x/5x,,,,4/8,,,,3,4,,2/5,,,6,5,
{16}6,5,6,,7/8,,1,,3,4,2,,6,5,7,,
{16}4x/8x,,,,1/5,,,,3,4,,2/5,,,4,5,
{16}4,,6,5,,4/7,,2/5,,1/8,,2x/7x,2b/7b,,,,
{8}3h[8:3],4,5,6,4/7,4/7,3,2/6h[2:1],
{8},5,4,3,2/5,2,1/8,,
{8}2-6[8:1],2,8-4[8:1],8,3,3h[4:1],,1<5[8:3],
{8},5,5>1[4:1],,1,,C1,,
{8}7h[8:3],8,1,2,3/6,3/6,5,4/5,
{8},1s5[8:3],8,7,,6,6,,
{8}4,4,6,5,4,3h[4:1],,8-4[8:1],
{8},4,3,2,1-5[8:1],,1/8,,
{8}6h[8:3],5,4,3,2/5,2/5,6,3h[2:1]/7,
{8},4,5,6,4/7,7,1/8,,
{8}7-1[8:1],7,3-5[8:1],3,7,7h[4:1],,8>4[8:3],
{8},4,4<8[4:1],,8,,C1,,
{8}2h[8:3],1,8,7,3/6,4,5,3/6,
{8},5s1[8:3],4,3,,2,2,,
{8}8,8,2,1,8,7h[4:1],,6,
{8},4w8[4:1],4,,,,2b/6b,,
{8}7<4[8:1],,3,3>8[8:1],,C1,B4/B5,,
{8}2>5[8:1],,6,6<1[8:1],,C1,B4/B5,,
{8}2,2h[8:1],4,4h[8:1],5,5h[8:1],7,7h[8:1],
{16}2h[8:3],,,,,,7,3/6,4/5,,,,1b/8b,,,,
{8}7<4[8:1],,3,3>8[8:1],,7,7-3[8:1],,
{8}2h[4:1],,B1/B8,,3,4>5[8:7],5,6,
{1},
{16}5/7,,6,,2/4,,3,,5,4,5,4,3b/6b,,,,
{8}2>5[8:1],,6,6<1[8:1],,C1,B4/B5,,
{8}7<4[8:1],,3,3>8[8:1],,C1,B4/B5,,
{8}7,7h[8:1],5,5h[8:1],4,4h[8:1],2,2h[8:1],
{16}7h[8:3],,,,,,2,3/6,4/5,,,,1b/8b,,,,
{8}2>5[8:1],,6,6<1[8:1],,2,2-6[8:1],,
{8}7h[4:1],,8,8-4[8:1],,5,5,,
{8}2xh[4:1]/4xh[4:1],,,5xh[4:1]/7xh[4:1],,,1x/8x,,
{8}2x/7x,4x-8[8:1]/5x-1[8:1],3x/6x,C1f,,,,,
{8}2-6[8:1]/5,,2/8,7-3[8:1],,2/7,1w5[8:1],,
{16}1b,,,,3/7,,6,5,,7,8,,1/6,,2/7,,
{4}3-1[8:1]/8-4[8:1],3/8,1-5[8:1]/6-8[8:1],1/6,
{16}7,5,7,,2/5,2/5,,4/8,4/8w4[8:1],,,,8,,,,
{8}2-6[8:1],1,8,7-3[8:1],6,5,4pp8[8:3],3,
{8}2,,1,1,,2-4[8:1],1-5[8:1],2-6[8:1],
{8}1-7[8:1],2,1,3,,4/5,4<7[8:1]/5>2[8:1],,
{4}4z8[8:1]/5s1[8:1],4/5,2b/7b,,
{8}4/7-3[8:1],,1/7,2-6[8:1],,2/7,8w4[8:1],,
{16}8b,,,,2/6,,3,4,,2,1,,3/8,,2/7,,
{4}1-5[8:1]/6-8[8:1],1/6,3-1[8:1]/8-4[8:1],3/8,
{16}2,4,2,,4/7,4/7,,1/5,1w5[8:1]/5,,,,1,,,,
{8}7-3[8:1],8,1,2-6[8:1],3,4,5qq1[8:3],6,
{8}7,,8,8,,7-5[8:1],8-4[8:1],7-3[8:1],
{8}8-2[8:1],7,8,6,,1/5,2-5[8:1]/6-1[8:1],,
{4}2x-7[8:1]/6x-3[8:1],2x/6x,1b/5b,,
{4}2-4[8:1]/5-1[8:1],2/5,3-1[8:1]/8-4[8:1],3/8,
{8}8-4[8:1],7,6,5-1[8:1],4,2b,2b,,
{8}3-8[8:1]/7-4[8:1],,3/7,,2/6,,1/8,2h[4:1]/7,
{8},3h[8:1],4h[8:1],5h[8:1],6-2[8:1],8b,8b,,
{4}4-8[8:1]/7-5[8:1],4/7,1-5[8:1]/6-8[8:1],1/6,
{8}1-5[8:1],2,3,4-8[8:1],5,7b,7b,,
{4}1/2h[4:1],C1f,7h[4:1]/8,C1f,
{4}2h[4:1]/3,C1f,6/7h[4:1],C1f,
{16}1x/8x,,,,5/7,,,,3,4,,2/5,,,1,8,
{16}2,4,3,5,4,6,5,7h[8:1],,1,1,,2,4,3,,
{16}5/7,,,,2/4,,,,6,5,,4/7,,,8,1,
{16}7,5,6,4,5,3,4,2h[8:1],,8,8,,7,5,6,,
{16}2x/4x,,,,5/7,,,,3,4,,2/5,,,1,8,
{16}2,4,3,5,4,6,5,7h[8:1],,1,1,,2,4,3,,
{16}5/7,,,,2/4,,,,6,5,,4/7,,,5,4,
{16}5,,1/2,1/2,,3/5,,4/6,,7/8,,1/6,1w5[8:1]/6,,,,
{1}C1f,
{1},
{1},
{1},
E
