&title=CHOCOLATE BOMB!!!!
&wholebpm=190
&artist=YUC'e
&des=華火職人
&shortid=11032
&genre=オンゲキCHUNITHM
&cabinet=DX
&version=maimai DX PLUS
&chartconverter=Neskol
&lv_2=4
&des_2=-
&lv_3=8
&des_3=-
&lv_4=11+
&des_4=小鳥遊さん
&lv_5=13+
&des_5=華火職人
&des_6=
&inote_2=
(190){1},
{1},
{2}4,4,
{1}4/5,
{2}5,5,
{1}4/5,
{2}3,3,
{1}3/4,
{2}6,6,
{1}5/6,
{2}4,4,
{2}3,3,
{2}2,2,
{1}1/8,
{2}8,8,
{2}7,7,
{2}6,6,
{1}4b/5b,
{1}B4,
{1}B3,
{1}E3/B4,
{1}B2/E5,
{1}B5,
{1}B6,
{1}B5/E7,
{1}E5/B7,
{1}B8,
{1}B7,
{1}E7/B8,
{1}E1/B6,
{1}B1/B8,
{1}B2/B7,
{1}C1hf[1:1],
{1},
{2}1,1,
{2}2,2,
{2}3,3,
{2}4,4,
{2}5,5,
{2}6,6,
{1}7h[1:1]/8h[1:1],
{1},
{1}8-4[4:3],
{1},
{2}1,1,
{1}1/2,
{1}1-5[4:3],
{1},
{2}8,8,
{1}7b/8b,
{2}8x,8,
{1}8,
{2}7,7,
{1}7/8,
{2}6x,6,
{1}6,
{2}5,5,
{2}4,4,
{1}3b/6b,
{1},
{2}5,5,
{1}4/5,
{2}4,4,
{1}4/5,
{2}6,6,
{1}5/6,
{2}3,3,
{1}3/4,
{2}5,5,
{2}6,6,
{2}7,7,
{1}1/8,
{2}1,1,
{2}2,2,
{2}3,3,
{1}4b/5b,
{1}4-1[4:3],
{1},
{1}5-8[4:3],
{1},
{4}1,1,1,,
{4}8,8,8,,
{1}1-5[4:3],
{1},
{1}6-3[4:3],
{1},
{1}2-6[4:3],
{1},
{1}8-4[4:3],
{1},
{1}3-7[4:3],
{1},
{2}8x,8,
{2}7,7,
{2}6,6,
{2}5,4/5,
{4}4,4,4,,
{4}3,3,3,,
{4}2,2,1,1,
{4}8,8,1,1,
{1}2x/7x,
{1},
{1},
{1},
E
&inote_3=
(190){1},
{1},
{1}3h[1:1],
{2}4,4/5,
{1}6h[1:1],
{2}5,4/5,
{1}3h[1:1],
{2}4,4/5,
{1}6h[1:1],
{2}5,4x/7x,
{1}5h[2:1]/6h[2:1],
{1}3h[2:1]/4h[2:1],
{1}5h[2:1]/7h[2:1],
{1}2h[2:1]/4h[2:1],
{4}3,3,4,4,
{2}4/5,3/6,
{4}6,6,7,7,
{2}1/8,2/7,
{2}2h[2:1],3h[2:1],
{4}4,4,4,,
{2}7h[2:1],6h[2:1],
{4}5x,5x,5x,,
{2}3h[2:1],2h[2:1],
{4}1,1,1,,
{4}8,8,1,1,
{4}8x,8x,1x/7x,,
{2}7h[2:1],6h[2:1],
{4}5,5,5,,
{2}2h[2:1],3h[2:1],
{4}4x,4x,4x,,
{2}6h[2:1],5,
{2}3h[2:1],4,
{2}1h[4:1]/2h[4:1],7h[4:1]/8h[4:1],
{4}1x/8x,1x/8x,1x/8x,,
{1}2-5[2:1],
{1}6-1[2:1],
{1}2-5[2:1],
{4}6,6,5/7,,
{4}3,3,2,2,
{4}1,1,1/8,,
{1}C1xh[1:1],
{4},,1/8,1/8,
{4}2b/7b,3,3/4,3/4,
{4}5,6,5/6,5/6,
{4}7,7/8,2,1/2,
{4}8b,8b,1b/7b,,
{4}3b/6b,2,1/2,1/2,
{4}8,7,7/8,7/8,
{4}6,5/6,3,3/4,
{2}4h[4:1]/5h[4:1],3h[4:1]/6h[4:1],
{4}1b/8b,,2/4,3,
{4}4/5,6,5/7,6,
{4}4/5,3,2/4,3,
{2}4h[4:1]/5h[4:1],3h[4:1]/6h[4:1],
{4}1b/8b,,5/7,5/7,
{4}6,5,2/4,2/4,
{8}3,3,3,,5,5,5,,
{8}4,4,4,,6,6,6,,
{1}C1f,
{1},
{1}2h[1:1],
{1}3h[1:1],
{1}4h[1:1],
{1}5,
{1}7h[1:1],
{1}6h[1:1],
{1}5h[1:1],
{1}4,
{1}3h[1:1],
{1}2h[1:1],
{1}1h[1:1],
{2}8,2/7,
{4}3,3,3/4,,
{4}6,6,5/6,,
{4}4,4,5,5,
{2}4/5,2x/7x,
{1}1>6[4:5],
{1},
{1}8<3[4:5],
{1},
{4}2,2,1,1,
{4}8,8,2/7,,
{1}C1hf[1:1],
{1},
{8}1x/8x,,2x/7x,,3,3,3,,
{8}4/5,,3/6,,7,7,7,,
{4}2/8,2/8,1/7,1/7,
{4}2/8,3/7,4x/6x,,
{4}3b/4b,2/5,3/4,4/5,
{4}5/6,4/7,5/6,4/5,
{4}3,2/4,6,5/7,
{4}1/8,2/7,3/6,4/5,
{8}2b/7b,,,,7,7,8,,
{8}2,2,1,,3/4,,3/4,,
{8}6,6,5,,3,3,4,,
{4}5/6,4/7,3/8,1/2,
{8}3b/8b,,,,2,2,1,,
{8}7,7,8,,1/6,,1/6,,
{4}2/7,2/7,3/8,3/8,
{8}1/2,1/2,1/2,,7/8,7/8,7/8,,
{1}1b/6b,
{1},
{1},
{1},
E
&inote_4=
(190){1},
{1},
{8}4/6h[2:7],,,,5,,,4,
{4},5,5,4,
{8}4,,,,5,,,4,
{4},5,5,,
{8}3h[2:7]/5,,,,4,,,5,
{4},4,4,5,
{8}5,,,,4,,,5,
{4},4,4,,
{2}4/6h[2:1],B6/B7,
{2}3h[2:1]/5,B2/B3,
{2}4/5h[2:1],B6/B7,
{2}4h[2:1]/5,B2/B3,
{4}B5,B6,B7,B8,
{4}B1,B2,B3,B4,
{8}5,5,5,5,4,4,4,4,
{1}5w1[2:1],
{2}3xh[4:1]/7xh[4:1],2h[4:1]/6h[4:1],
{4}3/7,2/6,3/7,,
{4}2,3,4,5,
{4}6,7,1/8,,
{2}2xh[4:1]/6xh[4:1],3h[4:1]/7h[4:1],
{4}2/6,3/7,2/6,,
{4}7,6,5,4,
{4}3,2,1/8,,
{2}3h[4:1]/7h[4:1],2h[4:1]/6h[4:1],
{4}1/5,4/8,1/5,,
{4}2h[4:1],3h[4:1],4h[4:1],5h[4:1],
{4}6h[4:1],7,1/8,,
{2}2h[4:1]/6h[4:1],3h[4:1]/7h[4:1],
{4}4/8,1/5,4/8,,
{4}6h[4:1],5h[4:1],4h[4:1],3,
{4}1/8,4/5,2b/7b,,
{2}2x-5[4:1],1x-6[4:1],
{2}3x-8[4:1],4x-7[4:1],
{2}8x-3[4:1],7x-4[4:1],
{2}5x-2[4:1],6x-1[4:1],
{4}2,1,8,7,
{8}2,2,7,7,1x/8x,1x/8x,1x/8x,,
{2}2-4[8:1]/4h[4:1],5h[4:1]/7-5[8:1],
{4}1b,1b,1b,3b/7b,
{16}2/6,,,,4/5,,,,2h[16:3],,,3h[16:3],,,4,,
{16}4-2[8:1],,,,1,,,,7h[16:3],,,6h[16:3],,,5,,
{16}5-7[16:1],,,,8,,,,2h[16:3],,,3h[16:3],,,4,,
{8}4/5,,7/8,7/8,,1/2,1/2,,
{16}4/5,,,,1b,,1b,,7h[16:3],,,6h[16:3],,,5,,
{16}5-7[8:1],,,,8,,,,2h[16:3],,,3h[16:3],,,4,,
{4}4-1[8:1],8-5[8:1],3,2/4,
{4}B6/E6/E7,B3/E3/E4,C1f/B2/B7,,
{8}1b/8b,,4/5,,3/6,,2,2,
{8}4,4,3,,1/5,,7,7,
{8}5,5,6,,4/8,,6,6,
{8}4,4,5,5,3h[8:1],5h[8:1],4h[8:1],6,
{8}5b/7b,,2/3,,1/5h[4:1],,3,3,
{8}4,4,2,2,1/4,,6,6,
{8}5,5,7,7,1,1,8,8,
{16}2/7,,,,4/5,,,,1,8,1,8,1,,,,
{1}2b/7b,
{2}E6,E4,
{2}6h[2:7],B4/B5,
{2},B6/B7,
{2},B2/B3,
{4},,5,5,
{2}3h[2:7],B4/B5,
{2},B2/B3,
{2},B6/B7,
{4},,4,4,
{2}4/5h[2:1],B6/B7,
{2}4h[2:1]/5,B2/B3,
{2}5/6h[2:1],B6/B7,
{2}3h[2:1]/4,B2/B3,
{4}E5,E6,E7,E8,
{4}E1,E2,E3,E4,
{1}5<4[4:3],
{1}C1hf[2:1],
{16}1h[16:3],,,2h[16:3],,,3h[16:3],,,4,,,2/5,,,,
{16}8h[16:3],,,7h[16:3],,,6h[16:3],,,5,,,4/7,,,,
{16}4h[16:3],,,3h[16:3],,,2h[16:3],,,1,,,3/8,,,,
{16}5h[16:3],,,6h[16:3],,,7h[16:3],,,8,,,1/6,,,,
{4}1/8,6/7,4/5,2/3,
{16}1,,1,,8,,8,,1x,8x,1x,8x,1xs5[2:1],,,,
{4},,,C1f,
{4}8b,8b,8b,2b/6b,
{8}7-4[8:1],,8-3[8:1],,6h[4:1],,5,5,
{8}5,,1-5[8:1]/7,,8b,8b,8b,,
{4}6-3[8:1],2-7[8:1],6-3[8:1],1b,
{8}2x/4x,,7x/8x,7x/8x,,3x/4x,3x/4x,3x/4x,
{8}2xh[4:1]/5x,,1b,1b,3-8[8:1],,7,,
{16}5/6,,,,1/2,,,,3xh[8:1]/5xh[8:1],,,3xh[8:1]/5xh[8:1],,,3x/5x,,
{16}6-1[8:1],,,,2-5[8:1],,,,7xh[8:1],,,7xh[8:1],,,7x,,
{4}B3/E3/E4,B6/E6/E7,C1f/B2/B7,,
{8}1b/8b,,2,2,5,5,1,1,
{8}4,4,2,2,1/3,1/3,1/3,,
{16}2h[16:3],,,4h[16:3],,,5h[16:3],,,7h[16:3],,,8,,,,
{8}1,1,8,8,E2,E8,E4,E6,
{8}C1f,,7,7,4,4,8,8,
{8}5,5,7,7,5/8,5/8,5/8,,
{8}4,5,6,7,8,1,2,3,
{16}4h[8:1]/5h[8:1],,,,2h[8:1]/7h[8:1],,,,8,1,8,1,8-4[8:1],,,,
{1},
{1},
{1},
E
&inote_5=
(190){1},
{1},
{8}3h[2:1]/5,,,,B6,,,3h[8:5]/4,
{4},4,E6,,
{8}4/6h[2:1],,,,B3,,,5/6h[8:5],
{4},5,E4,,
{8}2h[2:1]/4,,,,C1,,,2h[8:5]/3,
{4},3,C1,,
{8}5/7h[2:1],,,,C1,,,6/7h[8:5],
{4},6,C1,,
{4}3h[2:1]/4,5,6h[2:1],5,
{4}4h[2:1],7,8h[4:1],5,
{4}5/6h[2:1],4,3h[2:1],4,
{4}5h[2:1],2,1h[4:1],4,
{8}3/5,4,5,,4/6,5,4,,
{8}2/5,3,5,,4/7,6,4,,
{8}2/7,2,5,5,4,4,7,7,
{16}1/8,,1,8,1,,2/7,,4,5,4,,2b>5[4:1]/7b,,,,
{4}1,7<3[4:1],8,1-5[4:1],
{4}5-1[4:1],8,5,2b/7b-4[4:1],
{4}4-1[4:1],1-6[4:1],6-3[16:3],3>7[4:1],
{4}7>3[4:1],4,7,3b<6[4:1]/6b,
{4}1,8<4[4:1],3,2-6[4:1],
{4}6-2[4:1],1,6,1b/7b-2[4:1],
{4}2-5[4:1],5-8[4:1],8-3[16:3],3<7[4:1],
{4}7<3[4:1],2,7,2b<7[4:1]/6b,
{4}4,5<1[4:1],3,4-8[4:1],
{4}8-4[4:1],5,8,3b/6b-1[4:1],
{4}1-4[4:1],4-7[4:1],7-2[16:3],2q7[4:1],
{4}7p2[4:1],1,7,2b<7[4:1]/6b,
{4}4,5<1[4:1],3,2-6[4:1],
{4}6-2[4:1],1,6,1b/7b-2[4:1],
{4}2-5[4:1],5-8[4:1],8-3[16:3],3p6[4:1],
{4}6q3[4:1],2,6,2b/7b,
{8}4h[4:1]/5,,8,7,5/6h[4:1],,1,2,
{8}3h[4:1]/4,,8,7,5/6h[4:1],,1,2,
{8}3h[4:1]/5,,8,7,4/6h[4:1],,8,1,
{8}2h[4:1]/4,,1,8,5/7h[4:1],,8,1,
{8}2/4,5,6,7,8,1,2,3,
{16}4/5,,4/5,,3/6,,3/6,,7,2,7,2,8,1,8,,
{12}7x,5x,6x,2x,4x,3x,6x,5x,8x,3x,4x,1x,
{8}E7,,E3,,C1f,C1f,C1f,C1f,
{16}1b-4[8:1]*-6[8:1],,,,1b,,,,2/7,,8,5,,5,8,,
{16}4-1[8:1]/6-1[8:1],,3/7,,4/6,,,,2/7,,1,4,,4,1,,
{16}3b/7b,,,,E3,,E7,,1/8,,7,5,,5,7,,
{8}2/5-2[8:1],,1,1-6[8:1],,8,8,,
{16}2/7,,,,3b/4b,,5b/6b,,2/7,,8,5,,5,8,,
{16}4/7-3[8:1]*v1[8:1],,,,,,,,2/7,,1,4,,4,1,,
{16}5/6,,7,,3/4,,2,,4x/5x,,,1x/2x,,,7x/8x,,
{16}6,5,6,,3-7[8:3]*s7[8:3],4,3,,,,,,,,,,
{8}1b/8b,,2/7h[4:1],,5h[4:1],,6,7,
{8}8h[2:1],E7,E4,E1,2h[4:1],1,1,8,
{8}7h[2:1],E6,B3,E1,2h[4:1],4,4,5,
{16}3/7,,6,5,7,,3,4,2,,1/8,,2/7,,3/6,,
{8}4b/5b,,2h[4:1]/7,,4h[4:1],,3,2,
{8}1h[2:1],E3,E6,E1,7h[4:1],8,8,1,
{8}2h[8:1],4,7h[8:1],5,1h[8:1],4,8h[8:1],5,
{32}1,,,,1,,,,8,,,,8,,,,1x,2x,3x,4x,5x,6x,7x,8x,1w5[4:3],2x,3x,4x,5x,6x,7x,8x,
{1},
{1},
{8}4h[2:1]/6,,,,E3,,,5h[8:5]/6,
{4},6,B3,,
{8}3/5h[2:1],,,,E7,,,3/4h[8:5],
{4},3,B6,,
{8}5h[2:1]/7,,,,C1,,,6h[8:5]/7,
{4},7,C1,,
{8}2/4h[2:1],,,,C1,,,2/3h[8:5],
{4},2,C1,,
{8}5/7h[2:1],,B6,,B8/E8,,,2h[8:5]/4,
{4},B4/E4,B1/E2,,
{8}5/7h[2:1],,B6,,B8/E8,,,2h[8:5]/4,
{4},B4/E4,B1/E2,,
{8}4/6,5,4,,3/5,4,5,,
{8}4/7,6,4,,2/5,3,5,,
{8}3/6,6,8,8,1,1,3,3,
{16}4/5,,5,4,5,,3/6,,8,1,8,,2b/7b,,,,
{16}4/6,,,6,5,,4/6,,3h[4:1],,4,,4,,,,
{16}3/5,,,3,4,,3/5,,6h[4:1],,5,,5,,,,
{16}4/6,,,6,5,,4/6,,3h[4:1],,1,,1,,,,
{16}3/5,,,3,4,,3/5,,6h[4:1],,8,,8,,,,
{8}1/8,2,3,4,5,6,2/7,3/6,
{16}5,4,5,4,6,3,6,3,7,2,7,2,8,1,8,,
{32}E2,B2,B3,E4,,,,,E8,B7,B6,E6,,,,,C1hf[4:1],,,,,,,,,,,,,,,,
{16}7b/8b,,,,1b/2b,,,,8xh[32:1],8xh[32:1],8xh[32:1],8xh[32:1],8xh[32:1],8xh[32:1],8xh[32:1],8xh[32:1],
{16}8x-3[8:1]*-5[8:1],,,,8,,,,6,5,7,5,6,,3,4,
{16}2,4,3,,2v5[8:1],,1v6[8:1],,2x,,1x,,2b,,,,
{32}7x,6x,5x,4x,,,,,1x,8x,7x,6x,,,,,8x,7x,6x,5x,,,,,2b/7b,,,,,,,,
{8}1b/8b,,3b/4b,5b-2[8:1]/6b-1[8:1],,5b/6b,,3b/8b,
{8}7x-2[8:1]*-4[8:1],,7,,3x/5x,2xh[4:1]/6xh[4:1],,,
{16}1p4[8:1]/8<5[8:1],,,,,,,,3x/6x,,,2x/4x,,,5x/7x,,
{16}1/8,,3,4,2,,6,5,7,,,1x/8x,,,2x/7x,,
{16}6,5,6,,3-7[8:3]*z7[8:3],4,3,,,,,,,,,,
{8}1b/8b,,B7/E7,B3/E3,B5/E5,B1/E1,B8/E8,B4/E4,
{8}7h[2:1],E6,E1,E4,1h[4:1],5,5,5,
{16}4xh[8:1]/6xh[8:1],,,5xh[8:1]/7xh[8:1],,,6xh[8:1]/8xh[8:1],,,1xh[16:3]/7x,,,8,,8,,
{8}2/7-2[8:1],1/8,,,4/5,3/6,2b/7b,,
{8}4b/5b,,B2/E2,B6/E6,B4/E4,B8/E8,B1/E1,B5/E5,
{8}2h[2:1],E4,E1,E6,8h[4:1],E7,E4,E2,
{8}5,5,4,4,4/5,3/6,2/7,2/7,
{32}1/8,,,,6,,5,,7,,,,3,,4,,2,,1,,2,,1,,2x,3x,4x,5x,6x,7x,8x,1x,
{1}2b/6b,
{1},
{1},
{1},
E
