&title=青空のラプソディ
&wholebpm=135
&artist=fhána
&des=小鳥遊さん
&shortid=11114
&genre=POPSアニメ
&cabinet=DX
&version=maimai DX PLUS
&chartconverter=Neskol
&lv_2=2
&des_2=
&lv_3=6
&des_3=
&lv_4=9+
&des_4=サファ太
&lv_5=12
&des_5=小鳥遊さん
&des_6=
&inote_2=
(135){1},
{1},
{1},
{1},
{1},
{1},
{1}1,
{1}1,
{1}8,
{1}1/8,
{1}1x/8x,
{1}2,
{1}2,
{1}3h[2:1],
{2}3,3,
{1}4,
{1}4,
{1}5h[2:1],
{2}5,5,
{2}4,4,
{1}B5,
{1}B6,
{1}B7,
{1}B1/B8,
{1}B2,
{1}B3,
{1}B4/B5,
{1}B3/B6,
{1}C1hf[1:1],
{1},
{2}8,8,
{4}8,8,8,,
{2}7,7,
{1}7h[2:1]/8h[2:1],
{2}6,6,
{4}5,5,5,,
{4}4,4,4,,
{1}4b/5b,
{2}4,4,
{4}4,4,4,,
{2}3,3,
{1}3h[2:1]/4h[2:1],
{2}2,2,
{4}1,1,1b,,
{1}8x-4[4:3],
{1},
{1}1x-5[4:3],
{1},
{2}8,8,
{4}1,1,1/8,,
{4}8,8,1/8,1xh[2:1]/8xh[2:1],
{1},
{1},
{1},
E
&inote_3=
(135){1},
{1},
{2}B7,C1,
{1}B3,
{2}B2,C1,
{1}B6,
{2}B4,B3,
{2}B2,B1,
{2}B8,B7,
{1}C1hf[1:1],
{1},
{4}6,5,6,5,
{4}4,3,3x/4x,,
{4}3,4,3,4,
{4}5,6,5x/7x,,
{4}6,5,6,5x/6x,
{4}4,3,2x/4x,,
{4}3,4,3,3x/4x,
{4}5,6,5x/7x,,
{4}7,1x/8x,2x/7x,,
{1}8<5[2:1],
{1}4>1[2:1],
{1}8-4[2:1],
{4}3x,3x,3x,,
{1}2-5[2:1],
{1}6-1[2:1],
{4}2,2,1,1,
{4}1x/8x,2x/7x,3x/6x,,
{1}4-1[2:1]/5-8[2:1],
{1}2b/7b,
{4}2,1x/2x,2,1x/2x,
{4}3,3x/4x,2x/5x,,
{4}7,7x/8x,7,7x/8x,
{4}6,5x/6x,4x/7x,,
{2}6h[2:1],5h[2:1],
{2}4h[2:1],3x,
{4}2,2,1,1,
{4}8x,1x/8x,2x/7x,,
{4}7,7x/8x,7,7x/8x,
{4}6,5x/6x,4x/7x,,
{4}2,1x/2x,2,1x/2x,
{4}3,3x/4x,2x/5x,,
{4}1,2x/8x,1,2x/8x,
{4}1,1x/8x,2b/7b,,
{4}2,2,1x/2x,1x/2x,
{4}8,7,7x/8x,7x/8x,
{4}1,1,1x/8x,2x/7x,
{1}3b/6b,
{2}E5,E4/E6,
{2}B3/B6,B2/B7,
{2}E2/E8,C1hf[4:3],
{1},
{1},
{1},
E
&inote_4=
(135){1},
{8},,,,,,3x,3x,
{4}3xh[4:7],4,,5,
{4},4,,5x,
{4}4x/6xh[4:7],4,,5,
{8},,4,,,,3x,3x,
{4}3xh[4:7],4,,6,
{4},4,,4x,
{4}2xh[4:1]/5xh[4:1],,6,7,
{16}2xh[16:1]/8xh[16:1],,,2xh[16:1]/8xh[16:1],,,1xh[16:1]/7xh[16:1],,,1xh[16:1]/7xh[16:1],,,2x/6x,,,,
{16}1xh[16:1]/7xh[16:1],,,1xh[16:1]/7xh[16:1],,,2xh[16:1]/8xh[16:1],,,2xh[16:1]/8xh[16:1],,,3x/7x,,,,
{8}3/5,7,4,6,3/5,7,4,6,
{8}3/5,7,4,6,3/5,2,1/8,,
{8}4/6,2,5,3,4/6,2,5,3,
{8}4/6,2,5>2[4:1]*<8[4:1],,,,,,
{8}4/6,2,5,3,4/6,2,5,3,
{8}4/6,2,5,3,4/6,7,1/8,,
{8}3/5,7,4,6,3/5,2,1-5[4:1]/8,,
{4},6h[4:1],5,4/7,
{8}3/5,2,1/8,,2x/7x,,4/5,,
{4}3/6h[2:1],,B5,C1,
{4}2h[4:1]/7h[4:1],,5/6,4/5,
{4}3h[2:1]/4,,B4,C1,
{4}2h[4:1]/7h[4:1],,1/2,1/8,
{4}7h[2:1]/8,8,6,4/5,
{4}3h[2:1]/4,4,2,1/8,
{8}2h[4:1]/4,4,4,,5/7h[4:1],5,5qq1[8:5],,
{4},,,2/4pp8[8:5],
{1},
{4}C1f/B2/B7,,1x/8x,3b/6b,
{16}2h[16:3],,,1,,,3/8,,7h[16:3],,,8,,,1/6,,
{16}2h[16:3],,,1,,,3/8,,3b/8b,,,,5/6,,,,
{2}3-1[8:1]/4h[4:1],7-5[8:1]/8h[4:1],
{4}3>6[8:3]/4,,,4x/5x,
{4}3h[4:1]/4,1,3/8,4/7,
{4}5/6h[4:1],8,1/6,2x/7x,
{8}5/6,7,8,,3/4,2,1,,
{4}C1f/B2/B3/B6/B7,,1x/8x,3x/6x,
{16}7h[16:3],,,8,,,1/6,,2h[16:3],,,1,,,3/8,,
{16}7h[16:3],,,8,,,1/6,,1x/6x,,,,4/5,,,,
{16}6h[16:3],,,5,,,4/7,,3h[16:3],,,4,,,2/5,,
{4}2-5[8:1]/5,6<3[4:1],4x,,
{2}1x-4[8:1]/5x-8[8:1],4x-1[8:1]/8x-5[8:1],
{2}1x>4[8:1]/5x<8[8:1],2b/6b,
{8}3,4,2h[4:1]/5,,1,,3/8,,
{8}6,5,4/7h[4:1],,8,,3/6,,
{2}1-5[8:1]/2-4[8:1],7-5[8:1]/8-4[8:1],
{4}3x/6x,1/2,7/8,1/6,
{8}2/7,,3/4,,5/6,,4x/5x,3x/6x,
{8}2x/7x,,1/2,,7/8,6,1/5,,
{4}4/7h[4:1],8,1pp3[4:1]/8<4[4:1],,
{4},C1f/E2/B2/B7,,,
{1},
{1},
{1},
E
&inote_5=
(135){1},
{8},,,,,,4x/5x,4x/5x,
{4}3b>4[4:5]/7b,C1,,C1,
{4},C1,,3x/5x,
{4}2b/6b<5[4:5],C1,,C1,
{8},,C1,,,,4x/5x,4x/5x,
{4}3b>4[4:5]/7b,E3,,E1,
{4},E7,,3x/5x,
{4}2b/6b<3[2:1],E1,,E5,
{16}6,5x,,3,4x,,7,5x,,2,4x,,4/5,,4/5,,
{16}2,1x,,7,8x,,3,1x,,6,8x,,2b/7b,,2b/7b,,
{16}3/5,,4/6,,3/5,,6,5,,4,5,,4/7,,3,,
{16}3/5,,4/6,,3/5,,6,5,,4,5,,4/7,,3,,
{16}3/5,,4/6,,3/5,,6,5,,4,5,,4/6,,1,8,
{16}1,,3,3,,4/6,,3/5,,6,6,,4/5,,3/6,,
{16}4x/7x,,3/5,,4/6,,3,4,,5,4,,2/5,,6,,
{16}4/6,,3/5,,4/6,,3,4,,5,4,,2/5,,6,,
{16}4/6,,3/5,,4/6,,3,4,,5,4,,3/5,,8,1,
{16}8,,6,6,,3/5,,4/6,,3,3,,5/6,,4/5,,
{16}3/4,,5,4,,5/6,,4/7h[16:3],,,8,,1,,2,,
{4}3h[2:1],B3/B4,8h[2:1],B6/B7,
{8}5,5pp2[8:3],,7h[8:3],,,,,
{4}6h[2:1],B5/B6,1h[2:1],B2/B3,
{8}4,4qq8[8:3],,2h[8:3],,,,,
{4}1h[2:1],B2/B3/E3,8h[4:1],B6/B7/E7,
{8}4-1[8:1]/5-8[8:1],,,,1/8,2/7,3/6,,
{8}3,3,2/4,3,6,6,5/7,6,
{16}3,4x,,6,5x,,2,4x,,7,5x,,4/5,,4/5,,
{16}7,8x,,2,1x,,6,8x,,3,1x,,4/5,,2b/7b,,
{16}1/8,,2/7,2/7,,3/6,3xh[4:1]/6xh[4:1],,,,,,C1f/B2/B7,,,,
{16}1x-5[16:3]/8x,,,5>2[8:1],,,7,,8-4[16:3],,,4<7[8:1],,,2,,
{16}1-5[16:3],,,5>2[8:1],,,7,,8,,,,2/6,,5,,
{16}5-1[16:3],,,1<6[8:1],,,3,,4-8[16:3],,,8>3[8:1],,,6,,
{8}5pp8[2:1],,E4,,E3,,E2,3,
{16}2-6[16:3],,,6>3[8:1],,,8,,7-3[16:3],,,3<6[8:1],,,1,,
{16}2-6[8:1],,,7,,,8,,4h[4:1]/8h[4:1],,,,,,5,,
{16}4-8[16:3],,,8>3[8:1],,,6,,5-1[8:1],,,1<6[8:1],,,3,,
{16}2xh[8:1],,,1xh[8:1]/5xh[8:1],,,3xh[8:1]/7xh[8:1],,,2xh[8:1]/5xh[8:1],,,C1f,,,,
{16}2/4<2[4:1],,,8,,,3,,5>7[4:1],,,1,,,6,,
{16}4<2[4:1],,,8,,,3,,5,,,,3/8,,1/2,,
{16}1<3[4:1]/2,,,6,,,2,,8>6[4:1],,,3,,,7,,
{8}1qq6[2:1],,E3,,E4,,E5,5/6,
{16}5<3[4:1]/6,,,8,,,5,,4>6[4:1],,,1,,,4,,
{16}5<3[4:1],,,8,,,5,,C1f,,,,4b/8b,,,,
{16}1x/8x,,1x/8x,,3,4,2,6h[16:7],,5,5,,C1,,E5,,
{16}1x/8x,,1x/8x,,6,5,7,3h[16:7],,4,4,,C1,,E5,,
{16}1x/8x,,1x/8x,,3,4,2,6h[16:7],,5,5,,C1,,E5,,
{4}2x/8x-3[8:1],1-5[8:1]/8,1/7-4[8:1],2-5[8:1]/7,
{8}2/6-1[8:1],,3-8[8:1]/6,,3/7,,1x/8x,1x/8x,
{16}2b/7b,,3/5,,4/6,,3,4,,6,5,,3/4,,1/2,,
{32}3/5,,,,4/6,,,,3/4,,,,5/6,,,,4,,5,,4,,5,,4x,5x,6x,7x,8x,1x,2x,3x,
{48}4w8[8:1],,,,,,,,,,,,,B4,C1f,B8,,,,,,,,,,,,,,,,,,,,,,,,,,,,,,,,,
{1},
{1},
{1},
E
