&title=封焔の135秒
&wholebpm=200
&artist=大国奏音
&des=7.3GHz vs Phoenix
&shortid=11102
&genre=maimai
&cabinet=DX
&version=maimai DX PLUS
&chartconverter=Neskol
&lv_2=5
&des_2=
&lv_3=8+
&des_3=
&lv_4=12+
&des_4=はっぴー
&lv_5=14+
&des_5=7.3GHz vs Phoenix
&des_6=
&inote_2=
(200){1},
{1},
{1},
{1},
{1},
{1},
{1},
{1},
{1},
{1}1,
{1},
{1}1,
{1},
{1}8,
{1},
{1}8h[2:3],
{1},
{1}1h[2:3]/8h[2:3],
{1},
{2}1,1,
{1}1,
{2}2,2,
{1}2,
{2}3,3,
{1}3,
{2}4,4,
{1}4/5,
{2}5,5,
{1}5,
{2}6,6,
{1}6,
{2}7,7,
{2}8,8,
{2}1,1,
{1}1/8,
{4}7,7,7,,
{4}6,6,6,,
{4}5,5,5,,
{2}4/5,4/5,
{4}3,3,3,,
{4}2,2,2,,
{4}1,1,1,,
{1}1/8,
{4}2,2,2,,
{4}3,3,3,,
{4}4,4,4,,
{2}4/5,4/5,
{4}6,6,6,,
{4}7,7,7,,
{4}8,8,8,,
{1}1b/8b,
{1}1x/2x,
{1}1x/2x,
{1}7x/8x,
{1}7x/8x,
{1}5x/6x,
{1}5x/6x,
{1}3x/4x,
{1}3x/4x,
{1}2-6[4:7],
{1},
{1},
{1},
{1}7-3[4:7],
{1},
{1},
{1},
{1}B2,
{1}B3,
{1}B4,
{1}B5,
{1}B6,
{1}B7,
{1}B1/B8,
{1}B2/B7,
{1}C1hf[1:2],
{1},
{1},
{1},
{4}2,2,2,,
{4}3,3,3,,
{4}4,4,4,,
{4}5,5,4/5,,
{4}6,6,5,5,
{4}4,4,3/5,,
{4}3,3,4,4,
{4}5,5,4/6,,
{4}7,7,7,,
{4}6,6,6,,
{4}5,5,5,,
{4}4,4,4/5,,
{4}3,3,2,2,
{4}1,1,1/8,,
{1}7xh[8:3]/8xh[8:3],
{1}5xh[8:3]/6xh[8:3],
{1}3xh[8:3]/4xh[8:3],
{1}1xh[8:3]/2xh[8:3],
{4}8,8,1,1,
{4}8,8,1x/8x,,
{4}1,8,1,8,
{2}1/8,1/8,
{1}2b/7b,
{1}2,
{1}1,
{1}8h[1:1],
(160){1},
{1}B1/B8,
{1}B2/B7,
{1}C1xh[1:4],
{1},
{1},
{1},
{1},
{1},
{1},
E
&inote_3=
(200){1},
{1}6h[1:1],
{1}5,
{1}3h[1:1],
{2}4,4/5,
{1}6h[1:1],
{1}5h[1:1],
{1}4h[1:1],
{2}3,3,
{1}2x-5[4:3],
{1},
{1}7-4[4:3],
{1},
{1}2-6[4:3],
{1},
{1}7<2[4:5],
{1},
{1}1h[2:3],
{1}8h[2:1],
{4}2b/7b,2/7,3,3/4,
{4}6,5/6,7/8,1/6,
{8}2x/5x,,2/5,,3,3,4,,
{8}6,6,5,,7,7,8,,
{4}1x/6x,,5/7,6,
{4}4/5,3,2/4,1,
{1}8-4[2:1],
{1}3-8[2:1],
{4}1b/7b,7,5/6,4/7,
{4}3/4,2/5,1/8,2/7,
{8}3x/6x,,3/6,,2,2,1,,
{8}7,7,8,,6,6,5,,
{4}4x/7x,,3/5,2,
{4}4/6,7,4/5,3/6,
{1}2V48[4:3]/7V51[4:3],
{2},2b/7b,
{4}3h[4:1],4,2/5,3/4,
{4}6h[4:1],5,4/7,,
{4}7h[4:1],8,1/6,7/8,
{4}2h[4:1],1,3x/8x,,
{8}3,3,4,4,3,,2/5,,
{8}6,6,5,5,6,,4/7,,
{8}7,7,7/8,,2,2,1/2,,
{4}7/8,1/6,2x/5x,,
{4}6h[4:1],5,4/7,5/6,
{4}7h[4:1],8,1/6,1/6,
{4}2h[4:1],1,3/8,1/2,
{4}3h[4:1],4,2x/5x,,
{8}2,2,1,1,2,,3/8,,
{8}7,7,8,8,7,,1/6,,
{8}7,7,1,1,8,8,2,,
{2}1h[4:1]/8h[4:1],2b/7b,
{1}3-8[2:1],
{1}7-3[2:1],
{1}2-6[2:1],
{1}7-4[2:1],
{1}3>8[2:1],
{1}7<4[2:1],
{1}1-6[2:1]/2-5[2:1],
{4}4x/7x,4x/7x,4x/7x,,
{1}C1f/B2/B7,
{1},
{1},
{1},
{2}B6,B5,
{2}B4,B3,
{1}C1xh[1:1],
{1},
{2}B4/B5,B3/B6,
{1}B2/B7,
{2}B3/B6,B2/B7,
{1}B1/B8,
{1}B6/B7/E8,
{1}B2/E2/B3,
{1}B5/B6/E7,
{1}B3/E3/B4,
{1}5h[1:2],
{1}C1hf[1:1],
{1},
{8},,,,,1x,1x,,
{8}2/8,,3/7,,6,6,4/6,,
{8}3/5,,2/6,,7,7,1/7,,
{4}5/6,2/7,3/4,2/7,
{4}5b/6b,1b/8b,2b/7b,,
{4}5-8[4:1],,1,1,
{4}1-5[4:1],,6,6,
{2}6-3[4:1],2-6[4:1],
{4}7,7,1b/6b,,
{8}5/6,,4/7,,1/2,1/2,1/2,,
{8}7/8,,1/6,,3/4,3/4,3/4,,
{4}3/6,7/8,3/6,1/2,
{4}3b/4b,5b/6b,7b/8b,1b/6b,
{8}7,7,1,1,8,8,2,2,
{4}1b/2b,3b/4b,5b/6b,7b/8b,
{8}1-5[4:1],,,,6,6,6,,
{8}7-4[4:1],,,,3,3,3,,
{8}2-6[4:1],,,,7,7,7,,
{8}8-4[4:1],,,,3,3,3x,,
{8}5,5,3,3,8,8,1,1,
{8}7,7,4,4,5,5,3,3,
{8}4/5,4/5,3/6,3/6,2/7,2/7,1/8,1/8,
{2}1b/8b,3b/6b,
{1}C1xh[1:2]/B2/B3/B6/B7,
{1},
{1},
{1},
(160){1},
{2}E4,B4,
{2}B5,E6,
{1}6-3[2:7],
{1},
{1},
{1},
{1},
{1},
E
&inote_4=
(200){1},
{2}E6,E5,
{1}3h[1:2],
{2}E4,E5,
{1}6h[1:2],
{2}E6,E5,
{2}3h[1:1],B4,
{2}6h[1:1],B5,
{1}3,
{1}2h[8:7]/4h[8:7],
{1}1h[8:7]/4h[8:7],
{1}3h[8:7]/4h[8:7],
{1}2h[4:3]/4h[4:3],
{1}5h[8:7]/7h[8:7],
{1}5h[8:7]/8h[8:7],
{1}5h[8:15]/6h[8:15],
{1},
{4}4h[4:3]/7,,,5>6[4:3],
{1},
{8}3b/7b,,4/6,,3,3,1,1,
{8}8,8,6,6,5,5,4/5,,
{8}2b/6b,,3/5,,6,6,8,8,
{8}1,1,3,3,4,4,4/5,,
{8}3b/7b,,4/6,,7,7,5,5,
{8}4,4,2,2,1,1,1/8,,
{8}7h[2:1],,6,,5h[4:1],,3,3h[4:1],
{8},1,1,,8,,1/7,,
{8}2b/6b,,3/5,,6,6,1,4,
{8}3,3,8,5,6,6,4/6,,
{8}3b/7b,,4/6,,3,3,8,5,
{8}6,6,1,4,3,3,3/4,,
{8}2b/6b,,3/5,,6,6,1,4,
{8}2,2,8,5,6,6,5/6,,
{4}4/7,2/5,3/7,2/6,
{8}1,2,3,4,5,6,7,8,
{16}8h[16:3],,,6h[16:3],,,5h[16:3],,,3h[16:3],,,4-8[8:1],,,,
{4}2,3-1[8:1],6,6,
{16}1h[16:3],,,3h[16:3],,,4h[16:3],,,6h[16:3],,,5-1[8:1],,,,
{8}7,,6-8[8:1],,3,,3,2,
{8}1,1,6,4,7,5,4,3,
{8}8,8,3,5,2,4,5,6,
{8}1,1,6,5,7,5,4,2,
{16}1,8,1,8,1>6[4:1],8,1,8,,,,,1x,,,,
{16}8h[16:3],,,6h[16:3],,,5h[16:3],,,3h[16:3],,,4<7[8:1],,,,
{8}2,,3>1[8:1],,6,,7,7,
{16}1h[16:3],,,3h[16:3],,,4h[16:3],,,6h[16:3],,,5>2[8:1],,,,
{8}7,,6<8[8:1],,3,,3,2,
{8}1,1,6,4,6,5,3/4,2,
{8}8,8,3,5,3,4,5/6,7,
{8}1,1,6,4,7,5,3/4,2,
{16}1,8,1,8,1w5[4:1],8,1,8,,,,,,,,,
{16}5h[4:1]/7h[4:1],,,,,,5/7,,8,1,8,1,8,,,,
{16}2h[4:1]/4h[4:1],,,,,,2/4,,1,8,1,8,1,,,,
{16}4h[4:1]/6h[4:1],,,,,,4/6,,8,1,8,1,8,,,,
{16}3h[4:1]/5h[4:1],,,,,,3/5,,1,8,1,8,1,,,,
{16}1h[4:1]/6h[4:1],,,,,,1/6,,5,4,5,4,5,,,,
{16}3h[4:1]/8h[4:1],,,,,,3/8,,4,5,4,5,4,,,,
{16}1h[4:1]/7h[4:1],,,,,,1/7,,5,4,5,4,5,,,,
{24}2h[4:1]/8h[4:1],,,,,,,,,2/8,,,3x,,4x,,2x,,6x,,5x,,7x,,
{1}1>7[4:9],
{1},
{1}3<1[4:9],
{1},
{1}5<3[4:9],
{1},
{1}7>5[4:9],
{1},
{12}1,,,1,,,1,,,1,8,1,
{12}8,,,8,,,8,,,8,4,8,
{12}4,,,4,,,4,,,4,5,4,
{12}6,5,6,3,4,3,6,5,7,3,4,2,
{12}8,,,8,,,8,,,8,1,8,
{12}1,,,1,,,1,,,1,5,1,
{12}5,,,5,,,5,,,5,4,5,
{12}4,,,4,,,4,,,4,5,4,
{8}6,6,2,2,7,7,4>5[4:3],,
{1},
{1}1b,
{4},,,3b/6b,
{8}1-5[8:1],,7-3[8:1],,2,2,1/4,,
{8}2,2>6[4:1],,7,7,,4/8b,,
{8}7-3[8:1],,1-5[8:1],,8,8,1,1,
{4}5<8[8:1],1>4[8:1],5,3b/7b,
{8}8h[1:1],,6,6,5,4,3,2,
{16}2h[16:3],,,3h[16:3],,,4,,4,,,,3/5,,,,
{16}2/6,,,3,4,,2,,3/7,,,6,5,,7,,
{8}1x/8x,1x/8x,2x/7x,3x/6x,4x/5x,,3b/6b,,
{8}8-4[8:1],,2-6[8:1],,7,7,5/8,,
{8}7,7<3[4:1],,2,2,,1b/5,,
{8}2-6[8:1],,8-4[8:1],,1,1,8,8,
{4}4>1[8:1],8<5[8:1],4,2b/6b,
{8}1h[1:1],,3,3,4,5,6,7,
{4}8,6/7,4/5,2-7[8:1]/3-6[8:1],
{8},,,3/5,1,8,6-3[8:1]/7-2[8:1],,
{8},,,4/6,8,1,2-7[8:1]/3-6[8:1],,
{8},,,3/5,1,8,6-3[8:1]/7-2[8:1],,
{24},,,,,,,,,2/7,,,1x/8x,,1x/8x,,1x/8x,,1x/8x,,,,,,
{16}2,,2/4,,6,,4/6,,3,4,3,,2,,1/8,,
{16}7,,5/7,,3,,3/5,,6,5,6,,7,,1/8,,
{16}4,5,4,5,4,5,4,5,4,3,2,1,8,7,6,5,
{2}4x>1[4:1],5x<8[4:1],
{1}C1f,
{1},
{1},
{1},
(160){1},
{1}E1,
{1}C1,
{1}E5,
{1},
{1},
{1},
E
&inote_5=
(200){1},
{32}3,,,,,,,,4,,,,,,,,5,,,,,,,,E7,B6,,,,,,,
{8}4h[4:3],,,,,,5,4,
{4}6,5,4,3,
{8}4h[2:1],,5,,6,,4,5,
{4}4/6,5,3/4,3,
{4}3/4,5,4/6,6,
{4}5/6,4,3/5,2,
{32}2/5h[4:1],,,,,,,,E3,B3,B4,,,,,,6,,,,6,,,,5,,,,5,,,,
{4}4/8<5[2:1],3,2,1,
{4}1>4[2:1]/5,6,7,8,
{4}4/8<5[2:1],3,2,1,
{1}1-5[2:1]/5,
{4}4>1[2:1]/8,7,6,5,
{4}1/5<8[2:1],2,3,4,
{1}4pp2[4:5]/8pp6[4:5],
{1},
{1}5w1[8:3],
{12}7,5,6,2,4,3,8,6,7,1,3,2,
{8}3b-8[8:1]/7b-4[8:1],,,,2/6,2,2/8,2,
{8}2/4,2,2/6,2,2/8,2,C1f/2,,
{8}2b-5[8:1]/6b-1[8:1],,,,3/7h[16:1],7h[16:1],1/7h[16:1],7h[16:1],
{8}5/7h[16:1],7h[16:1],3/7h[16:1],7h[16:1],1/7h[16:1],7h[16:1],C1f/7,,
{8}4b-1[8:1]/8b-5[8:1],,,,2b/6,2b,2b/4,2b,
{8}2b/7,2b,2b/3,2b,3b/6b,2b/7b,1b/8b,,
{8}7<5[8:1],8,7,1,7-3[8:1],4,7,5h[4:1],
{8},8,2/7,3/6,4-1[8:1]/5-8[8:1],,4/5,,
{8}3b-8[8:1]/7b-4[8:1],,3x/7x,,2/6-4[8:1],2,2/6,2,
{96}2/7-5[8:1],,,,,,,,,,,,2,,,,,,,,,,,,2/7,,,,,,,,,,,,2,,,,,,,,,,,,2/8-4[8:1],,,,,,,,,,,,2,,,,,,,,,,,,2/8,C1f,,,,,,,,,,,,,,,,,,,,,,,
{8}2b-5[8:1]/6b-1[8:1],,2x/6x,,3-5[8:1]/7h[16:1],7h[16:1],3/7h[16:1],7h[16:1],
{96}2-4[8:1]/7h[16:1],,,,,,,,,,,,7h[16:1],,,,,,,,,,,,2/7h[16:1],,,,,,,,,,,,7h[16:1],,,,,,,,,,,,1-5[8:1]/7h[16:1],,,,,,,,,,,,7h[16:1],,,,,,,,,,,,1/7,C1f,,,,,,,,,,,,,,,,,,,,,,,
{8}4b-1[8:1]/8b-5[8:1],,4x/8x,,2b/6-4[8:1],2b,2b/6,2b,
{8}2b/3-7[8:1],2b,2b/3,2b,1b/8b,2b/7b,3b/6b,,
{8}5/7,6,2/4,3,5/8,6,1/4,3,
{32}6/8,,,,5/7,,,,4/6,,,,3/5,,,,2b,3,4,5,6,7,8,1,2b/6b,,,,,,,,
{16}4x/8x,,7,5h[8:1],,6,4h[8:1],,5,3h[8:1],,4,1,,2/8,,
{16}2h[8:1],,4,3h[8:1],,5,4,,5v2[8:1]/7v2[8:1],,,,,,,,
{16}4x/8x,,2,4h[8:1],,3,5h[8:1],,4,6h[8:1],,5,8,,1/7,,
{16}7h[8:1],,5,6h[8:1],,4,5,,2v7[8:1]/4v7[8:1],,,,,,,,
{16}1x<6[8:1]/6x,2x,3x,4x,5x<3[4:1],4x,3x,2x,1x,,,,4,,,,
{16}3x/8x>3[8:1],7x,6x,5x,4x>6[4:1],5x,6x,7x,8x,,,,5,,,,
{16}1/7,6,5,4,1,2,3,4,8,7,6,5,1,2,3,4,
{32}8,,6,,8,,5,,8,,4,,8,,3,,8,7,6,5,4,3,2,1,4b/8b,,,,,,,,
{16}1/5,,2,4h[8:1],,3,5h[8:1],,4,6h[8:1],,5,8,,1/7,,
{16}7h[8:1],,5,6h[8:1],,4,5h[8:1],,3,4,3,,2/5,,,,
{16}1x/6x,,7,5h[8:1],,6,4h[8:1],,5,3h[8:1],,4,1,,2/8,,
{16}2h[8:1],,4,3h[8:1],,5,4h[8:1],,6,5,6,,4/7,,,,
{16}3x/8x>3[8:1],7x,6x,5x,4x>6[4:1],5x,6x,7x,8x,,,,C1f,,,,
{16}1x<6[8:1]/6x,2x,3x,4x,5x<3[4:1],4x,3x,2x,1x,,,,C1f,,,,
{48}1b,,,8,,,1,,,8,,,1b,,,8,,,1,,,8,,,2b,,3,,4,,8b,,7,,6,,1b,,2,,3,,7b,,6,,5,,
{32}1b/4xh[32:19],2,3,,5,6,7,8,1b,2,3,,5,6,7,8,1b,2,3,,5,6,7,8,1b/5b,,,,,,,,
{16}3b/8b,,2,1,2,,3b/8b,,6,5,6,5,7,4,7,,
{16}1b/6b,,7,8,7,,1b/6b,,3,4,3,4,2,5,2,,
{16}3b/8b,,2,1,2,,3b/8b,,6,5,7,4,6,5,7,,
{16}1b/6b,,7,8,7,,1b/6b,,3,4,2,5,3,4,3,,
{16}2b/5b,,3,4,3,,2b/5b,,6,1,7,2,8,3,1,,
{16}4b/7b,,6,5,6,,4b/7b,,3,8,2,7,1,6,8,,
{16}2b/5b,,3,4,3,,2b/5b,,6,1,7,2,8,3,1,,
{48}4b/7b,,,,,,6,,,5,,,6,,,,,,4b/7b,,,,,,1x/5x,,,,2/6,,,,3/7,,,,4x/8x,,,,3/7,,,,2/6,,,,
{1}1b/5b<4[4:11],
{1},
{1},
{2},4/5,
{2}7qq4[2:3],E2,
{2}E4,B1/B8,
{1}B4/B5/E5/2pp5[2:3],
{1}B1/E1/B8,
{12}5/6,,,6,,,6,,,6,4,5,
{12}3,,,3,,,3,,,3,5,4,
{12}6,,,6,,,6,,,6,4,5,
{12}3,,,3,5,4,6,4,5,3,5,4,
{4}3/6,5/6,4/6,3/6,
{4}2h[4:1]/6,6,3h[4:1]/6,6,
{4}C1xh[4:7]/6,6,6,6,
{4}7,7,8,8,
{8}1/8h[1:1],1,1,1,1,1,1,1,
{12}1,8,2,7,3,6,4,5,3,6,2,7,
{1}1bV37[4:3]/8bV62[4:3],
{8},,,,,3/4,5/6,1/8,
{24}3-8[8:1]/7-4[8:1],,,,,,3/7,,,,,,2/6,,,2/6,3/7,4/8,1/5,,,,,,
{32}3/8-4[8:1],,,,4-8[8:1]/7,,,,3/8,,,,2,,,,1,2,3,4,5,6,7,8,1b/5b,,,,,,,,
{8}3-8[8:1]/6,4,3/6-1[8:1],5,3/6,4,2-6[8:1]/8,1,
{24}2/7-3[8:1],,,,,,1w5[8:1]/7,,,,,,1b,,,,,,2,3,4,7,6,5,
{16}2h[8:1],,1,2,1,,3/8,,2,4,3,5,4,6,5,7,
{16}1,4,3,8,5-2[8:1],6,4,7,5b-8[8:1],,,,1b/5b,,,,
{16}2/6V48[8:1],,,4,6,,3,,2V84[8:1],,,8,2,,6,,
{48}6,,,,,,7/8,,,,,,1/2,,,,,,3/4,,,,,,6,,,5,,,6,,,5,,,8,,7,,6,,2,,3,,4,,
{24}1x-6[8:1]/5x-2[8:1],,,,,,1/5,,,,,,3/7,,,3/7,2/6,1/5,4/8,,,,,,
{32}1-5[8:1]/6,,,,2/5-1[8:1],,,,1/6,,,,7,,,,8,7,6,5,4,3,2,1,4b/8b,,,,,,,,
{8}3/6-1[8:1],5,3-8[8:1]/6,4,3/5,6,3/7,4/8,
{384}1x-6[8:1]/5x-2[8:1],,,,,,,,,,,,,,,,,,,,,,,,,,,,,,,,,,,,,,,,,,,,,,,,,,,,,,,,,,,,,,,,,,,,,,,,,,,,,,,,,,,,,,,,,,,,,,,,1x>4[8:1]/5x<8[8:1],,,,,,,,,,,,,,,,,,,,,,,,,,,,,,,,,,,,,,,,,,,,,,,,,,,,,,,,,,,,,,,,,,,,,,,,,,,,,,,,,,,,,,,,,,,,,,,,1x-5[8:1]/5x-1[8:1],,,,,,,,,,,,,,,,,,,,,,,,,,,,,,,,,,,,,,,,,,,,,,,,,,,,,,,,,,,,,,,,,,,,,,,,,,,,,,,,,,,,,,,,,,,,,,,,1b/5b,C1f,,,,,,,,,,,,,,,,,,,,,,,,,,,,,,,,,,,,,,,,,,,,,,,,,,,,,,,,,,,,,,,,,,,,,,,,,,,,,,,,,,,,,,,,,,,,,,,
{16}3/8,,2,1,2,,3/4,,6,8,7,1,8,2,1,3,
{48}4,,,2,,,5,,,3,,,6,,,4,,,7,,,5,,,7x,E7,B6,B5,E5,,2x,E3,B3,B4,E5,,C1f,,,,,,,,,,,,
{16}1b/7b,,8,8,8,,2b/6b,,1,4,3,7,5,6,1,,
{16}2b/8b,,1,1,1,,3b/7b,,8,5,6,2,4,3,8,,
{16}1b/7b,,8,8,8,,2b/6b,,1,4,3,8,5,6,1,,
{48}2b/8b,,,,,,1,,,1,,,1,,,,,,3b/7b,,,,,,1x/5x,,,,1/5,,,,1/5,,,,4x/8x,,,,4/8,,,,4/8,,,,
{32}1x/5x,,2,,3,,4,,5/8,,7,,6,,5,,2x,3,2,,8,,1,,8,,1,,8,,,,
{32}4x/8x,,7,,6,,5,,1/4,,2,,3,,4,,7x,6,7,,1,,8,,1,,8,,1,,,,
{48}1x/5x,,,2/6,,,3/7,,,4/8,,,1,,,2,,,3,,,4,,,1b,,5,,1b,,5,,1b,,5,,1b,,5,,1b,,5,,1b,,5,,
{4}1bw5[8:1],,8bw4[8:1],C1f,
{48}1b,2b/8b,3b/7b,4b/6b,5b>5[3:8]*<5[3:8],,,,,,,,,,,,,,,,,,,,,,,,,,,,,,,,,,,,,,,,,,,,
{1},
{1},
{1},
(160){1}C1,
{4}3/6h[2:1],,5h[4:1],4h[4:1],
{2}3h[2:1],6h[2:1],
{32}3,4,5,6b-3[32:85]*-3[32:85],,,,,,,,,,,,,,,,,,,,,,,,,,,,,
{1},
{1},
{1},
{1},
{1},
E
