&title=ラブ・ドラマティック feat. 伊原六花
&wholebpm=129
&artist=鈴木雅之
&des=はっぴー
&shortid=11116
&genre=POPSアニメ
&cabinet=DX
&version=maimai DX PLUS
&chartconverter=Neskol
&lv_2=3
&des_2=
&lv_3=6
&des_3=
&lv_4=9
&des_4=すきやき奉行
&lv_5=11+
&des_5=はっぴー
&des_6=
&inote_2=
(129){1},
{1},
{1},
{2}4,4,
{2}5,5,
{1}4h[2:1],
{1}5h[2:1],
{2}6,6,
{2}7,7,
{2}1x/8x,1x/8x,
{1}1xh[2:1]/8xh[2:1],
{1}1-5[4:3],
{1},
{1}8-4[4:3],
{1},
{1}1h[2:1],
{1}2-6[4:3],
{1},
{1}7-3[4:3],
{1},
{1}B2,
{1}B3,
{1}B4,
{1}B5,
{1}B6,
{1}B7,
{1}B8,
{1}B1,
{1}B2/B7,
{1}C1hf[1:1],
{1},
{2}1,1,
{1}1h[2:1],
{2}2,2,
{4}2,2,2b,,
{2}3,3,
{1}3h[2:1],
{4}4,4,4,,
{4}4/5,4/5,4b/5b,,
{4}5,5,6,6,
{1}5h[2:1]/6h[2:1],
{4}4,4,3,3,
{1}3h[2:1]/4h[2:1],
{4}5,5,4,4,
{1}3h[2:1]/6h[2:1],
{2}3x/4x,3x/4x,
{1}3xh[2:1]/4xh[2:1],
{2}5x/6x,5x/6x,
{1}5xh[2:1]/6xh[2:1],
{1},
{1},
{1},
E
&inote_3=
(129){1},
{1},
{1}1x/8x,
{4}7,7/8,7,7/8,
{4}1,2,1x/2x,,
{4}2,2,1,1,
{4}8,8,1x/7x,,
{2}6h[2:1],5h[2:1],
{2}4h[2:1],3x,
{4}2,2,1,1,
{4}1x/8x,2x/7x,3b/6b,,
{1}4xh[2:1]/5xh[2:1],
{4}3h[2:1],,4,4,
{4}5h[2:1],,4,4,
{4}3h[2:1],,4,4,
{4}5,6,5x/7x,,
{4}6h[2:1],,5,4,
{4}3h[2:1],,4,5,
{4}6,6,7,7,
{4}8,1,2x/7x,,
{1}7-4[2:1],
{1}3-6[2:1],
{1}7<4[2:1],
{4}3,3,3,,
{2}B2,C1,
{1}B6,
{2}E6,B5,
{2}B4,E4,
{2}B4/B5,B3/B6,
{1}C1hf[1:1],
{1},
{4}7,7/8,6,5/6,
{4}7,7/8,1x/6x,,
{4}6,5,3,4,
{4}5/6,4/7,3x/8x,,
{4}2,1/2,3,3/4,
{4}2,1/2,3x/8x,,
{4}3,4,6,5,
{4}3/4,2/5,1x/6x,,
{4}7,6,5,4,
{4}3,1x/2x,3x/8x,,
{4}2,3,4,5,
{4}6,7x/8x,1x/6x,,
{4}7,6,5,3x/4x,
{4}2,3,4,5x/6x,
{4}7,7,8,8,
{4}1x/8x,2x/7x,3x/6x,,
{2}B5/B6,B3/B4,
{1}C1hf[2:1],
{1},
{1},
{1},
E
&inote_4=
(129){1},
{1}C1hf[1:1],
{1},
{8}7/8,7<4[8:1]/8>3[8:1],,,,2/5,,3/8,
{8},1<6[8:1]/2>5[8:1],,,,4,3,2h[4:1],
{8},5,6,7h[4:1],,3,2,1x/6x,
{8},3x/8x,,1x/6x,,2,2,2-5[8:1],
{8},7,7,7-4[8:1],,1,1,1>6[4:1],
{8},7,,8x,,1-5[8:1]/2-5[8:1],1/2,,
{8},7-4[8:1]/8-4[8:1],7/8,,,3qq5[8:3]/6pp4[8:3],3/6,,
{4},,1b,8b,
{8}6,,5,,4,4h[4:1],,C1,
{8},,3,,4,,5,5h[8:3],
{8},4,4,,6,5,4,3h[2:1],
{8},4,,7h[2:1],,6,,4h[4:1],
{8},3h[4:1],,2q7[8:3],,,,,
{8},,6,,5,,4,4h[8:3],
{8},5,5,,3,4,5,6h[2:1],
{8},5,,2h[2:1],,3,,6,
{8},4z8[8:3]/7,,,,,,6x<2[8:3],
{4},,3h[4:1],5,
{1}4h[4:3]/6pp3[2:1],
{4}2h[4:1],4,7h[4:1],5,
{8}2>5[4:1]/6h[2:1],,,,,,5/7,5x/7x,
{8},4h[4:1],,B5,,3,3,2x/4x,
{8},5h[4:1],,B4,,2/7,2/7,,
{2}6-4[8:1],3-5[8:1],
{2}7-4[8:1],2-5[8:1],
{8}5x/6x,,3/4,3x/4x,,5/7,5x/7x,,
{8}2/4,2x/4x,,1/8,1x-4[8:1]/8x-5[8:1],,,,
{1}C1f,
{8}5/6,5>2[8:1]/6<1[8:1],,,,3/8,,2/5,
{8},3>8[8:1]/4<7[8:1],,,,1,2,3h[4:1],
{8},1,8,7h[4:1],,8,1,2x/6x,
{8},3x/7x,,2x/6x,,4x/5x,4xqq2[8:1]/5xpp7[8:1],,
{4},4xqq2[8:1]/5xpp7[8:1],,3xqq5[8:3]/6xpp4[8:3],
{8},,,,,2/7,3/6,4x>1[8:1]/5x<8[8:1],
{8},,,1x>4[8:1]/8x<5[8:1],,,,3x/6x,
{8},7x/8x,7x/8x,1x/6x,,2,2,2>5[8:1],
{8},8,8,8<5[8:1],,1,1,1h[2:1],
{8},3,,5,,7,7,7<4[8:1],
{8},1,1,1>4[8:1],,8,8,8h[2:1],
{8},6,,4,,3,3,3<6[8:1],
{8},7,7,7>2[8:1],,4,4,4-1[8:1],
{8},8x,,2x/7x,,1-6[8:1]/2-5[8:1],1/2,,
{8},7-4[8:1]/8-3[8:1],7/8,,,1/2,1/2,3/8,
{8},4-1[8:1]/8-5[8:1],,,,,,C1f/B5/B6/B7,
{8},,,C1f/B2/B3/B4,,,,1x>4[8:1]/8x<5[8:1],
{8},,,,2b/7b,2b/7b,,,
{1},
{1},
{1},
E
&inote_5=
(129){1},
{4}2b/7b,8h[4:1],5h[4:1],4q5[8:3],
{8}C1f,,,,,3/6,3/6pp3[8:3],,
{8}2,2h[2:1],,,,1,2,3qq6[8:3],
{8},8,,8,,7,6,5<8[8:1],
{8},2,3,4>1[8:1],,5,6,7-3[8:1],
{8},4-1[8:1],,5b,,4,3,2h[4:1],
{8},4,5,6,,2-5[8:1]/6-1[8:1],3/7,,
{8},4/8,,2/6,,3xv1[8:1]/7xv5[8:1],2x/6x,,
{8},3xv1[8:1]/7xv5[8:1],2x/6x,,,3xqq4[2:1]/7xqq8[2:1],2x/6x,,
{4},,1b,8b,
{8}1>4[8:1],,5h[4:1],,6,6,,3/7,
{8},,6>3[8:1],,1h[4:1],,3,3<6[8:1],
{8},8,8,,6,2,3,4>1[8:1],
{8},6,5,4<7[8:1],,2,3,4/7,
{8},2/5,3,4qq3[4:1]/8qq7[4:1],,,,,
{8}4/8,,3<6[8:1],,8h[4:1],,6,6>3[8:1],
{8},1,1,,3,7,6,5<8[8:1],
{8},3,4,5s1[8:3],,8,7,6,
{8},8,1/8,1/8,,1,1>7[4:1],1h[8:5],
{16},,,,,,,,7h[16:3],,,5h[16:3],,,4,,
{8}3q8[4:1]/5p8[4:1],,,,,8,8V64[4:1],8h[8:5],
{16},,,,,,2,,2h[16:3],,,4h[16:3],,,5,,
{8}4/6pp4[2:1],,,,,,,2h[4:1],
{8},4h[4:1],,6h[4:1],,8,8<3[4:1],,
{8}2,2,,C1xh[8:3],,,,8,
{16}8h[16:3],,,6h[16:3],,,5,,5<8[4:1],,,,3,,2,,
{16}1h[16:3],,,3h[16:3],,,4,,4>1[4:1],,,,6,,7,,
{8}8,1/7,2,3/5,6,1>8[8:3]/7,,C1f,
{4},,B1/E2/B8/E8,B4/E4/B5/E6,
{8}2b/7b,2b/7b,,,,4/5,3qq6[8:3]/7,,
{8}5,5h[8:3],,,7,6,5,6pp3[8:3],
{8},4,,1,1,2,3,4>1[8:1],
{8},7,6,5<8[8:1],,4,3,2-6[8:1],
{8},5-8[8:1],,4b,,8b,,2/6pp3[8:3],
{8},4,,,2,3,4,3qq6[8:3],
{8},5,,8,8,7,6,5<8[8:1],
{8},2,3,4>1[8:1],,5,6,7-2[8:1],
{8},3-6[8:1],,8b,,6,7,8<5[8:1],
{8},3,2,1>4[8:1],,6,7,8<5[8:1],
{8},4,3,2/6,,7,8,1>4[8:1],
{8},6,7,8<5[8:1],,3,2,1<6[8:1]*>4[8:1],
{8},,,4/6,,5,6,7h[4:1],
{8},5,4,3,,3-8[8:1]/7-4[8:1],2/6,,
{8},1/5,,3/7,,2v4[8:1]/6v8[8:1],3/7,,
{8},2v4[8:1]/6v8[8:1],3/7,,,2pp1[2:1]/6pp5[2:1],3/7,,
{8},,,,,3v1[8:1]/7v5[8:1],4/8,,
{8},2v4[8:1]/6v8[8:1],1/5,,,3qq4[2:1]/7qq8[2:1],2/6,,
{8},,,,1b/8b,1b/8b,,,
{1},
{1},
{1},
E
