&title=ヤミツキ
&wholebpm=208
&artist=MARETU
&des=サファ太
&shortid=11104
&genre=maimai
&cabinet=DX
&version=maimai DX PLUS
&chartconverter=Neskol
&lv_2=4
&des_2=
&lv_3=7
&des_3=
&lv_4=10
&des_4=サファ太
&lv_5=12+
&des_5=サファ太
&des_6=
&inote_2=
(208){1},
{1},
{1},
{1},
{1},
{1},
{1},
{1},
{1},
{1}4,
{1}4,
{1}4,
{1}4/5,
{1}5,
{1}5,
{1}5,
{1}4b/5b,
{1}4,
{1}4,
{2}3,3,
{1}3,
{1}2,
{1}2,
{2}1,1,
{1}1x,
{1}8,
{1}8,
{2}7,7,
{1}7,
{1}6,
{1}6,
{2}5,5,
{1}5b,
{1}B4,
{1}B3,
{1}B2,
{1}B1/B8,
{1}B7,
{1}B6,
{1}C1hf[1:1],
{1},
{2}1,1,
{4}1,1,1,,
{2}2,2h[1:1],
{1},
{2}3,3,
{4}3,3,3,,
{1}4h[2:1],
{1}4x/5x,
{2}5,5,
{4}5,5,5,,
{2}6,6h[1:1],
{1},
{2}7,7,
{4}7,7,7,,
{2}1/8,1/8,
{1}2b/7b,
{1}8,
{1}7,
{1}6,
{1}4/5,
{1}4,
{1}3,
{1}2,
{1}1/8,
{1}1-5[4:3],
{1},
{2}7,7,
{1}1/8,
{1}8-4[4:3],
{1},
{2}2,2,
{1}1b/8b,
{2}2,2,
{2}3,3,
{2}4,4,
{1}4/5,
{2}7,7,
{2}6,6,
{2}5,5,
{1}4x/5x,
{1}B4,
{1}B3,
{1}B2,
{1}B1/B8,
{1}B7,
{1}B6,
{1}C1hf[1:1],
{1},
{1}1-5[4:3],
{1},
{1}6h[1:1],
{1},
{1}8-4[4:3],
{1},
{1}3h[1:1],
{1},
{1}4/5,
{1}4/5,
{2}3/6,3h[1:1]/6h[1:1],
{1},
{1}4/5,
{1}4/5,
{2}3/6,3/6,
{1}4x/5x,
{1}4x/5x,
{4}4,4,4,,
{4}5,5,5,,
{2}5/6,5h[1:1]/6h[1:1],
{1},
{4}7,7,7,,
{4}8,8,8,,
{1}1h[2:1]/8h[2:1],
{2}1/8,1b/8b,
{4}2,2,2,,
{4}3,3,3,,
{2}3/4,3h[1:1]/4h[1:1],
{1},
{4}5,5,5,,
{4}4,4,4,,
{4}4/5,4/5,4/5,,
{1}3b/6b,
{1}B5,
{1}B6,
{1}B7,
{1}B1/B8,
{1}B2,
{1}B3,
{1}B4/B5,
{1}C1xh[12:11],
{1},
{1},
{1},
E
&inote_3=
(208){1},
{1},
{1},
{1},
{1},
{1}4h[8:23],
{1},
{1}5h[8:7],
{2},4x/5x,
{1}3h[2:1]/5h[2:1],
{2}4,5,
{1}4h[2:1]/6h[2:1],
{2}5,3,
{1}2h[2:1]/4h[2:1],
{2}3,2,
{1}1h[2:1]/8h[2:1],
{2}1x/8x,2x/7x,
{2}3,3h[2:1]/4h[2:1],
{2},4/5,
{1}5h[2:1]/6h[2:1],
{1}4/7,
{2}7,7h[2:1]/8h[2:1],
{2},1/8,
{1}2h[2:1]/7h[2:1],
{2}3/6,2x/7x,
{1}3h[2:1]/4h[2:1],
{2}3,4/5,
{1}5h[2:1]/6h[2:1],
{2}6,7/8,
{1}1h[2:1]/8h[2:1],
{2}2/7,3/6,
{1}4h[2:1]/5h[2:1],
{2}4/5,3x/6x,
{2}B6,E8,
{1}B1/E2,
{2}E1,C1,
{1}B4/B5,
{2}E3,B4,
{2}B5,E7,
{1}C1hf[1:1],
{1},
{4}2,2,1,,
{4}3,3,4,,
{4}6,6,5,,
{2}5/6,4/7,
{2}2h[2:1],4,
{2}7h[2:1],5,
{1}1-4[4:3]/8-5[4:3],
{2},3x/6x,
{4}6,6,5,,
{4}3,3,4,,
{1}7<3[4:5],
{1},
{2}2h[2:1],1,
{2}7h[2:1],8,
{4}1,1,8,,
{1}2xh[2:1]/7xh[2:1],
{2}E3,B3,
{2}B4,E5,
{2}B5,B6,
{2}E7,E8,
{2}E1,B1/B8,
{2}B2/B7,E3/E7,
{2}B3/B6,B4/B5,
{1}C1xh[2:1],
{1}1h[2:1]/7h[2:1],
{4}8,8,,,
{1}5h[2:1]/7h[2:1],
{4}6,6,,,
{1}3h[2:1]/5h[2:1],
{4}4,4,,,
{1}C1xh[1:1],
{2},1b/8b,
{2}2h[2:3],4,
{1}4h[2:1],
{2}6h[2:3],4,
{1}4h[2:1],
{2}7h[2:3],1,
{1}1h[2:1],
{2}4/6,3/5,
{2}4/5,2x/7x,
{1}3>8[4:3],
{2},7,
{1}7<4[4:3],
{2},3,
{1}2q6[4:3],
{2},7,
{2}1xh[4:1]/8xh[4:1],1xh[4:1]/8xh[4:1],
{1}2b/7b,
{1}1/2h[1:1],
{1}3h[1:1],
{1}4h[1:1],
{1},
{1}5/6h[1:1],
{1}7h[1:1],
{1}8h[1:1],
{1},
{1}5h[1:1]/6h[1:2],
{1},
{1}5,
{2}4/5,4/5,
{1}3h[1:1]/4h[1:2],
{1},
{1}C1xh[1:1],
{1},
{1}C1f/B3/B6,
{4}1,1,2,2,
{2}3h[2:1],4,
{4}5,5,6,6,
{2}7h[2:1],8,
{4}4/6,4/6,4/6,,
{4}3/5,3/5,3/5,,
{1}4>1[4:3]/5<8[4:3],
{2},2x/7x,
{4}3,3,2/4,,
{4}6,6,5/7,,
{1}3>7[4:5],
{1},
{2}6h[2:1],8x,
{2}3h[2:1],1x,
{4}4/5,,3/6,3/6,
{1}3xh[2:1]/6xh[2:1],
{2}4h[1:1],5,
{2}6,5/7,
{2}8h[1:1],1,
{2}2,1/3,
{4}4/5,4xh[2:1]/5xh[2:1],,,
{4},3h[2:1]/6h[2:1],,,
{4},2h[2:1]/7h[2:1],,,
{4},1h[2:1]/8h[16:11],,,
{1},
{1},
{1},
E
&inote_4=
(208){1},
{1},
{1},
{1},
{1},
{1}2h[2:1]/5h[2:5],
{1}3h[2:1],
{8}4h[2:1],,,,,,,4x/5x,
{4},4x/5x,3x/6x,,
{4}3,3,3/4,3,
{4}6,6,5/6,6,
{4}3,3,3/4,3,
{4}5,6,4/6,,
{4}7,7,5/7,7,
{4}4,4,4/5,4,
{16}4h[4:1]/5h[4:1],,,,,,,,4x/5x,,,4x/5x,,,,3xh[16:5]/6xh[16:5],
{2},4x/5x,
{4}4/5h[2:1],4,3h[2:1],,
{4}4,2/4h[2:1],,3,
{4}4h[2:1]/5,5,6h[2:1],,
{4}5,5/7,,3/4,
{4}4h[2:1]/5,5,6h[2:1],,
{4}5,5/7h[2:1],,5,
{4}4,3,2/7,,
{1}1-4[8:3]/8-5[8:3],
{4}5h[2:1]/6,6,7h[2:1],,
{4}6,5h[2:1]/6,,6,
{4}7,7,6,5/6-1[2:1],
{1},
{4}3,3,2h[2:1]/4,,
{4}3,2/4h[2:1],,3,
{4}5,5,3/6,3/6,
{4}2x,1x,8x,7x,
{1}2/6>3[2:1],
{2}E2/B2,B7/E8,
{1}1>4[2:1]/6,
{2}B5/E6,B8/E8,
{1}1/2>5[2:1],
{1}7<4[2:1]/8,
{4}E2,B5,B4,E8,
{2}C1f,1x/8x,
{4}3/4,2,3/4,2,
{4}4/5,7,4/5,2,
{4}5/6,7,5/6,7h[4:1],
{4}6h[4:1],5h[4:1],4,3,
{4}2/5,1,2/4,1,
{4}4/7,8,5/7,8,
{4}4/5,2b/7b,,5x/6x,
{4}4x/5x,3x>8[4:1]/4x<7[4:1],,,
{4}E8,C1,E4,E3,
{4}E2,C1,E6,E7,
{4}2/8,2/8<2[4:3],1x,,
{2},7x/8x,
{4}E6,C1,E2,E3,
{4}E4,C1,E8,E7,
{16}1x/8x,,,,2x/7x,,,,3x/6x,,,3x/6x,,,,,
{1}C1f/B2/B7,
{4}3h[1:1],4,4,4,
{4}5h[1:1],4,4,,
{4}2h[1:1],4,4,4,
{4}6h[4:5],4,4,,
{2}3h[4:1],2h[4:1]/4h[4:1],
{2}4h[4:1]/5h[4:1],5h[4:1]/7h[4:1],
{4}4/5,3,2,1,
{4}1/8,7,3x/6x,,
{4}3/4h[2:1],3,2h[2:1],3-6[8:3],
{4},,,4/5,
{4}5h[2:1]/6,6,7h[2:1],6-3[8:3],
{4},,,1/8,
{4}1h[2:1]/2,2,3h[2:1],2-7[8:3],
{4},,,3/6,
{1}C1hf[1:1],
{2},1b/8b,
{4}2h[1:1],4,4,4,
{4}3h[1:1],2,2,2,
{4}4h[4:3],5,5,5,
{8}3,3,3/4,,6,6,5/6,,
{4}7h[1:1],8,8,8,
{4}5h[4:3],6,6,6,
{4}3x/5x,2x/6x,1x/7x,2x/8x,
{4}3x/7x,4x/6x,5x,4x,
{1}3>8[2:1]/5h[2:1],
{2}B6/B7,B3/B4,
{1}5h[2:1]/6<1[2:1],
{2}B3/B4,B6/B7,
{1}2<7[2:1]/4h[2:1],
{1}1h[2:1]/6>3[2:1],
{4}B3,B1,B5,E7,
{1}C1/B2/B8,
{1}8-5[1:1],
{1}1-4[1:1],
{1}8-5[1:1],
{1}1-4[1:1],
{1}8<5[1:1],
{1}1>4[1:1],
{1}8<5[1:1],
{1}C1xh[2:1],
{1}8>3[1:1],
{1}4<7[1:1],
{1}8>3[1:1],
{1}4<7[1:1],
{1}5>2[1:1],
{1}1<6[1:1],
{1}5>2[1:1],
{1}C1xh[1:1],
{1},
{4}5xh[4:1]/6b,8,5/6h[4:1],1,
{4}4h[4:1]/5,8,4/5h[4:1],1,
{4}3h[4:1]/4,8,3/4,1h[4:1],
{4}3h[4:1],4h[4:1],5,5,
{4}4h[4:1]/6,8,4/6h[4:1],1,
{4}3h[4:1]/5,1,3/5h[4:1],8,
{4}4/5,2b/7b,,3x/4x,
{4}4x/5x,5x>2[4:1]/6x<1[4:1],,,
{4}E2,C1,E6,E7,
{4}E8,C1,E4,E3,
{4}1/7,1>7[4:3]/7,8b,,
{2},1x/2x,
{4}2x/5x,2x>5[4:1]/5x,7b,,
{4}3x/8x,3x/8x<5[4:1],1b,,
{16}2x/4x,,,,4x/5x,,,,5x/7x,,,5x/7x<2[16:9],,,,,
{1}C1f,
{4}1,5,2h[4:1]/4,3,
{4}1,5,2h[4:1]/4,3,
{4}8,4,5/7h[4:1],6,
{4}8,4,5/7h[4:1],6,
{4}3/5,3x/5x,,B2/B4,
{4},B5/B7,,E1/B2,
{4},B1/B6,,E4/B7,
{4},B3/E5,,C1xh[16:3]/B2/B7,
{1},
{1},
{1},
E
&inote_5=
(208){1},
{1}3h[2:1]/4h[2:7],
{1}5h[2:1],
{1}3h[2:1],
{1}5h[1:3],
{1}6h[2:1],
{1}4h[2:1],
{12}6h[3:2],,,,,,4,,4,,,2x/7x,
{12},,3,5,,6,4,,5,3/5,,,
{4}2/6,2-4[4:1]/6,6,6,
{4}5/6,5-1[4:1]/6,6,6,
{4}2/6,2-4[4:1]/6,6,6,
{4}5/6,5-1[4:1]/6,6,6,
{4}2/6,2/6-4[4:1],2,2,
{4}2/3,2/3-7[4:1],2,2,
{12}2/6,,,3/7,,,4/5,,5,4,,3h[4:1]/6h[4:1],
{4},3/6,4x/5x,,
{4}4/6,3/5-3[4:1],2h[4:5],,
{4}1-4[4:1],,,4,
{4}4/5,5-2[4:1]/6,7h[4:5],,
{4}B1/B2,B5/B6,,8,
{4}1/7,2/8-2[4:1],3h[4:5],,
{4}4-1[4:1],,,1,
{12}2/4,,3,5,,6,4,,3,5<4[8:5],,5,
{2}4,C1,
{4}2/8,4-6[4:1]/6,7h[2:1],,
{4}8-2[4:1],6h[2:1],,3h[4:3],
{4}2,4,6,4h[4:5]/5,
{4}B6/B7,E5,B2/B3,E1,
{4}5,5-2[4:1]/6,7h[2:1],,
{4}8-4[4:1],1,,3/6,
{12}7,,7,5,,5,4,,4,2,,2,
{4}8x,7x,6x,5x,
{4}3h[4:1],4h[4:1],2h[4:1],1h[4:1],
{2}4-1[2:1],8h[4:1],
{2}1-4[2:1]/7h[4:1],6h[4:1],
{1}C1xh[2:1],
{4}2-5[2:1]/7,6,7,8,
{4}4/7-4[2:1],3,2,1,
{4}E3/B3,B1/E1,B4/E5,B7/E7,
{4}C1f,,1x/8x,3x/6x,
{4}4-8[8:1]/5,7,4>1[8:1]/6,8,
{4}4-8[8:1]/5,7,4>1[8:1]/6,8,
{4}4/5-1[8:1],2,3/5<8[8:1],1,
{12}3x/6x,,4,5,4,5,4,3,2,1/8,7,6,
{4}4-8[8:1]/5,7,4>1[8:1]/6,8,
{4}4/5-1[8:1],2,3/5<8[8:1],1>4[8:1],
{12}5,,,C1f/B3/B7,,,,,,1x/8x,,7,
{12}1/6,,4,3/8,,,2b/6b,,,,,,
{4}5/7-5[8:1],3,1/4-8[8:1],3,
{4}5/7-5[8:1],3,1/4-8[8:1],3,
{4}5/7-5[8:1],3,1/4-8[8:1],3,
{4}5/7xh[4:1],6h[4:1],5h[4:1],4,
{4}2-4[8:1]/4,6,5-1[8:1]/8,6,
{4}2-4[8:1]/4,6,5-1[8:1]/8,6,
{16}2x/4x,,,,4x/6x,,,,1x/8x,,,2x>7[48:23]/7x,,,,,
{1}C1f,
{4}5/7,5>3[4:1]/7,7,7,
{4}2/7,2>5[16:5]/7,7,7,
{4}6/7,6>2[8:3]/7,7,7,
{4}1/7,1q5[4:1]/7,7,7,
{2}4h[4:1]/6h[4:5],5h[4:1],
{2}3h[4:3],4h[4:1],
{12}2/5,,4,5,,,4/7,,5,4,,,
{12}2,,2,4,,4,5,,,4/6,,,
{12}4/5,,7,5,6,5,7,4,5,3-5[8:1],,,
{4}7h[4:3],,,6,
{12}4/5,,2,4,3,4,2,5,4,6-4[8:1],,,
{4}2h[4:3],,,3,
{12}4/5,,3,1,2,1,3,8,1,7-2[8:1],,,
{4}3h[4:3],,,5h[4:5],
{1}C1hf[1:1],
{2},1b/8b,
{12}2/4,,,3/5,,4,5,,,4/6,,,
{12}5/7,,,4/6,,5,4,,,3/4,,,
{12}2/5,,,3/4,,5,4,,,4/5,,,
{16}6,5,6,5,7b,,,,3,4,3,4,2b,,,,
{12}4/5,,,5/6,,7,7h[4:1],,,8,,,
{12}1/8,,,1/2,,3,3h[4:1],,,4,,,
{12}4/5,,6,5,,3,4,,7,5,,2h[12:7],
{4}4x,5x,6x,7x,
{4}2h[4:1],1h[4:1],3h[4:1],4h[4:1],
{4}1h[4:3],,E5,C1,
{4}8h[1:1],E1,C1,E5,
{1}C1xh[2:1],
{4}3-8[2:1]/7,8,6,5,
{4}1/6-1[2:1],2,4,3,
{4}E2/B2,B6/E7,B1/E1,B4/E5,
{1}C1/E3/E7,
{1}4-1[1:1],
{1}5-8[1:1],
{1}4-1[1:1],
{1}5-8[1:1],
{2}4>1[1:1],6,
{2}5<8[1:1],3,
{2}4>1[1:1],7,
{1}C1xh[2:1],
{4}8<5[1:1],,B3,B2,
{4}1>4[1:1],,B6,B7,
{4}8<5[1:1],,B3,B2,
{4}1>4[1:1],,B7,B6,
{4}5<8[1:1],,B2,B3,
{4}4>1[1:1],,B7,B6,
{4}5h[2:3],,B2,B3,
{1}4h[2:3],
{1},
{12}4b/5-1[8:1],,,2,,,3/5<8[8:1],,1,1,,,
{12}4/5-1[8:1],,,2,,,3/5<8[8:1],,1,1,,,
{12}4-8[8:1]/5,,,7,,,4>1[8:1]/6,,8,8,,,
{12}3x/6x,,5,4,5,4,5,6,7,1/8,2,3,
{12}4x/5-1[8:1],,,2,,,3/5<8[8:1],,1,1,,,
{12}4-8[8:1]/5,,,7,,,4>1[8:1]/6,,8,8<5[8:1],,,
{12}4,,,C1f/B2/B6,,,,,,1x/8x,,7,
{12}1/6,,3,2/5,,,3b/7b,,,,,,
{4}2>4[8:1]/4x,6,5p1[8:1]/8,6,
{4}2>4[6:1]/4,6,5p1[8:1]/8,6,
{12}2x/7x,,,3-8[6:1]/6x,,,8,,7x-4[6:1],,,3,
{12}3x>8[6:1],,,8,,7xh[3:1],,,1x,1b,,,
{4}8<5[4:1],5p4[2:1],C1f,,
{4}1>4[4:1],4q5[2:1],C1f,,
{12}8x,,,5x/7x,,,3x,,2xh[3:1]/4x,,,,
{12}8b,,,2/4,,4,5,,,5/7<2[2:1],,,
{1}C1f,
{12}1/8,,2,4,,3,6,,7,5,,8,
{12}1,,2,4,,3,6,,7,5,,8,
{12}1,,2,4,,5,4,,3/6,3x/6x,,,
{4}4x/5x,3x/6xh[1:2],,B6/B7,
{4},B3/B4,,5,
{4}4,3h[2:3],,B2/E3/B3,
{4},B5/E6/B6,,C1xh[6:1],
{1},
{1},
{1},
E
