&title=バイオレンストリガー
&wholebpm=196
&artist=八王子P
&des=サファ太
&shortid=11126
&genre=niconicoボーカロイド
&cabinet=DX
&version=maimai DX PLUS
&chartconverter=Neskol
&lv_2=5
&des_2=
&lv_3=7+
&des_3=
&lv_4=10
&des_4=はっぴー
&lv_5=13
&des_5=サファ太
&des_6=
&inote_2=
(196){1},
{1},
{1},
{1},
{1},
{1},
{1},
{1},
{1},
{1}4h[1:1],
{1},
{1}4h[1:1],
{1},
{1}5h[1:1],
{1},
{1}4xh[8:7]/5xh[8:7],
{1},
{2}4,4,
{1}4,
{2}3,3,
{1}3,
{2}2,2,
{1}2,
{2}1,1,
{1}1x/8x,
{2}8,8,
{1}8,
{2}7,7,
{1}7,
{2}6,6,
{1}6,
{2}5,5,
{1}4x/5x,
{1}B4,
{1}B5,
{1}B3,
{1}B6,
{1}B4/B5,
{1}B3/B6,
{1}C1hf[8:7],
{1},
{4}8,8,8,,
{4}1,1,1,,
{4}2,2,2,,
{1}3xh[2:1],
{4}4,4,4,,
{4}5,5,5,,
{4}6,6,6,,
{1}7xh[2:1],
{1}8-5[4:3],
{1},
{1}1-4[4:3],
{1},
{1}8-4[4:3],
{1},
{2}1/8,1/8,
{2}2/7,2/7,
{1}3xh[1:2]/6xh[1:2],
{1},
{1},
{2},1/8,
{1}1xh[1:3]/8xh[1:3],
{1},
{1},
{1},
{1}B1,
{1}B8,
{1}B2,
{1}B7,
{2}B3,B4,
{2}B5,B6,
{1}C1hf[8:7],
{1},
{1},
{4}1x,1,1,,
{4}2,2,2,,
{4}3,3,4,4,
{1}4xh[2:1]/5xh[2:1],
{4}5,5,5,,
{4}6,6,6,,
{4}7,7,8,8,
{1}1xh[2:1]/8xh[2:1],
{4}8b,8,8,,
{4}7,7,7/8,,
{4}6,6,5,5,
{1}4xh[2:1]/5xh[2:1],
{4}4,4,4,,
{4}3,3,3/4,,
{4}2,2,1,1,
{1}1xh[2:1]/8xh[2:1],
{1}8h[2:1],
{4}8,8,1/8,,
{1}1h[2:1],
{4}1,1,1/8,,
{4}2,2,3,3,
{4}4,4,5,5,
{4}6,6,7,7,
{1}1xh[2:1]/8xh[2:1],
{4}1,1,1,,
{4}8,8,8,,
{4}1x/8x,1xh[4:3]/8xh[4:3],,,
{1},
{1}1x-4[4:3]/8x-5[4:3],
{1},
{2}5,5,
{2}4,4,
{2}3,3,
{2}2,2b,
{2}1x,1,
{2}8x,8,
{4}1x,1x,8x,8xh[8:9],
{1},
{1},
{1},
E
&inote_3=
(196){1},
{1}3h[1:1]/4h[1:1],
{1},
{1}5h[1:1]/6h[1:1],
{1},
{1}4h[1:1],
{1}5h[1:1],
{8}4h[8:7],,,,,,,5x,
{8},5x,,4x/5x,,,,,
{4}3,3,3,,
{4}2,2,1/2,,
{4}8,8,8,,
{4}7,7,7/8,,
{2}6h[2:1],5,
{2}3h[2:1],4,
{1}4-1[4:3]/5-8[4:3],
{2},2x/7x,
{4}2,2,2,,
{4}4,4,4,,
{4}5,5,5,,
{2}4/5,3/6,
{4}6,6,6,,
{4}8,8,8,,
{1}1-4[4:3]/8-5[4:3],
{2},3x/6x,
{4}3,3,5,5,
{2}4,4/5,
{4}6,6,4,4,
{2}5,4/5,
{4}3x,3x,3x,,
{4}2,2,1/2,,
{4}8,8,1,1,
{2}8,2x/7x,
{1}C1xh[4:11],
{1},
{1},
{1},
{2}E7,B5/E6,
{2}E3,B4/E4,
{2}B3/B6,B2/B7,
{1}C1f,
{4}1x,1,2,2,
{2}3/4,4/5,
{4}5,5,6,6,
{2}7/8,1/8,
{4}2,2,1x/2x,,
{4}7,7,7x/8x,,
{4}1,1,8,8,
{2}1/8,2b/7b,
{1}2-5[4:3],
{2},6,
{1}7-4[4:3],
{2},3,
{1}2-6[4:3],
{2},7,
{1}1v4[4:3]/8v5[4:3],
{2},3x/6x,
{1}C1xh[1:3],
{1},
{1},
{1},
{1}C1xh[1:3]/B2/B7,
{1},
{1},
{1},
{1}2h[1:1],
{1}3h[1:1],
{1}4h[1:1],
{1}5h[1:1],
{2}6,5/6,
{2}3,3/4,
{8}5h[8:7],,,,,,,4x,
{8},4x/5x,,4x/5x,,4x/5x,,3x/6x,
{1},
{4}2x,2,3,4,
{4}5/6,5/6,5/6,,
{4}7,7,6,5,
{4}3/4,3/4,3/4,,
{4}2,2,1x/2x,,
{4}7,7,7x/8x,,
{4}8,8,1,1,
{2}1x/8x,2x/7x,
{4}1,1,8,8,
{2}1x/8x,2/7,
{4}2,2,3/4,3/4,
{4}5,6,5/6,,
{4}7/8,7/8,7x/8x,,
{4}1/2,1/2,1x/2x,,
{4}1,1,8,8,
{4}1x/8x,2x/7x,3x/6x,,
{1}4-1[4:3],
{4},,8,8,
{1}8<5[4:3],
{2},3x/4x,
{4}3h[2:1],4,4,,
{4}6h[2:1],5,5,,
{4}6,5,4,3-6[4:3],
{1},
{4}7h[2:1],8,8,,
{4}2h[2:1],1,1,,
{1}1h[2:1]/8h[2:1],
{1}2>7[4:5],
{1},
{4}8,8,8,1x/8x,
{4}2,3,4,5,
{4}6,6,5/6,,
{4}7,6,5,4,
{4}3,3,2x/4x,,
{4}3x,2,1,8,
{4}7,7,1/7,,
{8}8xh[2:1],,,,,,,1x/8x,
{8},1x/8x,,1x/8x,,1x/8x,,2b/7b,
{1},
{1},
{1},
E
&inote_4=
(196){1},
{1}7h[1:2],
{2}E7,E1,
{1}5h[1:2],
{2}E6,E7,
{1}4h[1:2],
{2}E4,E3,
{8}3,,3,,3,,4/6,4/6,
{8},3/5,,4xh[8:1]/6xh[8:1],,,1b,,
{8}7h[4:1],,5,,4,4,3/5,,
{8}2,2h[4:1],,4,3,5,4/6,,
{8}7h[4:1],,5,,4,4,3/5,,
{8}2,2h[4:1],,4,3,5,4/5,,
{8}2h[4:1],,4,,5,5,4/6,,
{8}7,7h[4:1],,5,6,4,3/5,,
{8}2,2,8,8,1,1,6,6h[8:7],
{4},,,1b,
{4}3h[4:7]/5,5,4,4,
{4}8,8,7,5,
{4}4/6h[4:7],4,5,5,
{4}1,1,2,4,
{4}3h[4:7]/5h[4:1],,4,4,
{4}8,C1,E1,E5,
{4}4/6h[4:7],4,5p3[4:3],,
{4},,,1,
{4}5,4/6,3,2/4,
{2}1-5[4:1],7-3[4:1],
{8}2h[4:1],,4h[4:1],,5,,6,6,
{4}5,4/7,2/5,3/6,
{4}1/8,2b/7b,3-6[4:1],,
{8}7h[4:1],,5h[4:1],,4,,3,3,
{4}4,2/5,4/7,3h[4:1],
{4}1h[4:1],8h[4:1],6h[4:1],3>5[1:1],
{1},
{1},
{2}8-5[4:1],1qq4[1:1],
{1},
{4}6h[2:1],5,3h[2:1],4,
{4}7h[2:1],8,2h[2:1],1,
{8}8,8,,3/7,3/7,,2/6,2/6,
{8},3/5,,4xh[8:1]/6xh[8:1],,,2b/7b,,
{8}1-5[8:1],,8-4[8:1],,2,2h[4:1],,8,
{8},3>8[4:1]/7<4[4:1],,,,,,2,
{8}2h[4:1],,4h[4:1],,5h[4:1],,7,7-3[4:1],
{8},,,2-6[4:1],,,,,
{8}8-4[8:1],,1-5[8:1],,7,7h[4:1],,1,
{8},2>5[4:1]/6<1[4:1],,,,,,7,
{8}7h[4:1],,5h[4:1],,4,4>5[8:5],,,
{4},,,3/6,
{4}5/7h[4:1],5,2h[4:1]/4,4,
{4}1/2,7/8,5/6,3/4,
{4}2h[4:1]/4,4,5/7h[4:1],5,
{8}7/8,,1,1-5[4:1],,,,,
{4}5/7h[4:1],5,2h[4:1]/4,4,
{4}1/2,7/8,5/6,4/7,
{2}3-6[4:1],7-2[4:1],
{2}3h[2:1],4h[2:7],
{1}8h[1:3],
{1},
{1},
{2},5h[2:5],
{1}C1xh[1:3],
{1},
{1},
{1},
{4}5,5,5,5,
{4}4,4,4,4,
{4}5,5,4,4,
{4}5,5,6,6,
{4}2,2,8,8,
{4}4h[4:1],3h[4:1],2h[4:1],1h[4:1],
{8}8h[4:1],,7h[4:1],,6,,4/5,4/5,
{8},4/6,,3/5,,4/7,,2h[8:7]/5h[8:7],
{1},
{8}8b-4[8:1],,1-5[8:1],,6,6h[4:1],,1,
{8},3>8[4:1]/7<4[4:1],,,,,,6,
{8}6h[4:1],,8h[4:1],,1h[4:1],,3,3-8[4:1],
{8},,,7-4[4:1],,,,,
{8}1-5[8:1],,8h[4:1],,3,3,,2/6,
{8},3>8[4:1]/7<4[4:1],,,,,,2,
{8}2h[4:1],,4h[4:1],,5,5<4[8:5],,,
{4},,,3/6,
{4}B2/E2/B7/E8,E1,C1hf[8:3],,
{8},,,1x/8x,,2x/7x,,3,
{8}3h[4:1],,1h[4:1],,8h[4:1],,6,6-1[4:1],
{8},,,2-5[4:1],,,,,
{8}8-4[8:1],,1h[4:1],,6,6,,3/7,
{8},2>5[4:1]/6<1[4:1],,,,,,7,
{8}7h[4:1],,5h[4:1],,4,4>5[8:5],,,
{4},,,3/6,
{8}2,2,4,,7,7,5,,
{4}7/8,1/2,3/4,5/6,
{8}7,7,5,,2,2,4,,
{8}3/6,,8,8h[4:1],,1,1,,
{8}7/8,,4/5,,1/2,,3/6,3/6,
{8},1>4[4:1]/8<5[4:1],,,,,,6,
{8}5/6,,3/5,,4/7,,1/5,1/5<4[8:5],
{1},
{8}3/4,,1/8,,5/6,,2/7,2/7,
{8},4>1[4:1]/5<8[4:1],,,,,,3,
{4}3/4,4/6,2/5,4h[8:9]/8h[4:11],
{1},
{1},
{4}4,4,4,2b/6b,
{8}7h[4:1],,8,,4,4,3/5,,
{8}2,2h[4:1],,4,3,5,4/6,,
{8}7h[4:1],,8,,4,4,3/5,,
{8}2,2h[4:1],,4,3,5,4/5,,
{8}2h[4:1],,1,,5,5,4/6,,
{8}7,7h[4:1],,5,6,4,3/5,,
{8}2,2,8,8,1,1,,3/5,
{8},4/6,,2/5,,4/7,,C1f/B2/B6,
{1},
{1},
{1},
E
&inote_5=
(196){1},
{8}3-5[8:1]/6h[8:11],,,,,5,5,,
{8}5,,4,4,,4/6,4/6,,
{8}3h[8:11]/6-4[8:1],,,,,4,4,,
{8}4,,5,5,,4/6,4/6,,
{8}5,5,4,6,4,4,5,3,
{8}6,6,5,7,3,3,5,,
{8}2h[4:1]/7h[4:1],,,,1/8,1/8,,2x/4x,
{8},4x/5x,,5x/6x,4x/7x-3[8:1],,3b,,
{8}2h[4:1],,4-7[8:1],4,,1,1,,
{8}7h[4:1],,5-2[8:1],5,,8,8,,
{8}2h[4:1],,4-8[8:1],4,,1,1,,
{8}2/8,2/8,3,4,5-1[8:1]/6h[4:1],,,,
{4}8<5[8:1],B2/B3,1>4[8:1],B5/B6,
{4}8<5[8:1],B3/B4,2h[4:1],1,
{8}3,4,2/5,6,5,4>6[8:5]/7,,6x,
{4},,,2x/7x,
{8}4/6,,3/6,3,3/6,,5/6,,
{8}3/6,,4/6,4,4/6,,1/6,,
{8}3x/6,,2/6,2,2/6,,3-8[4:1]/6,,
{4}6,6,1h[4:1]/6,6,
{8}2/6,,3x/5x,5,3x/5x,,3/6,,
{8}3/4,,3/7,7,3/7,,3/5,,
{8}3/8,,3/4,4,3/4-6[8:1],,2,2V48[4:1],
{8},7,7<4[8:1],,1b,,2,,
{8}3x/5x,,3/4,4,3/4,,3/6,,
{8}3/5,,3/7,7,3/7,,3/4<8[4:1],,
{4}3x,3,3/8,3/6,
{8}3/7,,3/5,5,3x/5h[4:1],,3x,,
{8}1/8,2/7,3b/6x,,5/6,,4>8[4:1]/6,,
{4}6,6,6/8,3/6,
{8}2/6,,4/6,4,4/6,,2/6,,
{8}4/5,,2,2/4,,7,5<4[4:11]/7,,
{1}8h[1:2],
{1},
{4},,,C1xh[4:3],
{8},,,,B2/B3/B6/B7,,,1,
{4}1/8,2-4[8:1]/4,6,5/7-5[8:1],
{4}3,1/4-8[8:1],3h[4:1],8x,
{8}5/7,5/7,,2/4,2/4,,7/8,1x/6x,
{8},5x/7x,,3x/4x,2x-6[8:1]/5x,,2b/6b,,
{8}8,7,5/7,4,3,2/4-7[8:1],,1-5[8:1],
{8},8x,,3>8[8:1]/7,6,5,,6,
{8}4/6,3,2/5,1,2/4,3-8[8:1]/5,6,7-4[8:1],
{8},2<5[4:1],,5b,,8x,8x,,
{8}5/7,6,4/5,3,2,2-5[8:1]/8-4[8:1],,2x/8x,
{8},1-5[8:1]/7-4[8:1],,1x/7x,,2b/6b,,4/5,
{8}6-1[8:1],6,2>5[8:1],2,7,7h[4:1],,1x,
{8},5/6,4/7-4[8:1],,1/7,,2b/8b,,
{4}1>5[4:1],5<1[4:1],1,5,
{8}5/7-4[8:1],,4,3,2h[4:1],,1,,
{4}1/8>4[4:1],4<8[4:1],8,4,
{8}2/6,,3x/7x,3xv1[8:1]/7xv5[8:1],,,,,
{4}2>6[4:1],6<2[4:1],2,6,
{8}4/8,,2x/6x,2bv4[8:1]/6bv8[8:1],,,,,
{16}2x/6x,,3,4,3,,6,5,6,,3,4,2,,6,5,
{4}7h[2:1],8<1[2:1],,,
{1}C1xh[1:2],
{1},
{1}1p8[4:3],
{1}5p4[4:3],
{1}C1xh[1:2],
{1},
{1}8<1[4:3],
{2},4/5,
{2}4h[4:7]/5h[4:1],5h[4:1],
{2}6h[4:1],7h[4:1],
{2}3h[4:1]/5h[4:7],3h[4:1],
{2}2h[4:1],1h[4:1],
{4}C1xh[1:2]/6,6,6,6,
{4}7,7,7,7,
{8}8,,8,,1/7,1/7,,B3/E3/B4,
{8},B5/E5/B6,,B7/E7/B8,,B1/E1/B2,,C1/B3/B6,
{2},4h[8:1]/5h[8:1],
{8}2b/6b,3,4/7,8,1,2/4-7[8:1],,1-5[8:1],
{8},8x,,3>8[8:1]/7,6,5,,6,
{8}4/6,3,1/2,8,5/7,4/6-1[8:1],3,2-6[8:1],
{8},7>5[4:1],,5b,,1x,1x,,
{8}2/4,3,4/5,6,1/7,1-5[8:1]/7-4[8:1],,1x/7x,
{8},2-5[8:1]/8-4[8:1],,2x/8x,,3b/7b,,4/5,
{8}3-8[8:1],3,7<4[8:1],7,2,2h[4:1],,8,
{8},5/6,5-1[8:1]/6,,8,,3x/7x,,
{384}2b/5b,,,,,,,,,,,,,,,,,,,,,,,,,,,,,,,,,,,,,,,,,,,,,,,,4b/7b,,,,,,,,,,,,,,,,,,,,,,,,,,,,,,,,,,,,,,,,,,,,,,,,1b/6b,,,,,,,,,,,,,,,,,,,,,,,,,,,,,,,,,,,,,,,,,,,,,,,,3b/8b,,,,,,,,,,,,,,,,,,,,,,,,,,,,,,,,,,,,,,,,,,,,,,,,4b/6b,,,,,,,,,,,,,,,,,,,,,,,,,,,,,,,,,,,,,,,,,,,,,,,,2bv5[8:1]/8bv5[8:1],,,,,,,,,,,,,,,,,,,,,,,,,,,,,,,,,,,,,,,,,,,,,,,,,,,,,,,,,,,,,,,,,,,,,,,,,,,,,,,,,,,,,,,,,,,,,,,,2b/8b,C1f,,,,,,,,,,,,,,,,,,,,,,,,,,,,,,,,,,,,,,,,,,,,,,,
{8},3x/7x,,1/8,2/7,3/6,,3/4,
{8}2-6[8:1],2,5-1[8:1],5,3-7[8:1],3,6,6h[4:1],
{8},5>2[8:1]*<8[8:1],,,,3x/7x,3b/7b,,
{8}5/7,8,2/4,1,1/8,7-4[8:1]/8v3[8:1],,7x/8x,
{8},1-6[8:1]/2v5[8:1],,1x/2x,,4b/7b,,7/8,
{8}6-2[8:1],6,4-8[8:1],4,8,7,6,2xqq2[8:3]/6xqq6[8:3],
{4},,,3b/7b,
{8}2/5,1,2/4,3,2-5[8:1]/4,,5,6,
{8}8-4[8:1],,4,3,2h[4:1],,1,,
{8}4/7,8,5/7,6,5-1[8:1]/7,,8,7,
{8}2h[4:1]/6,,1,3/8-4[8:1],,1,1b,,
{8}2/5,3,2/5,6,4/7,8,1/8,1xq5[8:1]/2x>5[8:1],
{8},1x/2x,,7/8,1/6,2/5,,5/6,
{8}7-3[8:1],7,4-8[8:1],4,8,7,6,1w5[8:3]/5,
{4},,,2b/8b,
{8}1/7,6,4/7,3,2/5,1,1/8,2x/7x,
{8},4xqq5[8:3]/5xpp4[8:3],,,,,,2/7,
{8}2/7,3>6[16:11]/6,4/5,,,,,,
{4},3/5,3p6[4:3]/5h[1:2],,
{1},
{24}6,,,,,,6,,,,,,6-2[8:1],7,8,1,2,3,4b/6b,,,,,,
{8}1x/4x,,3/5,3,3/7,7,5/7,,
{8}3/4<7[8:1],3,3,3,3/4-8[8:1],,1,,
{8}2x/7x,,5/6,6,2/6,2,2/4,,
{8}5>2[8:1]/7,7,7,7,5-1[8:1]/6xh[4:1],,,,
{4}2/8<5[8:1],B4/B5,3>8[8:1],B7/B8,
{4}6>3[8:1],B2/B3,1-5[8:1],8x,
{16}6,,5,,4/7,,3,3,4,,2-6[8:1]/5,,,,2x/8x,,
{192},,,,,,,,,,,,,,,,,,,,,,,,5x/7x,,,,,,,,,,,,,,,,,,,,,,,,,,,,,,,,,,,,,,,,,,,,,,,,2x/4x,,,,,,,,,,,,,,,,,,,,,,,,,,,,,,,,,,,,,,,,,,,,,,,,5xv2[8:1]/6x-2[8:1],,,,,,,,,,,,,,,,,,,,,,,,,,,,,,,,,,,,,,,,,,,,,,,,5b/6b,C1f,,,,,,,,,,,,,,,,,,,,,,,
{1},
{1},
{1},
E
