&title=スロウダウナー
&wholebpm=194
&artist=ろくろ
&des=はっぴー
&shortid=11124
&genre=niconicoボーカロイド
&cabinet=DX
&version=maimai DX PLUS
&chartconverter=Neskol
&lv_2=4
&des_2=
&lv_3=7
&des_3=
&lv_4=9+
&des_4=シチミヘルツ
&lv_5=12
&des_5=はっぴー
&des_6=
&inote_2=
(194){1},
{1},
{1},
{1},
{1},
{1},
{1},
{1},
{1},
{1}5,
{1}5,
{2}6,6,
{1}6,
{1}7,
{1}7,
{2}8,8,
{1}8,
{1}1,
{1}1,
{2}2,2,
{1}2,
{1}3,
{1}3,
{2}4,4,
{1}4/5,
{1}B6,
{1}B7,
{1}B8,
{1}B1,
{1}B2,
{1}B3,
{1}C1hf[1:1],
{1},
{2}8,8,
{4}8,8,8,,
{4}7,7,7,,
{1}7x/8x,
{2}6,6,
{4}5,5,5,,
{1}4h[2:1]/5h[2:1],
{2}4/5,3b/6b,
{2}4,4,
{4}4,4,4,,
{4}3,3,3,,
{1}3x/4x,
{1}2h[2:1],
{1}1h[2:1],
{1}8-5[4:3],
{1},
{1}1-4[4:3],
{1},
{1}8-4[4:3],
{1},
{1}1-5[4:3],
{1},
{1}8,
{1}1,
{1}2,
{1}3,
{1}4,
{1}5,
{1}6,
{1}7,
{1}8h[1:2],
{1},
{1},
{1}8,
{1}1h[1:2],
{1},
{1},
{1}1,
{1}8,
{1}7,
{1}6,
{1}5,
{1}4h[1:1]/5h[1:1],
{1},
{2}4,4,
{4}4,4,4,,
{4}3,3,3,,
{1}3xh[2:1]/4xh[2:1],
{2}2,2,
{4}1,1,1,,
{2}1/8,1/8,
{2}1/8,2b/7b,
{2}8,8,
{4}8,8,8,,
{4}7,7,7,,
{1}7xh[2:1]/8xh[2:1],
{2}6,6,
{2}5,5,
{1}4-1[4:3],
{1},
{2}8,8,
{1}1h[2:1]/8h[2:1],
{1}1-5[4:3],
{1},
{2}6,6,
{4}7,7,7,,
{1}8-4[4:3],
{1},
{2}3,3,
{4}2,2,2,,
{2}1,1,
{2}8,8,
{4}7,7,7,,
{1}7x/8x,
{2}8,8,
{2}1,1,
{4}2,2,2,,
{1}1xh[8:7]/2xh[8:7],
{1},
{1},
{1},
E
&inote_3=
(194){1},
{4}2x,2x,1/2,,
{4}7,7,7/8,,
{4}2,2,1,1,
{4}8,8,1x/7x,,
{4}7,7,7/8,,
{4}2,2,1/2,,
{4}7,7,8,8,
{4}1/8,1/8,2b/7b,,
{4}3h[2:1],,4,5,
{4}6h[2:1],,5,4,
{4}3h[2:1],,4,5,
{4}6,6,5x/6x,,
{4}6h[2:1],,5,4,
{4}3h[2:1],,4,5,
{4}6h[2:1],,5,4,
{4}3,3,2x/4x,,
{4}3,3,3/4,,
{4}6,6,5/6,,
{4}3,3,4,5,
{4}6,6,5x/7x,,
{4}6,6,5/6,,
{4}3,3,3/4,,
{4}2,2,1,1,
{4}1/8,1/8,2x/7x,,
{1}8p3[8:7],
{2},2x,
{1}1q6[8:7],
{2},7x,
{1}8<4[1:1],
{2},3x,
{2}1x/2x,7x/8x,
{4}1x/8x,1x/8x,2b/7b,,
{4}2,1,7x/8x,,
{4}7,8,1x/2x,,
{4}3,3,4,4,
{4}5,5,4x/6x,,
{4}3,3,3x/4x,,
{4}6,6,5x/6x,,
{4}4,4,4-1[2:1]/5-8[2:1],,
{2},2b/7b,
{4}7,8,1x/2x,,
{4}2,1,7x/8x,,
{4}6,6,5,5,
{4}4,4,3x/5x,,
{2}2h[2:1],1,
{1}3x/8x,
{1}B2,
{1}C1,
{1}B5/B7,
{1},
{1}B7,
{1}C1,
{1}B2/B4,
{1},
{1}E5,
{1}E6,
{1}E7,
{1}E8,
{1}E1,
{1}E2,
{1}C1xh[1:1],
{1},
{1}3h[1:2],
{1},
{1}4h[1:2],
{1},
{1}5h[1:2],
{1},
{1}6,
{2}4/5,4x/5x,
{4}6,6,6,,
{4}5,5,5,,
{4}4,4,4,,
{4}3,3,3,,
{1}4h[1:1]/5h[1:1],
{1},
{4}2,2,1x/2x,1x/2x,
{4}8,8,1x/7x,,
{4}6,6,5,5,
{4}4,4,3x/5x,,
{4}6,6,5x/6x,,
{4}3,3,3x/4x,,
{4}5,5,4-1[2:1]/5-8[2:1],,
{2},2b/7b,
{4}7x,7x,7x/8x,7x/8x,
{4}1,1,2x/8x,,
{4}3,3,4,4,
{4}5,5,4x/6x,,
{2}3h[2:1],4,
{2}6h[2:1],5,
{2}4/5,4>1[4:3]/5<8[4:3],
{1},
{1}2h[1:1]/7h[1:1],
{1},
{4}1,1,2,2,
{4}3,3,3x/4x,,
{4}5,5,6,6,
{4}7,7,7x/8x,,
{4}8,8,7,7,
{4}6,6,4x/5x,4x/5x,
{4}3,3,2,1x/8x,
{1}2x/7x,
{2}E3,B3,
{1}B4,
{2}E7,B6,
{1}B5,
{2}E4,E3,
{2}E2,E1,
{2}E8,E7,
{1}C1xh[8:7],
{1},
{1},
{1},
E
&inote_4=
(194){1},
{4}4/6,3,4/6,3,
{4}3/5,6,5x/7x,,
{4}3/5,6,3/5,6,
{4}4/6,3/4,2x/5x,,
{4}5/6,7,5/6,7,
{4}4/6,3,2x/4x,1,
{4}1/2,8,1/2,8,
{4}1/8,1/8,2b/7b,,
{4}6h[4:3],5,5,5,
{4}2h[4:3],4,4,4,
{4}7h[4:3],5,5,5,
{4}4/6,3/7,,4/5,
{4}3h[4:3],4,4,4,
{4}7h[4:3],5,5,5,
{4}2h[2:1],1,1,8,
{4}8,2x/7x,,1/8,
{4}3h[1:1],4,4,5,
{4}7h[1:1],5,5,4,
{4}2h[2:1],4,4,5,
{4}5,4x/7x,,8,
{4}2h[4:3],1,1,1,
{4}7h[4:3],8,8,8,
{4}2h[4:1],1,8h[4:1],1,
{4}1,2/7,,4/5,
{4}E7,B6,B5,,
{4}B4,B3,E3,,
{8}8,8,1,,6,,5,,
{4}4/5,4/5,3x/6x,,
{4}E3,B3,B4,,
{4}B5,B6,E7,,
{8}1x/8x,1x/8x,,4/6,4/6,,3/5,3/5h[8:3],
{8},4,4,,2x/7x,,8b,,
{4}1/7h[4:1],5,2h[4:1]/8,4,
{8}7/8,,1/2,1/2,,3/8,,4x/7x,
{8},1,1,,1/7,,3/4,,
{8}1/2,,3/7,3/7,,8,,1/7h[8:3],
{8},8,8,,3h[4:1],,1,,
{8}6h[4:1],,8,8,,2h[4:1],,8x<5[8:3],
{2},4x>1[4:1],
{8}8x-4[4:1],,,,1x,,8,8h[4:1],
{8},5,5,,1/7h[4:1],,5,,
{8}1/2,,7/8,7/8,,1/6,,2x/5x,
{8},8,8,,2/8,,5/6,,
{8}7/8,,2/6,2/6,,1,,2/8<3[8:3],
{4},,,1,
{8}1-5[4:1],,,8x,8x,,3xh[4:9]/6x,,
{1},
{2}E3,E5,
{1}6h[1:2],
{2}E7,E5,
{1}2h[1:2],
{2}E4,E5,
{1}7h[1:2],
{2}E7,E5,
{4}3,3h[4:7],4,4,
{4}5,5,6,6,
{4}6,6h[4:7],5,5,
{4}4,4,3,3,
{4}2,2h[4:9],1,1,
{4}8,8,7,7,
{4}7,7h[4:1],,,
{1}C1xh[1:1]/B2/B3/B6/B7,
{1},
{1},
{1},
{1},
{1}3xh[1:1],
{1}4h[1:1],
{1}5h[1:1],
{1}6>3[8:3],
{4}6,6,6,6,
{4}5,5,5,5,
{4}4,4,4,4,
{4}3,3,3,3,
{4}2,2,1,1,
{4}2x/7x,,,8b,
{4}1/7,5/6,2/8,3/4,
{8}7/8,,4/5,4/5,,1/2,,3x/8x,
{8},1,1,,1/7,,3/4,,
{8}1/2,,3/7,3/7,,4/5,,1/7h[8:3],
{8},8,8,,3h[4:1]/4,,1,,
{8}5/6h[4:1],,8,8,,2h[4:1]/4,,8x<5[8:3],
{2},4x>1[4:1],
{8}8xp4[4:1],,,,1x,,2x/6x,2x/6x,
{8},8,8,,1/7,,5/6,,
{8}1/2,,4/5,4/5,,7/8,,1x/6x,
{8},8,8,,2/8,,5/6,,
{8}7/8,,2/6,2/6,,4/5,,3x/7xqq3[4:3],
{1},
{1}2xpp6[4:3],
{2}7x-4[4:1],3x>6[8:5],
{1},
{1}C1xh[1:1]/B3/B6,
{1},
{4}7/8,1,7/8,6,
{4}4/5,3,2x/4x,,
{4}1/2,8,1/2,3,
{4}4/5,6,5x/7x,,
{4}7/8,1,7/8,6,
{4}4/5,6,4/5,3,
{4}1/2,3,1/2,8,
{4}1/8,1/8,2b/7b,,
{4}6h[4:3],5,4,5,
{4}2h[4:3],4,5,4,
{4}7h[2:1],5,4,3,
{4}3,2x/5x,,8,
{4}2h[4:3],1,8,1,
{4}7h[4:3],8,1,8,
{4}1,2/8,3/7,4/6,
{8}3/5,,5/6,5/6,,1/8,,2b/7b,
{1},
{1},
{1},
E
&inote_5=
(194){1},
{16}2-5[8:1],,,,2x/6h[4:1],,,,4,,,3/5,,,2/4,,
{16},,8,,8h[4:1],,,,2,,,3/5,,,4/6,,
{16}7-4[8:1],,,,3h[4:1]/7x,,,,5,,,4/6,,,5/7,,
{16},,1,,1h[4:1],,,,7,,,4/6,,,3/5,,
{16}2-5[8:1],,,,2x/6h[4:1],,,,4,,,3/5,,,2/4,,
{16},,8,,8h[4:1],,,,2,,,3/5,,,4/6,,
{16}7-4[8:1],,,,3h[4:1]/7x,,,,5,,,4/6,,,5/7,,
{8},1,1h[4:1],,8,,4x/5x,,
{16}4/6,,,,3/5,,,,2h[16:3],,,3h[16:3],,,4,,
{16},,5,,4/6,,,,7h[16:3],,,6h[16:3],,,5,,
{16}3/5,,,,4/6,,,,7h[16:3],,,6h[16:3],,,5,,
{16},,4,,3/5,,,,3h[16:3],,,2h[16:3],,,1,,
{16}1/8,,,,4/6,,,,7h[16:3],,,6h[16:3],,,5,,
{16},,4,,3/5,,,,2h[16:3],,,3h[16:3],,,4,,
{16}4/6,,,,3/5,,,,2h[16:3],,,3h[16:3],,,4,,
{16},,5,,4/6,,,,6h[16:3],,,7h[16:3],,,8,,
{16}1/8<5[8:1],,,,3,,,,2h[16:3],,,3h[16:3],,,4,,
{16},,5,,4/6,,,,7h[16:3],,,6h[16:3],,,5,,
{16}3>8[8:1]/5,,,,6,,,,7h[16:3],,,6h[16:3],,,5,,
{16},,4,,3/5,,,,3h[16:3],,,2h[16:3],,,1,,
{16}1>4[8:1]/8,,,,6,,,,7h[16:3],,,6h[16:3],,,5,,
{16},,4,,3/5,,,,2h[16:3],,,3h[16:3],,,4,,
{16}4/6<1[8:1],,,,3,,,,2h[16:3],,,3h[16:3],,,4,,
{8},8,1/8,,3/4,,4/5,,
{4}5>1[4:1]/6,6,4<8[4:1],3,
{8}5>1[4:1],,6,,4<8[4:1],,2,2h[4:1],
{8},8,8,,4/6,,3pp1[2:1],,
{4}7,7,8,8,
{4}3/4<8[4:1],3,5>1[4:1],6,
{8}4<8[4:1],,3,,5h[4:1],,6,6,
{8},3/5,3/5,,4/7,4/7,,2/6,
{16},,8,1,8,,,,2b/7b,,,,2-5[8:1]/6-1[8:1],,,,
{8}2x/6x,,3/7,,1h[4:1],,4,4,
{8}3,6,1,8V64[4:1],,4V28[4:1],,8,
{8},4,4-8[8:1],,6-3[8:1],,2V41[4:1],,
{8}7,,8,8,,1>6[4:1]/6,,C1f,
{24},,,,,,8h[4:1],,,,,,E2,B2,B3,E4,,,E8,B7,B6,E6,,,
{8}1h[4:1],,4,4h[4:1],,6V41[8:3],,7h[8:3],
{2},2-4[8:1]/7-5[8:1],
{8}1-4[8:1]/8-5[8:1],,,,2b/7b,2-5[8:1]/7-4[8:1],,2x/7x,
{8},1/8,1/8,,7h[4:1],,5,5,
{8}6,3,8,1V35[4:1],,5V71[4:1],,1,
{8},5,5-1[8:1],,3-6[8:1],,7V58[4:1],,
{8}2,,1,1,,3/8<3[4:1],,2,
{8},1,1h[4:3],,4,,4,,
{4}5-8[8:1],1-4[8:1],8-5[8:1],4,
{4}4,4,4,4,
{8}4,,4,,4,,4,5<8[8:5],
{4}4,4,4,4,
{4}4/7,4/6,4/5,4/5,
{4}4,4,4,4,
{8}4,,4,,4,,4,5-1[8:5],
{4}4,4,4,4,
{4}4/8,4/7,4/6,4/5,
{8}3-5[8:1],,8,8,7-4[8:1],,2,2,
{8}3-5[8:1],,8,8,7-4[8:1],,2,2,
{8}3-5[8:1],,8,8,7-4[8:1],,2,2,
{4}3h[4:1],1h[4:1],8h[4:1],6,
{8}6-4[8:1],,1,1,2-5[8:1],,7,7,
{8}6-4[8:1],,1,1,2-5[8:1],,7,7,
{8}6-4[8:1],,1,1,2-5[8:1],,6p4[4:3],,
{1},
{24}1h[1:8],,,,,,,,,,,,,,,,,,,,,E5,E6,E7,
{24},,,,,,,,,,,,,,,,,,,,,E5,E4,E3,
{24},,,,,,,,,,,,,,,,,,,,,E5,E6,E7,
{24},,,,,,,,,,,,,,,,,,,,,E7,E6,E5,
{24},,,,,,,,,,,,,,,,,,,,,E3,E4,E5,
{24},,,,,,,,,,,,,,,,,,,,,E8,E7,E6,
{24},,,,,,,,,,,,,,,,,,,,,E5,C1,E1,
{1},
{4}5,5,5,5,
{4}4-1[4:3]/5,5,5,5,
{4}5,5,5,5,
{4}1h[4:3]/5,5,5,5,
{4}1>4[2:1]/5,5,5,5,
{4}4/5,,,3-8[8:1]/7-4[8:1],
{8}3x/7x,,2/6,,8h[4:1],,5,5,
{8}6,3,8,1>5[4:1],,5<1[4:1],,1,
{8},5,5-1[8:1],,2-7[8:1],,6V85[4:1],,
{8}2,,1,1,,3/8<3[4:1],,C1f,
{4},1-5[8:1],1x/7-3[8:1],4b/7x,
{8}8h[4:1],,5,5h[4:1],,3V58[8:3],,2h[8:3],
{2},2-4[8:1]/7-5[8:1],
{8}1-4[8:1]/8-5[8:1],,,,2b/7b,2-5[8:1]/7-4[8:1],,2x/7x,
{8},1b/8b,1b/8b,,2h[4:1],,4,4,
{8}3,6,1,8<4[4:1],,4>8[4:1],,8,
{8},4,4-8[8:1],,6-3[8:1],,1pp1[4:1],,
{8}7,,8,8,,1>6[4:1]/6,,7,
{8},8,8h[2:1],,5,,6>1[4:1],,
{8}8,,8,8,1,,1,1-4[8:1],
{8},8,8h[4:1],,5b>7[8:3],,6b,6b,
{8},,,1,1,,8h[4:5],,
{4}E5,E7,E1,E3,
{1}C1xh[2:1],
{16}7-4[8:1],,,,3h[4:1]/7x,,,,5,,,4/6,,,5/7,,
{16},,1,,1h[4:1],,,,5,,,4/6,,,3/5,,
{16}2-5[8:1],,,,2x/6h[4:1],,,,4,,,3/5,,,2/4,,
{16},,8,,8h[4:1],,,,4,,,3/5,,,4/6,,
{16}7-4[8:1],,,,3h[4:1]/7x,,,,5,,,4/6,,,5/7,,
{16},,1,,1h[4:1],,,,5,,,4/6,,,3/5,,
{16}2-5[8:1],,,,2x/6h[4:1],,,,4,,,3/5,,,2/4,,
{8},8,8-5[8:1],,1-4[8:1],,8x,,
{16}2/8,,,,1/7,,,,6h[16:3],,,7h[16:3],,,8,,
{16},,1,,2/8,,,,3h[16:3],,,2h[16:3],,,1,,
{16}1/7,,,,2/8,,,,3h[16:3],,,2h[16:3],,,1,,
{16},,8,,1/7,,,,7h[16:3],,,6h[16:3],,,5,,
{16}4/5,,,,2/8,,,,3h[16:3],,,2h[16:3],,,1,,
{16},,8,,1/7,,,,6h[16:3],,,7h[16:3],,,8,,
{16}2/8,,,,1/7,,,,6h[16:3],,,7h[16:3],,,8,,
{16}1/8,,1/8,,2/7,,2/7,,,,1v4[8:1]/5v8[8:1],,,,,C1f,
{1},
{1},
{1},
E
