&title=グラーヴェ
&wholebpm=185
&artist=niki
&des=はっぴー
&shortid=11127
&genre=niconicoボーカロイド
&cabinet=DX
&version=maimai DX PLUS
&chartconverter=Neskol
&lv_2=3
&des_2=
&lv_3=7
&des_3=
&lv_4=9+
&des_4=はっぴー
&lv_5=12+
&des_5=はっぴー
&des_6=
&inote_2=
(185){1},
{1},
{1},
{1},
{1}1,
{1},
{1}1,
{1},
{1}8,
{1},
{1}8h[1:1],
{1},
{1}8,
{1}8,
{1}7,
{1}7,
{1}6,
{1}6,
{1}5h[1:1],
{1},
{2}4,4,
{1}4,
{2}3,3,
{1}3,
{2}2,2,
{1}2,
{2}1,1,
{1}1/8,
{1}8-4[4:3],
{1},
{1}3,
{1}2,
{1}1-5[4:3],
{1},
{2}6,6,
{2}7,7b,
{4}8,8,8,,
{4}7,7,7,,
{4}6,6,6,,
{2}4/5,4/5,
{1}4h[2:1],
{1}5h[2:1],
{4}4,4,4,,
{1}4x/5x,
{1}3h[1:1],
{1},
{1}2h[1:1],
{1},
{1}1,
{1}1,
{2}8,8,
{1}1x/8x,
{1}1h[1:1],
{1},
{1}1-5[4:3],
{1},
{1}8h[1:1],
{1},
{1}8-4[4:3],
{1},
{2}3,3,
{2}4,4,
{2}5,5,
{4}6,6,6b,,
{2}5,5,
{2}4,4,
{2}3,3,
{1}3x/4x,
{1}B2,
{1}B3,
{1}B4,
{1}B5,
{1}B6,
{1}B7,
{1}C1hf[1:1],
{1},
{1},
{4}8x,8,8,,
{4}7,7,7,,
{4}6,6,5,5,
{1}4h[2:1],
{1}5h[2:1],
{1}4h[2:1],
{4}5,5,5,,
{1}4x/5x,
{4}4,4,4,,
{4}3,3,3,,
{4}2,2,1,1,
{1}8h[2:1],
{1}8-4[4:3],
{1},
{2}3,3,
{2}4,4,
{1}4h[1:2]/5h[1:2],
{1},
{1},
{1},
{1},
E
&inote_3=
(185){1},
{1},
{1},
{1},
{1}3h[1:1],
{1}4h[1:1],
{1}5h[1:1],
{1}6,
{1}5h[2:1]/6h[2:1],
{1}3h[2:1]/4h[2:1],
{1}5-8[4:3],
{4},,1x,2x,
{4}3,3,4,,
{4}6,6,5,,
{4}3,3,4,,
{2}4/5,3x/6x,
{4}7,7,8,,
{4}2,2,1,,
{1}1h[2:1]/8h[2:1],
{2}2/7,3x/6x,
{1}3-6[4:3],
{2},7,
{1}7-4[4:3],
{2},3,
{1}3-8[4:3],
{2},7,
{1}7-4[4:3],
{2},3x/5x,
{2}3h[2:1],4,
{4}5,5,4,,
{2}6h[2:1],5,
{4}7,7,7/8,,
{1}1h[2:1]/8h[2:1],
{1}2h[2:1]/7h[2:1],
{2}8h[2:1],1h[2:1],
{2}8,2b/7b,
{4}1,2,3,4,
{4}5,6,7x/8x,,
{4}8,7,6,5,
{4}4,3,1x/2x,,
{4}3,3,3/4,,
{4}6,6,5/6,,
{4}4,4,5,5,
{2}4/5,3x/6x,
{2}3h[2:1],4,
{2}6h[2:1],5,
{2}3h[2:1],4,
{2}2/5,2/5,
{2}2h[2:1],1,
{2}7h[2:1],8,
{1}1-4[4:3]/8-5[4:3],
{2},3x/6x,
{2}B4,B3,
{1}B2/E3,
{2}B5,B6,
{1}B7/E7,
{2}B4/E4,E3,
{1}B1/E2,
{2}B5/E6,E7,
{1}B8/E8,
{2}B4/B5,B3/B6,
{1}B2/B7,
{2}E4/E6,E3/E7,
{1}E2/E8,
{2}E1,E8,
{2}E7,E6,
{2}E5,E4,
{1}C1f,
{1}1x-4[4:3],
{2},5,
{1}5-8[4:3],
{2},1,
{1}1>4[4:3],
{2},5,
{1}4h[2:1]/5h[2:1],
{1}3h[2:1]/6h[2:1],
{1},
{1}C1f,
{4}1x,2,3,4,
{4}5,6,7,8,
{2}1x/8x,2x/7x,
{4}2,2,1/2,,
{4}7,7,7/8,,
{4}8,8,1,1,
{2}1/8,2x/7x,
{4}8,7,6,5,
{4}4,3,2,1,
{4}1x/8x,2,3,4,
{4}4/6,4/6,4/6,5x<4[1:1],
{1},
{2},5x/6x,
{2}6h[2:1],5h[2:1],
{2}4h[2:1],3,
{1}C1f,
{1},
{1},
{1},
E
&inote_4=
(185){1},
{1},
{1},
{4}6,6,6,6,
{4}5h[4:3],4,4,4,
{4}3h[4:3],4,4,4,
{4}6h[4:3],5,5,5,
{4}3,2/4,1/8,7,
{4}6h[4:3],5,5,5,
{4}3h[4:3],4,4,4,
{4}3/5,2,4/6,2xh[2:1]/7xh[2:1],
{4},,1b,2b,
{8}4/7,,5,,3,3,4,2,
{8},1/8,1/8,,5/7,,3/4,,
{8}2/5,,4,,6,6,5,7,
{8},1/8,1/8,,2/4,,5/6,,
{8}4/7,,5,,3,3,4,1h[4:1],
{8},8,8,,5/7,,3/4,,
{8}2/5,,4,,6,6,5,8h[4:1],
{8},1,1,,2/7,,,,
{4}3,2/4,6,5/7,
{8}3,,2/4,,1,1,8,,
{4}6,5/7,3,2/4,
{8}6,,5/7,,8,8,1,,
{4}3,2/4,6,5/7,
{4}3,2/4,1/8,3/6,
{4}7h[4:1],5h[4:1],4h[4:1],2h[4:1],
{4}7h[4:1],5,4/5,3/6,
{8}2h[4:3],,3,3,,,5,5,
{8},3,3/4,,1-5[4:1],,,,
{4}6,6,5,4,
{8}3/4,,2/5,,6,6,5,,
{8}7h[4:3],,6,6,,,4,4,
{8},6,5/6,,8-4[4:1],,,,
{8}3,,3,,5,5,4,,
{4}4/5,1/8,2b/7b,,
{2}2x-5[8:1]/8x,1x/7-4[8:1],
{4}2-5[8:1]/8,,1/7,5/6,
{8}1x/7x-4[8:1],,,,2,,3,3/4,
{8},5/6,,7/8,,1/2,,3h[4:1]/8h[4:1],
{8},,,2,2h[4:1],,4,4<8[4:1],
{8},,,1b,,,,3,
{8}3/4,,6,5/6,,7/8,,1h[4:1]/6h[4:1],
{8},,,2/8,2/8,,1/7,1h[4:1]/7h[4:1],
{8},,4/5,4/5,,3/6,,1h[4:1]/8h[4:1],
{8},,1/8,1/8,,4/5,4/5,,
{4}7<4[4:1],,3,2,
{4}2>5[4:1],,6,7,
{4}7<4[4:1],,3,2,
{4}2/4,5,6,5/7,
{4}8,1,2/4,5,
{1}5-2[4:1]*-8[4:1],
{4}3,3,3h[1:1],,
{2}E1,E5,
{4}6,6,6h[1:1],,
{2}E1,E5,
{4}3,3,3h[1:1],,
{4}E1,C1,E5,,
{4}6,6,6h[1:1],,
{4}E1,C1,E5,,
{2}8<5[4:1],1>4[4:1],
{4}E1,C1,E5,,
{2}1>4[4:1],8<5[4:1],
{4}E1,C1,E5,,
{2}1>4[4:1],8<5[4:1],
{4}E1,C1,E5,,
{2}1>4[4:1],8<5[4:1],
{4}E1,C1,E5,,
{4}6h[1:2],5,5,5,
{4}7,8,1,2,
{4}3h[1:2],4,4,4,
{4}2,1,8,7,
{4}6-2[4:1],,,1h[4:3],
{2},8,
{4}5/7,6,4,3,
{4}2/4,4/5,5/7,1h[4:3]/8h[4:3],
{1},
{2}C1f,1b-4[8:1]/8b-5[8:1],
{4}1/7-4[8:1],,2/8,3/4,
{8}2x-5[8:1]/8x,,,,7,,6,5/6,
{8},3/4,,1/2,,7/8,,1h[4:1]/6h[4:1],
{8},,,7,7h[4:1],,5,5>1[4:1],
{8},,,8b,,,,6,
{8}5/6,,3,3/4,,1/2,,3h[4:1]/8h[4:1],
{4},4>1[4:1]/7<4[4:1],,,
{4}1b/2b-5[8:1],8-4[8:1],1,2/5,
{4}7-4[8:1]/8,1-5[8:1],8,4/7,
{8}1/2-5[8:1],,8-4[8:1],,1,,7,7/8,
{8},5/6,,3/4,,1bqq6[8:7]/2bpp5[8:7],,,
{1},
{4}7,7,5/7,4,
{2}4>1[4:1],8<5[4:1],
{4}3,2,1h[2:1],,
{1}C1f,
{1},
{1},
{1},
E
&inote_5=
(185){1},
{1},
{1},
{4}6,6,6,6,
{8}4/5,,4/5,,3/5,6,3/7,2,
{8}1>4[8:1]/8q5[8:1],,,,6,6,6,6,
{8}4/5,,4/5,,4/6,3,2/6,7<5[8:1],
{8},1v4[8:1],,8<5[8:1],,1,,4,
{8}4/5,,4/7,,3/7,6,3/5,2,
{8}1>4[8:1]/5p8[8:1],,,,3,3,3/6,,
{8}4/8,3,2/8,7,2/6,3>5[8:3],4,5,
{4},,1b,2b,
{8}6-4[8:1],,8,,3,3,4,2-5[8:1],
{8},6,6-1[8:1],,3,3,2/4,,
{8}3-5[8:1],,1,,6,6,5,7-4[8:1],
{8},3,3-8[8:1],,6,6,5/7,,
{8}6-4[8:1],,8,,3,3,4,2-5[8:1],
{8},6,6-1[8:1],,3,3,2/4,,
{8}3-5[8:1],,1,,6,6,5,2/7,
{16},,1/8,,3/6,,,,4,5,4,,3/6,,,,
{8}2,2-7[8:1],,5,,6-3[8:1],,1,
{8},2>5[8:1],,7,,6<1[8:1],,3,
{8},4-1[8:1],,6,,5<8[8:1],,1>4[8:1],
{8},8,8h[4:1],,4,4,3/5,,
{8}2,2,4/6,3,3/7,6,6,1/4,
{8}2,2,3/8,7,5/7,4>1[8:1],4,5,
{8},4<8[4:1],,3,,5>1[4:1],,6,
{8},5,,1/8,,3/6,3/6,,
{8}5/7,6,5,5/7h[4:1],,4,3/5,2h[4:1],
{8},5,4/6,3,2/4,,6,5/7,
{8},2-7[8:1],,6,6,,8,8-5[8:1],
{8},1,,4,4/5,,3/6,,
{8}2/4,3,4,2h[4:1]/4,,5,4/6,7h[4:1],
{8},4,3/5,6,5/7,,2/5,1-4[8:1],
{8},6h[4:1],,5,5,4/6,3/7,2/8,
{16}1,8,1,8,1,8,1,8,1,,,,3/7,,,,
{8}1-4[8:1]/5-8[8:1],,1x/5x,,7,7,5,5-1[8:1],
{8},8,8,7,1/6,3,4/7,8-4[8:1],
{8},1,1,2,3/8,6,1/5,2-5[4:1],
{8},5-1[4:1],,1-6[4:1],,6<3[4:1],,C1f,
{8},,,8,8-4[8:1],,2,2qq3[2:1],
{8},5,5,5h[4:1],,,,1,
{8}1-5[8:1],,7,7qq8[2:1],,4,,3h[4:1],
{8},,,4/5,4h[8:1]/5h[8:1],,1-3[8:1]/8-6[8:1],,
{8},,3/6,3h[8:1]/6h[8:1],,5-8[8:1]*q4[8:1],,,
{4},1z5[4:1]/8s4[4:1],,,
{8}3/6,,2-6[8:1],,7-3[8:1],,1,1-4[8:1],
{8},8-5[8:1],,2-7[8:1],,6,,8,
{8}8h[4:1],,5,,4/7,,1,1,
{4}8,5/7,4/6,3h[4:1]/5,
{8}1h[8:3],,,8h[8:3],,,6h[4:1],,
{4}3,4-1[8:1]/5-8[8:1],4x/5x,,
{8}8x,,8xh[2:3],,E2,E3,E4,C1xh[8:5],
{1},
{8}1x,,1xh[2:3],,E8,E7,E6,C1,
{8},B3/B4,,B5/B6,,7,7,,
{8}8x,,8x,,E2/8,E3,E4/8,C1xh[8:3],
{4}8,8,8,8,
{8}1x,,1x,,E8/1,E7,E6/1,C1,
{8}1,B3/B4,1,B5/B6,1,7,1/7,,
{8}8,,8,,E2/8,E3,E4/8,C1xh[8:3],
{4}8,8,8,8,
{8}1,,1,,E8/1,E7,E6/1,C1,
{8}1,B3/B4,1,B5/B6,1,7,1/7,,
{8}1,,1,,E8/1,E7,E6/1,C1xh[8:3],
{4}1,1,1,1,
{8}8,,8,,E2/8,E3,E4/8,C1,
{8}8,B5/B6,8,B3/B4,8,,8<3[4:3],,
{8}2h[2:1],,,,,,1,1-4[4:1],
{8},,,6,6,,8,8<3[8:5],
{8},3,,2,2,,1,1-5[8:1],
{8},6,6,,3/6,4/5,4/5,,
{16}2/4,,,3/5,,,4/6,,4-1[8:1]/6,,,,5,,5h[4:1],,
{8},1,,7,7h[4:1],,5,5>2[8:1],
{8},8<5[8:1],,2,2,,3/6,,
{16}1,8,1,8,2,7,2,7,3,6,3,6,4h[4:3],,,,
{2},E5,
{16}5x/7x,,,4x/5x,,,2x/4x,,1x/8x,,,,4/5,,4-1[8:1]/5-8[8:1],,
{16},,4x/5x,,,,2/6,,3,4,3,5,2,,1-4[8:1],,
{8},1/8,8,7,1/6,3,4/8,7-4[4:1],
{8},4-8[4:1],,8-3[4:1],,3>6[4:1],,C1f,
{8},,,1,1-5[8:1],,7,7qq8[2:1],
{8},3,3,3h[4:1],,,,8,
{8}8-4[8:1],,2,2,,1b-4[8:1]/8b-5[8:1],,1b/8b,
{8},1-5[8:1],8-4[8:1],1x,8x,3,3/6,,
{8}2-7[8:1],2,6-3[8:1],6,1-4[8:1],1,5-8[8:1],5,
{8}2-6[8:1],2,1-5[8:1],1,8-4[8:1],8,7-3[8:1],7,
{8}1-4[8:1],1,5-8[8:1],5,1x-5[8:1],1x,8x,8xh[4:1],
{8},7h[4:1],,5h[4:1],,4>5[8:7],,C1f,
{1},
{4}5,4,4/5,6-1[4:1],
{4}2,3-8[4:1],7,6,
{4}1/8,2/7,3/6,4>1[1:1]/5<8[1:1],
{1},
{1},
{1},
{1},
E
