&title=クレイジー・ビート
&wholebpm=130
&artist=さつき が てんこもり
&des=シチミヘルツ
&shortid=11125
&genre=niconicoボーカロイド
&cabinet=DX
&version=maimai DX PLUS
&chartconverter=Neskol
&lv_2=3
&des_2=
&lv_3=6
&des_3=
&lv_4=9+
&des_4=華火職人
&lv_5=12+
&des_5=シチミヘルツ
&des_6=
&inote_2=
(130){1},
{1},
{1},
{1},
{1},
{1},
{1},
{1},
{1},
{1}1,
{1}2,
{1}3,
{1}4,
{2}5,5,
{2}6,6,
{2}7,7,
{1}8h[2:1],
{2}8,8,
{1}8,
{2}7,7,
{1}7,
{2}6,6,
{1}6,
{2}5,5,
{1}4h[2:1]/5h[2:1],
{2}4,4,
{2}5,5,
{4}4,4,4,,
{4}4x/5x,4x/5x,4x/5x,,
{2}5,5,
{2}4,4,
{4}5,5,5,,
{4}4x/5x,4x/5x,4b/5b,,
{2}4,4,
{2}3,3,
{4}2,2,2,,
{4}1x/8x,1x/8x,1x/8x,,
{2}8,8,
{2}7,7,
{4}6,6,6,,
{4}4x/5x,4x/5x,4b/5b,,
{1}3-6[4:3],
{1},
{2}7,7,
{1}8h[2:1],
{1}7-2[4:3],
{1},
{2}1,1,
{1}1h[2:1]/8h[2:1],
{1}B2,
{1}B3,
{1}B4,
{1}B5,
{1}B6/B7,
{1}B2/B3,
{1}C1hf[1:1],
{1},
{4}8,8,8,,
{4}7,7,7/8,,
{4}6,6,6,,
{4}5,4,5,,
{4}4,4,4,,
{4}3,3,3/4,,
{4}2,2,2,,
{4}1,8,1b,,
{4}1,1,2,2,
{4}3,3,4/5,,
{4}5,5,6,6,
{4}7,7,1/8,,
{4}8,8,7,7,
{4}6,6,4/5,,
{4}4,4,3,3,
{1}1xh[8:7]/2xh[8:7],
{1},
{1},
{1},
E
&inote_3=
(130){1},
{1}5-8[4:3],
{2},1,
{1}1-4[4:3],
{2},5,
{1}5h[2:1]/6h[2:1],
{1}3h[2:1]/4h[2:1],
{1}4h[2:1]/5h[2:1],
{2}4/5,3/6,
{1}4>1[4:3],
{2},8,
{1}8<5[4:3],
{2},3/4,
{2}2,1/2,
{2}7,7/8,
{1}1h[2:1]/8h[2:1],
{4}2/7,,3/6,3b/6b,
{4}3,3,3/4,,
{4}2,2,1/2,,
{4}7,7,7/8,,
{4}6,6,5x/7x,,
{4}6,6,5/6,,
{4}7,7,7/8,,
{4}1,1,1/8,,
{2}2/7,3x/6x,
{4}6,6,5,,
{4}3,3,4,,
{2}5/6,3/4,
{4}2/5,2/5,2/5,,
{2}3h[4:1]/4h[4:1],3/4,
{2}5h[4:1]/6h[4:1],5/6,
{2}4h[4:1]/5h[4:1],4/5,
{2}3/6,2x/7x,
{4}1,1,2,2,
{4}3,3,3/4,,
{4}5/6,5/6,5/6,,
{4}7/8,7/8,7x/8x,,
{4}7,7,6,6,
{4}5,5,4/5,,
{4}3/4,3/4,3/4,,
{4}4/5,4/5,3b/6b,,
{2}E4,B4,
{2}B5,E6,
{2}B6,B7,
{2}E8,C1,
{2}B2/E2,B6/B7,
{2}B3/E4,B5/E6,
{2}B3/B4,B5/B6,
{1}C1xh[2:1],
{2}E3,B4/E4,
{2}E7,B5/E6,
{2}E4,B2/E3,
{2}E6,B7/E7,
{4}B4,B3,B2,,
{4}B5,B6,B7,,
{1}C1xh[2:1],
{4}8,7,6,4b/5b,
{4}3,3,3/4,3/4,
{4}2,2,1/2,,
{4}8,8,1/8,1/8,
{4}7,7,7x/8x,,
{4}6,6,5/6,5/6,
{4}6,5,4x/5x,,
{4}3/4,3/4,4/5,4/5,
{2}3h[4:1]/6h[4:1],3b/6b,
{4}2,1/2,7,7/8,
{4}2,1/2,3x/8x,,
{4}3,3/4,6,5/6,
{4}3,3/4,2x/5x,,
{4}3,3,2,1,
{4}1/8,2/7,3x/6x,,
{2}4h[4:1]/5h[4:1],3h[4:1]/6h[4:1],
{1}C1xh[8:7],
{1},
{1},
{1},
E
&inote_4=
(130){1},
{2}6h[2:1],C1xh[1:3],
{2},B8,
{2},B7,
{2},B6,
{2}3h[2:1],C1xh[1:3],
{2},B1,
{2},B2,
{2},B3,
{2}1h[1:2]/8,7,
{2}6,5,
{2}5h[2:3],1,
{4}2,,3,4x,
{4}6,4/5,3,4/5,
{8}6,6,4,4,5,5,3,3,
{16}7,,7,,2,,2,,8x,1x,8x,1x,8x,,,,
{4}2h[2:1]/7h[2:1],,,4b/5b,
{4}1-3[8:1]/8-4[8:1],,3h[8:1]/4h[8:1],1h[8:1]/2h[8:1],
{4}3h[8:1]/4h[8:1],1h[8:1]/2h[8:1],3/4h[4:1],1b,
{4}1-5[8:1]/8-6[8:1],,5h[8:1]/6h[8:1],7h[8:1]/8h[8:1],
{4}5h[8:1]/6h[8:1],7h[8:1]/8h[8:1],5h[4:1]/6,8b,
{4}1-3[8:1]/8-4[8:1],,3h[8:1]/4h[8:1],1h[8:1]/2h[8:1],
{4}3h[8:1]/4h[8:1],1h[8:1]/2h[8:1],3/4h[4:1],1b,
{4}1-4[8:1]/8-5[8:1],,3h[8:1]/6h[8:1],2h[8:1]/7h[8:1],
{4}1/8,3/6>3[4:1],,1b,
{4}2h[4:3],4-1[4:1],,,
{4}7h[4:3],8-5[4:1],,,
{16}5/6,,6,,5/6,,6,,4x/7x,,,4x/7x,,,,,
{16}3/4,,3,,3/4,,3,,2x/5x,,,2x/5x,,,,,
{4}6h[4:3],4-8[4:1],,,
{4}2h[4:3],8-4[4:1],,,
{16}1/2,,2,,1/2,,2,,3x/8x,,,3x/8x,,,,,
{16}7/8,,7,,7/8,,7,,1/6,,,2b/7b,,,,,
{8}1/2,1/2,1/2pp4[4:1],,8,,,,
{8}3/4,3/4,3qq1[4:1]/4,,5,,,,
{16}1/8,,2,,1/8,,7,,1x/8x,,,1x/8x,,,,,
{16}4/5,,6,,4/5,,3,,4x/5x,,,4x/5x,,,,,
{8}5/7,5/7,5p8[4:1]/7,,8,,,,
{8}6/8,6/8,6/8q5[4:1],,5,,,,
{16}5/6,,4,,5/6,,7,,5x/6x,,,5x/6x,,,,,
{16}3/4,,5,,3/4,,2,,3x/4x,,,3x/4x,,,,,
{2}1b>8[2:3]/8b,C1,
{2},C1,
{2}1/8<1[2:3],C1,
{2},C1,
{2}1/8-5[2:1],B3,
{2}4-1[2:1]/5,B7,
{2}3/6-3[2:1],C1,
{2}2-7[2:1]/7,E1,
{4}4/5,5/6,5/7,4/5,
{4}4/5,3/4,2/4,4/5,
{4}5/6h[4:1],7,3h[4:1]/4,2,
{4}2/7,3/6,4/5,C1/B3/B6,
{8}1,1,2,2,3,3,4/5,,
{8}8,8,7,7,6,6,4/5,,
{16}3/6,,3/6,,2/7,,2/7,,8x,1x,8x,1x,8x,,,,
{4}2h[2:1]/7h[2:1],,,4b/5b,
{4}3-1[8:1]/8-4[8:1],,3h[8:1]/4h[8:1],1h[8:1]/8h[8:1],
{4}5h[8:1]/6h[8:1],1h[8:1]/8h[8:1],3/4h[4:1],C1f,
{4}1-5[8:1]/6-8[8:1],,5h[8:1]/6h[8:1],1h[8:1]/8h[8:1],
{4}3h[8:1]/4h[8:1],1h[8:1]/8h[8:1],5h[4:1]/6,C1f,
{4}3-1[8:1]/8-4[8:1],,3h[8:1]/4h[8:1],1h[8:1]/8h[8:1],
{4}5h[8:1]/6h[8:1],1h[8:1]/8h[8:1],3/4h[4:1],C1f,
{4}1-4[8:1]/5-8[8:1],,3h[8:1]/7h[8:1],4h[8:1]/8h[8:1],
{4}2/6,3V51[4:1]/7,,8b,
{4}3-8[8:1]/7-4[8:1],,1h[8:1]/7h[8:1],3h[8:1]/4h[8:1],
{4}1h[8:1]/2h[8:1],6h[8:1]/7h[8:1],1h[4:1]/8,4b,
{4}2-5[8:1]/6-1[8:1],,2h[8:1]/8h[8:1],5h[8:1]/6h[8:1],
{4}7h[8:1]/8h[8:1],2h[8:1]/3h[8:1],1/8h[4:1],5b,
{4}3-8[8:1]/7-4[8:1],,1h[8:1]/7h[8:1],3h[8:1]/4h[8:1],
{4}1h[8:1]/2h[8:1],6h[8:1]/7h[8:1],1/8h[4:1],5b,
{4}3-6[8:1]/7-2[8:1],,1h[8:1]/8h[8:1],4h[8:1]/5h[8:1],
{1}C1hf[8:7],
{1},
{1},
{1},
E
&inote_5=
(130){1},
{1}C1xh[1:3]/B2/B3/E7,
{1}B6/B7/E7,
{1}8h[4:3],
{1}8<5[8:3],
{1}C1xh[1:3]/E3/B6/B7,
{1}B2/B3/E3,
{1}1h[4:3],
{1}1>4[8:3],
{1}C1xh[1:3]/B2/B3/E7,
{1}B6/B7/E7,
{1}8h[4:3],
{4}8z4[8:3],,,1x,
{4}4h[8:1]/5h[8:1],3h[8:1]/5h[8:1],2h[8:1]/5h[8:1],1h[8:1]/5h[8:1],
{8}4/5,5,4/6,6,4/7,7,4/8,,
{1}B1/C1hf[1:1]/B4/B5/B8,
{4}B3/E3/B6/E7,,,2b/7b-5[8:1],
{8}7-3[8:1],4,7-5[8:1],4,7-3[8:1],4,7,4,
{8}3/7,2/6,3-8[8:1]/7-4[8:1],4/8,3/7,,2x-4[8:1]/6x,,
{8}2-6[8:1],5,2-4[8:1],5,2-6[8:1],5,2,5,
{8}2h[4:1]/6,8,7h[8:1],8,1/6,,4x/8x-6[8:1],,
{8}8-3[8:1],4,8-6[8:1],4,8-3[8:1],4,8,4,
{8}3/7,2/6,3-8[8:1]/7-4[8:1],4/8,3/7,,1x-3[8:1]/5x,,
{8}1-6[8:1],5,1,5,1/6,2,3/8>7[2:1],7,
{4}6xh[2:1],,,3b/7b,
{16}5/6,,7,,3/5,,2,,3h[16:3]/4,,,5,,,2/6,,
{16}3/4,,2,,4/6,,7,,5/6h[16:3],,,4,,,3/7,,
{16}5/6,,7,,5/6,,7,,4,5,,2x/6x,,,,,
{16}3/4,,2,,3/4,,2,,5,4,,1x/5x,,,,,
{16}3/4,,2,,4/6,,7,,5/6h[16:3],,,4,,,3/7,,
{16}5/6,,7,,3/5,,2,,3h[16:3]/4,,,5,,,2/6,,
{16}3/4,,2,,3/4,,2,,5,4,,3x/7x,,,,,
{16}7/8,,6,,1/8,,3,,8,1,,2b/6b,,,,,
{16}2-5[8:1]/8,,7,,6,,7,,5h[16:3]/6,,,7,,,4/8,,
{16}1/7-4[8:1],,2,,3,,2,,3/4h[16:3],,,2,,,1/5,,
{16}3/4,,1,,3/4,,1,,5,4,,3x/7x,,,,,
{16}5/6,,8,,5/6,,8,,4,5,,4x/8x,,,,,
{16}1/7-4[8:1],,2,,3,,2,,3/4h[16:3],,,2,,,1/5,,
{16}2-5[8:1]/8,,7,,6,,7,,5h[16:3]/6,,,7,,,4/8,,
{16}5/6,,8,,5/6,,8,,4,5,,2x/6x,,,,,
{16}2/8,,4/5,,1/7,,4/5,,2,1,,3b/7b,,,,,
{1}4>8[2:1]/5,
{1}6/8>4[2:1],
{1}4/5<1[2:1],
{1}1<5[2:1]/3,
{1}4-1[2:1]/5,
{1}4/5-8[2:1],
{1}4-1[2:1]/5,
{4}4/5,6,4/5-2[8:1]*-8[8:1],,
{16}1h[8:1]/8h[8:1],,,,1h[8:1]/6h[8:1],,,,1/5,,,1/5,,,1/5,,
{16}1h[8:1]/8h[8:1],,,,3h[8:1]/8h[8:1],,,,4/8,,,4/8,,,4/8,,
{16}4h[8:1]/5h[8:1],,,,2h[8:1]/5h[8:1],,,,1/5,,,1/5,,,1/5,,
{4}4h[8:1]/5h[8:1],4h[8:1]/7h[8:1],4w8[8:1]/8,,
{8}4/5,3/5,2/5,1/5,4/5,3/5,2/5,1/5,
{8}4/5,4/6,4/7,4/8,4/5,4/6,4/7,4/8,
{16}2,1,3,8,4,7,5,6,4,5,3,6,2,7,1,8,
{8}1/8,2/6,3-8[8:1]/7-4[8:1],4/8,3/7,,2b>4[8:1]/6b,,
{8}2-6[8:1],8,2>4[8:1],4,2-6[8:1],8,2,4,
{8}2/6,3/7,2-5[8:1]/6-1[8:1],1/5,2/6,,3b/7b<5[8:1],,
{8}7-3[8:1],1,7<5[8:1],5,7-3[8:1],1,7,5,
{8}3/6h[4:1],1,4h[8:1],1,3/7,,1b>3[8:1]/5b,,
{8}1-5[8:1],7,1>3[8:1],4,1-5[8:1],8,1,4,
{8}2/6,3/7,2-5[8:1]/6-1[8:1],1/5,2/6,,4b/8b<6[8:1],,
{8}8-4[8:1],2,8<6[8:1],5,8-4[8:1],1,8,5,
{8}3/6h[4:1],1,4h[8:1],1,3/7,,2b/6b-8[8:1],,
{8}3-1[8:1]/6,4,3/6-8[8:1],5,3-1[8:1]/6,4,3/6,5,
{8}2/6,3/7,2-5[8:1]/6-1[8:1],1/5,2/6,,3b-8[8:1]/7b,,
{8}3/6-1[8:1],5,3-8[8:1]/6,4,3/6-1[8:1],5,3/6,4,
{8}3/6h[4:1],1,4h[8:1],1,3/7,,1b-4[8:1]/5b,,
{8}1-6[8:1]/7,8,1-4[8:1]/3,2,1-6[8:1]/7,8,1/3,2,
{8}1/7h[8:1],5,3h[8:1]/8,4,2/6,,4b/8b-5[8:1],,
{8}2/8-3[8:1],1,6/8-5[8:1],7,2/8,1,1/8,2/7,
{24}3,,3,4,,4,5,,5,6,,6,7,,7,8w4[16:1],,8,,,,8b,,,
{1},
{1},
{1},
E
