&title=アスヘノBRAVE
&wholebpm=150
&artist=M.S.S Project
&des=はっぴー
&shortid=11130
&genre=niconicoボーカロイド
&cabinet=DX
&version=maimai DX PLUS
&chartconverter=Neskol
&lv_2=4
&des_2=
&lv_3=6
&des_3=
&lv_4=9+
&des_4=はっぴー
&lv_5=12+
&des_5=はっぴー
&des_6=
&inote_2=
(150){1},
{1},
{4},,,(154),
(155){4}1x,(146),,,
(151){4},,,(163),
(146){4}8x,,,(150),
(155){4},,,(135),
(150){1}1,
(147){4},,,(157),
(150){1}8,
{1},
{2}1/8,(155),
(150){2}1,1,
(149){1}1,
{2}2,2,
{1}2,
{2}3,3,
(151){1}3,
{2}4,4,
{4}4/5,,,(155),
(150){2}6,6,
{1}6,
{2}7,(154)7,
(145){4}7h[2:1],,,(155),
(150){2}8,8,
{1}8,
(151){2}1,1,
{1}1b/8b,
(148){1}1h[2:1],
{4}1h[2:1],,,(154),
(150){1}B8,
{1}B1/B7,
{1}8h[2:1],
{1}8h[2:1],
{1}B1,
{1}B2/B8,
{1}C1hf[1:1],
(161){4},(148),(150),,
{4}8,8,8,,
{4}7,7,7,,
{1}6h[2:1],
{4}5,5,4/5,,
(149){1}3h[2:1]/4h[2:1],
{1}5h[2:1]/6h[2:1],
{1}4-1[0.4026845637583847##1.2080536912751683]/5-8[0.4026845637583847##1.2080536912751683],
(150){4},,,(159),
(150){4}1,1,1,,
{4}2,2,2,,
{2}3/4,4/5,
{1}5h[2:1]/6h[2:1],
(151){2}3/4,5/6,
{4}4/5,4/5,4b/5b,,
(159){2}4-1[0.37735849056603854##1.1936850211782826]/5-8[0.37735849056603854##1.1936850211782826],(147),
(150){1},
(149){2}8,8,
{2}7,7,
{2}6,6,
{4}4h[2:1]/5h[2:1],(146),(154),,
(150){4}3,3,(145)3,(156),
{4}2,(150)2,2,,
(147){1}1-5[0.4081632653061291##1.224489795918359],
(153){1},
(149){2}6,6,
{1}4h[2:1]/5h[2:1],
(152){2}3,3,
{2}4/5,(147),
(150){1}B6,
{1}B7,
{1}B8,
{1}B1,
{1}B2,
{1}B3,
(151){1}C1hf[1:1],
{1},
(150){4}1,1,1,,
{4}2,2,2,,
{1}3h[2:1]/4h[2:1],
{1}5h[2:1]/6h[2:1],
(148){4}4,4,5,5,
(150){4}4/5,4/5,4b/5b,,
{1}4x-1[4:3]/5x-8[4:3],
{1},
{1}1h[1:1],
{1},
{1}8h[1:1],
(149){1},
(150){2}1,1,
{2}2,2,
{2}3,3,
{2}4,4,
{1}4h[2:1]/5h[2:1],
{1},
{1},
{1},
E
&inote_3=
(150){1},
{1},
{4},,,(154),
(155){4}6xh[1:1],(146),,,
(151){4}5h[1:1],,,(163),
(146){4}4h[1:1],,,(150),
(155){4}3x,,3/4,(135),
(150){1}3h[1:1],
(147){4}4h[1:1],,,(157),
(150){1}5h[1:1],
{2}6x,5/6,
{4}4,4/5,(155)3x/6x,,
(150){4}2,2,1x/2x,,
(149){4}7,7,7x/8x,,
{4}2,2,3,3,
{4}4,4,3x/5x,,
{4}6,6,5x/6x,,
(151){4}3,3,3x/4x,,
{4}6,6,7,7,
{4}8x,1x/8x,2b/7b,(155),
(150){4}6h[2:1],,5,5,
{4}4h[2:1],,5,5,
{4}6h[2:1],,(154)5,4,
(145){4}3,3,2x/4x,(155),
(150){4}3h[2:1],,4,4,
{4}5h[2:1],,4,4,
(151){4}3,3,2,2,
{4}1,1/8,2b/7b,,
(148){2}B7,B5,
{4}B3,,B2,(154),
(150){2}B4,B6,
{1}C1,
{2}B2,B4,
{2}B6,B7,
{2}B5,B3,
{1}C1,
{2}B4/B5,B3/B6,
(161){4}C1f/B2/B7,(148),(150),,
{4}2,1x/2x,2,1x/2x,
{4}7,7/8,1x/6x,,
{4}6h[4:1],5,3h[4:1],4,
{4}4/5,3/6,2x/7x,,
(149){1}7<4[2:1],
{1}3<6[2:1],
{1}7-3[2:1],
(150){4}2x,1x/8x,2b/7b,(159),
(150){4}7,7x/8x,7,7x/8x,
{4}2,1/2,3x/8x,,
{4}3h[4:1],4,6h[4:1],5,
{4}4/5,3/6,2x/7x,,
(151){1}2>5[2:1],
{4}6x,5x/6x,4b/7b,,
(159){2}4-1[0.37735849056603854##0.7855217558721677]/5-8[0.37735849056603854##0.7855217558721677],(147),
(150){4}1/8,2/7,3x/6x,,
(149){1}1-6[2:1]/2-5[2:1],
{1}7-4[2:1]/8-3[2:1],
{4}2x,2x,3,4,
{4}5,(146)6,(154)5x/7x,,
(150){4}7-4[0.4000000000000057##0.813793103448262]/8-3[0.4000000000000057##0.813793103448262],,(145),(156),
{4}1-6[0.3846153846153868##0.7999999999999972]/2-5[0.3846153846153868##0.7999999999999972],(150),,,
(147){4}7x,7x,8,8,
(153){4}1,1/8,2x/7x,,
(149){4}7,7,7x/8x,7x/8x,
{4}1,1,2x/8x,2x/8x,
(152){4}1,1,8,8,
{4}1x/8x,1x/8x,(147)2b/7b,,
(150){1}3h[1:2],
{1},
{1}4h[1:2],
{1},
{1}5h[1:2],
{1},
(151){2}6x,6x,
{4}7,1/8,2b/7b,,
(150){4}2,1x/2x,2,1x/2x,
{4}3,3/4,2x/5x,,
{4}3h[4:1],4,6h[4:1],5,
{4}4/5,3/6,2x/7x,,
(148){1}7<4[2:1],
(150){4}3x,3x/4x,2b/5b,,
{1}4>1[2:1]/5<8[2:1],
{4}1x/8x,1x/8x,2b/7b,,
{1}3xh[1:1],
{1}4h[1:1],
{1}5h[1:1],
(149){2}6x,5/7,
(150){1}6h[1:1],
{1}5h[1:1],
{1}4h[1:1],
{2}3x,2/4,
{2}B3,C1xh[8:3]/B2/B6,
{1},
{1},
{1},
E
&inote_4=
(150){1},
{1},
{4},,,(154),
(155){8}4h[4:1]/6h[4:1],,(146),3h[8:9]/5h[8:9],,,,,
(151){4},,,(163),
(146){4}6<3[0.4109589041095898##0.8219178082191778],,,(150),
(155){4}1b,,3x/6x,(135),
(150){8}3h[4:1]/5h[4:1],,,4h[8:9]/6h[8:9],,,,,
(147){4},,,(157)3/7,
(150){2}1b,4/5,
{4}8,1,3x/6x,,
{4}5/7,2/4,(155)1/8,,
(150){8}6,6,5,4,3,,2/4,,
(149){16}1h[16:3],,,2h[16:3],,,3,,3,,,,2/5,,,,
{8}3,3,4,5,6,,5/7,,
{4}8-5[4:1],,4,2/6,
{8}3,3,4,5,6,,5/7,,
(151){16}8h[16:3],,,7h[16:3],,,6,,6,,,,4/7,,,,
{8}6,6,5,4,3,,2/4,,
{4}1h[4:1],8,3/6,(155)4/5,
(150){4}8h[1:1],5,5,5,
{4}5-1[4:1],,,2/7,
{4}3h[2:1],5,(154)8,,
(145){8}1h[2:1]/8h[2:1],,,,,2x/7x,(155)2x/7x,,
(150){4}1h[1:1],4,4,4,
{4}4-8[4:1],,,2/7,
(151){8}6h[2:1],,4,,3,3,,6,
{4}5/6,7/8,1/2,3/4,
(148){8}4/6,,3,3,4,,B2/E2/B7/E8,,
{8}4/6,,3,3,4,,(154)B2/E2/B7/E8,,
(150){2}6h[2:1],8h[2:1],
{8}1,,2,,3,3,4/6,,
{8}3/5,,6,6,5,,B2/E2/B7/E8,,
{8}3/5,,6,6,5,,B2/E2/B7/E8,,
{2}3h[2:1],1h[2:1],
{8}8,,7,,6,6,3/5,,
{8}4/6,,2/7,2/7,2/7,,3/6,,
(161){4}1>4[0.3726708074534173##0.4054054054054035]/8<5[0.3726708074534173##0.4054054054054035],(148),(150),2b/7b,
{8}6,6,5/7,5/7h[4:1],,8,8,,
{8}3,3,2/4,2h[4:1]/4,,1,1,,
{16}7h[16:3],,,6h[16:3],,,5,,5,,,,4/6,,,,
{8}2/5,,4/7,,1,1,2/7,,
(149){4}6-3[4:1],,1,1,
{4}3-6[4:1],,8,8,
{4}6-3[4:1],,1,1,
(150){16}1x/8x,,,1x/8x,,,3x/6x,,3x/6x,,,,(159)2b/7b,,,,
(150){8}3,3,2/4,2h[4:1]/4,,1,1,,
{8}6,6,5/7,5/7h[4:1],,8,8,,
{16}2h[16:3],,,3h[16:3],,,4,,4,,5,,,,3/6,,
{8},7/8,,1/2,1/2,,3/5,,
(151){4}6h[4:1],8h[4:1],1h[4:1],3,
{4}3/4,5/6,3/7,C1f,
(159){8}1x,1x,8x,8x,(147)1x,1x,8x,8x,
(150){8}5/7,,2/4,,1/8,1/8,2/7,,
(149){8}6-2[4:1],,,,1,1,8,8,
{4}2h[4:1],4h[4:1],5h[4:1],7h[4:1],
{8}1,1,8,8,4/7,,2/5,,
{8}6,6,(146)4,5,(154)3,3,4,2,
(150){8}8-4[0.4000000000000057##0.3999999999999915],,,,(145)3,3,(156)4,5,
{4}6h[4:1],(150)8h[4:1],1h[4:1],3h[4:1],
(147){8}7,7,8,1,2,2,1,8,
(153){4}7h[4:1],5h[4:1],3h[4:1],1b,
(149){8}6,6,5,4,3,,2/4,,
{16}1h[16:3],,,2h[16:3],,,3,,3,,,,2/5,,,,
(152){8}3,3,4,5,6,,5/7,,
{4}1/8,2/4,(147)4/5,3/6,
(150){1}8<3[2:1],
{1}1>6[2:1],
{1}8h[1:2],
{1}1h[1:1],
{2},7h[2:1],
{2}5h[2:1],4h[2:1],
(151){2}2h[2:1],7,
{16}1/8,,,1/8,,,3/6,,3/6,,,,2b/7b,,,,
(150){8}6,6,5/7,5/7h[4:1],,8,8,,
{8}3,3,2/4,2h[4:1]/4,,1,1,,
{16}7h[16:3],,,6h[16:3],,,5,,5,,4,,,,3/6,,
{8},1/2,,7/8,7/8,,4/6,,
(148){4}3h[4:1],1h[4:1],8h[4:1],6,
(150){4}5/6,3/4,2/6,,
{16}1x,8x,1x,8x,1x,8x,1x,8x,1x,8x,1x,8x,1x,8x,1x,8x,
{16}2x,7x,2x,7x,2x,7x,2x,7x,2x,,,,1b,,,,
{8}3h[4:1]/5h[4:1],,,4h[8:5]/6h[8:9],,,,,
{4},,4,4,
{1}3>6[2:1]/5,
(149){2}8b,3x/6x,
(150){8}4h[4:1]/6h[4:1],,,3h[8:9]/5h[8:5],,,,,
{4},,5,2/6,
{16}8b,,,,,,,,4/6,,,4/6,,,4/6,,
{16}3,,4,,5,,6,,3/5,,,3/5,,,3/5,,
{16}2-5[8:1]/7-4[8:1],,,,,,,,1x/8x,,,4x/5x,,,3x/6x,,
{1},
{1},
{1},
E
&inote_5=
(150){1},
{1},
{4},,,(154),
(155){16}2/5,,6,6,(146)5,,4h[8:9]/7h[8:9],,,,,,,,,,
(151){4},,,(163)5p8[0.3680981595092021##0.8219178082191778],
(146){4}3h[4:3],,,(150)8-4[0.40000000000000036##0.19354838709677402],
(155){16}1x/8x,,,,,,3,,2/5,,,3/6,(135),,4/7,,
(150){16}4/7,,3,3,4,,2h[8:9]/5h[8:9],,,,,,,,,,
(147){4},,,(157)4-1[0.3821656050955422##0.40000000000000036],
(150){16}6h[4:1],,,,,,,,4/8,,,3/6,,,1/5,,
{24}E2,B2,B3,E4,,,E8,B7,B6,E6,,,1/8,,,,2/7,,,,3/6,,,,
{48}3,,4,,3,,4,,,,,,6,,5,,6,,5,,,,,,(155)4/7,,,,,,,,,2/5,,,,,,,,,4/6,,,,,,
(150){16}4/6,,7,,7<4[8:1]/8p3[8:1],,1,,,,,,2,1,2,,
(149){16}8h[16:3],,,6h[16:3],,,5,,4,,5,,6,,6,,
{16}3/5,,2,,1q6[8:1]/2>5[8:1],,8,,,,,,7,8,7,,
{16}1h[16:3],,,3h[16:3],,,4,,4/5,,3/6,,2/7,,,,
{16}3/5,,2,,1q6[8:1]/2>5[8:1],,8,,,,,,7,8,7,,
(151){16}1h[16:3],,,3h[16:3],,,4,,5,,4,,3,,3,,
{16}4/6,,7,,7<4[8:1]/8p3[8:1],,1,,,,,,2,1,2,,
{16}8h[16:3],,,6h[16:3],,,5,,4/5,,,,(155)2b/7b,,,,
(150){8}3<6[8:1],3,7h[4:1],,5,5h[4:1],,6,
{8}6-2[8:1],,4-1[8:1],,8,8,,3/6,
{8}4,5,4-1[0.3999999999999986##0.1948051948051983]/5-8[0.3999999999999986##0.1948051948051983],,(154),,,1x/8x,
(145){8}1x/8x,,3/5,4/6,,1/8,(155)3/6,,
(150){8}6>3[8:1],6,2h[4:1],,4,4h[4:1],,3,
{8}3-7[8:1],,5-8[8:1],,1,1,,3,
(151){8}5,2/6,3-6[8:1]/7-2[8:1],,,,,1x/8x,
{4}1x-5[8:1]/8x-4[8:1],1/8,2/7,3-8[0.39735099337748636##0.20270270270270174]/5,
(148){4}3x/6-1[8:1],4-8[8:1]/6x,4x/5,2/6-1[8:1],
{4}3-8[8:1]/6x,3x/5-1[8:1],4/5x,(154)3/7,
(150){4}4>1[8:1],5,5<8[8:1],4,
{8}4>1[8:1],,5,,7,7,4/6-1[8:1],,
{4}3-8[8:1]/6x,3x/5-1[8:1],4/5x,3-8[8:1]/7,
{4}3x/6-1[8:1],4-8[8:1]/6x,4x/5,2/6,
{8}1/8,1h[8:7]/8,,4,4,,6,,
{8}8,8h[8:7],,5,5,,3,,
{8}1,1,5,5,3/6,3/6,2/7,2/7,
(161){16}1x,8x,,1x/8x,(148),1x/8x,,2x/7x,(150)2x-5[8:1]/7x-4[8:1],,,,2b/7b,,,,
{16}3-6[8:1],,5,,3,,7,7h[16:3],,,8,,3/5,,,,
{16}6-3[8:1],,4,,6,,2,2h[16:3],,,1,,4/6,,,,
{16}8h[16:3],,,6h[16:3],,,5,,3-6[8:1]/5-8[8:1],,,,3/5,,,,
{8}8,8,1,2,,4/6,3/7,,
(149){4}8<3[2:1],B1/B2,C1,E5,
{4}1>6[2:1],B7/B8,C1,E5,
{4}8<3[2:1],B1/B2,C1,E5,
(150){16}2x/5x,,,3x/6x,,,4x/7x,,4x>1[0.4000000000000057##0.18867924528301216]/7x,,,,(159)C1f,,,,
(150){8}1/8,7,5-8[8:1]/6h[2:1],,5-2[8:1],,5,,
{8}1/8,2,3h[2:1]/4-1[8:1],,4-7[8:1],,4,,
{16}8h[16:3],,,6h[16:3],,,5,,4,,3>6[4:1],,3,,C1f,,
{8},,,1/8,2/7,3/6,4/5,,
(151){8}3/8,1-6[8:1]/2-5[8:1],,1x/2x,,3x/7x,3x/7x,,
{8}1-5[8:1]/8-4[8:1],2/7,1>4[8:1]/8<5[8:1],,1/8,,C1f/B3/B6,,
(159){4}1h[8:1]/8h[8:1],6h[8:1]/7h[8:1],(147)4h[8:1]/5h[8:1],2h[8:1]/3h[8:1],
(150){24}1x,2x,3x,4x,,,8x,7x,6x,5x,,,1x,2x,3x,4x,,,4b/8b,,,,,,
(149){16}3h[4:1],,,,4,,3,5,3,5,4,6,4,6,3,,
{48}3,,,,4,,,,2,,,,6,,,,5,,,,7,,,,1,,,8,,,1,,,8,,,1,,,,,,,,,,,,
{8}3,3h[8:1],1,1h[8:1],8,8h[8:1],6,6h[8:1],
{16}4,5,4,5,(146)3,6,3,6,(154)3,4,2,5,1,6,8,7,
(150){8}1b,,,5/7,(145)4,3/5,(156)2,1/8,
{8}7-3[0.3846153846153868##0.20000000000000284],7,(150)2-6[8:1],2,5-8[8:1],5,4b,,
(147){16}4,5,4,5,4,6,4,7,4,8,4,1,4,2,4,3,
(153){16}4,5,4,6,4,7,4,8,4,,3b/7b,,1b/5b,,,,
(149){16}6,5,7,,7<4[8:1]/8p3[8:1],,1,,,,,,2,1,2,,
{16}8h[16:3],,,6h[16:3],,,5,,4,,5,,6,,4/6,,
(152){16}3,4,2,,1q6[8:1]/2>5[8:1],,8,,,,,,7,8,7,,
{4}4V25[0.39473684210526017##0.39473684210526017]/6V85[0.39473684210526017##0.39473684210526017],,(147),1s5[0.4081632653061149##0.7999999999999972],
(150){4},,,1s5[2:1],
{4},,,6p5[4:3],
{1},
{12}6,5,7,3,4,2,6,5,7,3,4,2,
{4}8<5[2:1],3,3,2,
{4}1>4[2:1],6,6,7,
(151){4}8<5[2:1],3,3,2,
{16}1/8,,,3/6,,,4/5,,4/5<8[8:1],,,,C1f,,,,
(150){8}1/8,2,3h[2:1]/4-1[8:1],,4-7[8:1],,4,,
{8}1/8,7,5-8[8:1]/6h[2:1],,5-2[8:1],,5,,
{16}1h[16:3],,,3h[16:3],,,4,,5,,6<3[4:1],,6,,C1f,,
{8},,,1/8,2/7,3/6,4/5,,
(148){8}1/6,7-4[8:1]/8-3[8:1],,7x/8x,,2x/6x,2x/6x,,
(150){8}1-5[8:1]/8-4[8:1],2/7,1>4[8:1]/8<5[8:1],,1/8,,,,
{16}1,8,3,6,2,7,4,5,1,8,3,6,2,7,4,5,
{24}1,2,3,4,,,8,7,6,5,,,1x/8x,2x/7x,3x/6x,4x/5x,,,1b/8b,,,,,,
{16}4/7,,3,3,4,,2h[8:9]/5h[8:9],,,,,,,,,,
{4},,,4q1[2:1],
{4}6h[4:3],,,1-5[0.4000000000000057##0.20134228187919234],
(149){16}1x/8x,,,,,,6,6,5,,,3/6,,,2/5,,
(150){16}2/5,,6,6,5,,4h[8:9]/7h[8:9],,,,,,,,,,
{4},,,5-8[4:1],
{16}3h[4:1],,,,,,,,2/5,,,3/6,,,4/7,,
{48}6,,5,,6,,5,,,,,,3,,4,,3,,4,,,,,,5/6,,,,,,,,,4/5,,,,,,,,,3/4,,,,,,
{16}2-7[8:1]/6-3[8:1],,3/7,,2x/6x,,,,1/8,,,4/5,,,2x/7x,,
{1},
{1},
{1},
E
