&title=いつかいい感じにアレしよう
&wholebpm=144
&artist=カクとイムラ(CV:松本慶祐)
&des=ぴちネコ
&shortid=11118
&genre=POPSアニメ
&cabinet=DX
&version=maimai DX PLUS
&chartconverter=Neskol
&lv_2=4
&des_2=
&lv_3=6
&des_3=
&lv_4=9+
&des_4=はっぴー
&lv_5=12+
&des_5=ぴちネコ
&des_6=
&inote_2=
(144){1},
{1},
{1}4,
{1},
{1}5,
{1},
{1}4,
{1}3,
{1}2,
{1}1b,
{2}8,8,
{2}7,7,
{2}6,6,
{1}5h[2:1],
{2}4,4,
{2}3,3,
{2}2,2,
{1}1h[2:1],
{1}B1/B8,
{1}B1/B2,
{1}B7/B8,
(130){1}1-4[4:3],
{1},
{1}8-5[4:3],
{1},
{1}1h[1:1]/8h[1:1],
{1},
{1}C1f,
{4},,(121),(109),
(119){4},(216.001)4xh[4:3]/5xh[4:3],,,
{4},,,4xh[4:3]/5xh[4:3],
{1},
{4},(144)4b,4,4,
{4},3,3,3/4,
{4},5,5,5,
{4},6,6,5/6,
{4},4,4,4b,
{4},4h[2:1]/5h[2:1],,,
{4},C1hf[1:1],,,
{1},
{4},1,,1,
{4},2,2,1/2,
{4},3/4,,3/4,
{4},5/6,,5x/6x,
{4},7,,7,
{4},8,8,1/8,
{4},1-5[4:3],,,
{1},
{4},8,,8,
{4},7,7,7/8,
{4},5/6,,5/6,
{4},3/4,,3x/4x,
{4},2,,2,
{4},1,1,1/8,
{4},7xh[2:1]/8xh[2:1],,,
{4},1xh[2:1]/2xh[2:1],,,
{4},1x-4[4:3]/8x-5[4:3],,,
{1},
{4},4,,4,
{4},5,,5,
{4},6,,6,
{4},7,7,7/8,
{4},1,,1,
{4},2,,2,
{4},3,,3,
{4},4,4,4/5,
{4},5-8[4:3],,,
{1},
{4},1h[2:1],,,
{4},8,8,1/8,
{4},1-4[4:3],,,
{1},
{4},5/6,,5/6,
{4},3,3,3/4,
{4},4-1[4:3]/5-8[4:3],,,
{1},
{1},
{4},,,C1f,
{1},
{4},,,(120)B4/B5,
{4},,,B3/B6,
{4},,,C1xh[1:2],
{1},
{1},
{1},
{1},
E
&inote_3=
(144){1},
{1},
{4}2,2,1/2,,
{4}7,7,7/8,,
{4}2,2,1/2,1/2,
{4}8,8,1x/7x,,
{4}7,7,7/8,,
{4}2,2,1/2,,
{4}7,7,7/8,7/8,
{4}1,1,2b/7b,,
{4}6h[2:1],,5,5,
{4}4h[2:1],,5,5,
{4}6h[2:1],,5,5,
{4}4,3,2x/4x,,
{4}3h[2:1],,4,4,
{4}5h[2:1],,4,4,
{4}3,3,2,2,
{4}1,1/8,2x/7x,,
{1}1>4[2:1],
{1}5<8[2:1],
{4}1,1,2x/7x,,
(130){2}B7,C1,
{1}B3,
{2}B2,C1,
{1}B6,
{2}B7,C1,
{2}B3,B2,
{2}C1,B6,
{4}C1hf[2:1],,(121),(109),
(119){4},(216.001)1xpp4[1:2]/8xqq5[1:2],,,
{1},
{1},
{4},(144)7-4[2:1],,,
{4},3-8[2:1],,,
{4},7<4[2:1],,,
{4},3,3,3x,
{4},4-1[2:1],,,
{4},8-5[2:1],,,
{4},4>1[2:1]/5<8[2:1],,,
{4},1/8,1/8,2b/7b,
{4},2,1/2,2,
{4}1/2,7,7/8,1x/6x,
{4},6h[4:1],5,4/5,
{4}3/6,2x/7x,,1x,
{4}1x,7,7/8,7,
{4}7/8,2,1/2,3x/8x,
{4},3h[4:1],4,5h[4:1],
{4}4,4/5,3/6,2b/7b,
{4},2,1/2,7,
{4}7/8,2,1/2,3x/8x,
{4},3h[4:1],4,4/5,
{4}3/6,2x/7x,,1x,
{4}1x,7,7/8,2,
{4}1/2,7,7/8,1x/6x,
{4},8,7,6,
{4}5/6,4,3,2,
{4}1/2,1,2,3,
{4}4,4/5,3/6,2b/7b,
{4},1pp5[1:1],,,
{4},,,6,
{4}7,8qq4[1:1],,,
{4},,,3,
{4}2,1>4[2:1],,,
{4},5<8[2:1],,,
{4},1q8[4:3],,,
{4},,,2x/7x,
{4},1,2,3,
{4}4,5,6,7x/8x,
{4},8,7,6,
{4}5,4,3,1x/2x,
{4},3,4,5,
{4}6,7,1x/8x,2b/7b,
{4},1-6[2:1]/2-5[2:1],,,
{4},7-4[2:1]/8-3[2:1],,,
{4},1pp4[4:5]/8qq5[4:5],,,
{1},
{4},C1hf[2:3],,,
{1},
{1},
{4},,,(120)B4/B5,
{4},B3/B6,,E3/E7,
{4},B2/B7,,C1xh[1:2],
{1},
{1},
{1},
{1},
E
&inote_4=
(144){1},
{1},
{16}6,,6,,5,,,,3,,,2x/4x,,,2x/4x,,
{16}3,,3,,4,,,,6,,,5x/7x,,,5x/7x,,
{16}6,,6,,5,,,,3,,,2x/4x,,,2x/4x,,
{16}3,,3,,4,,,,6,,,5x/7x,,,5x/7x,,
{16}6,,6,,5,,4,,3,,,2x/4x,,,2x/4x,,
{16}3,,3,,4,,5,,6,,,5x/7x,,,5x/7x,,
{8}6,6,4/5,,3,,4q5[2:1]/5,,
{4},,,8b,
{8}2,2,4,,3<6[4:1],,,,
{8}7,7,5,,4x/6x,,3x/5x,,
{2}2-6[4:1],7v4[4:1],
{8}2,2,1,,7/8,7/8,1/6,,
{8}7,7,5,,6>3[4:1],,,,
{8}2,2,4,,3x/5x,,4x/6x,,
{2}7-4[4:1],2-5[4:1],
{16}7,,7,,8,,,,3x/6x,,,1x/8x,,1x/8x,,,
{16}2h[2:1]/7h[2:3],,,,,,,,,,2x,,,4x,,,
{16}3h[1:1],,,,,,,,,,,7x,,,5x,,
{16}6h[2:1],,,3x,,,4x,,5h[1:2],,,4x,,,4x,,
(130){1}4h[2:3],
{1},
{4}5h[4:1],6h[4:1],7h[4:1],5,
{4}4h[4:1],3h[4:1],2h[4:1],4,
{4}5h[4:1],6h[4:1],7h[4:1],6,
{4}4h[4:1],3h[4:1],2h[4:1],3,
{2}1-4[4:1],5-8[4:1],
{4}1-4[0.461538461538467##0.4615384615384599],,(121)5-8[0.49586776859504056##0.5504587155963279],(109),
(119){4},(216.001)4h[4:1],3h[4:1],2h[4:1],
{4}1h[4:1],8h[4:1],7h[4:1],6h[4:1],
{4}5h[4:1],4h[4:1],3h[4:1],2h[4:1],
{16}1h[4:1],,,,(144)8b,,,,,,,,5x/6x,,,4x/5x,
{16},,3xh[4:1]/4x,,,,4,,4,,3,,3x/4x,,,4x/5x,
{8},5x/6x,,4/6,4/6,7,8b-5[8:1],,
{8},,,5/6,5/6,7,8b-5[8:1],,
{8},,,5/6,4,3,C1,,
{8},,,5/6,4,3,C1f,,
{8}8x,,8x,7x,6x,5x,4x,3x,
{8}2x,1x,8x-4[8:1],,,,1b,,
{8},,3,2/5,6,4/7,8,8,
{8}1/8,2/7,3h[4:1]/6h[4:1],,,6,6,5,
{8}4,3,2h[4:1],,4h[4:1],,5h[4:1],,
{8}7h[4:1],,C1f,,,,1/8,1/8,
{8}2/7,,6,4/7,3,2/5,1,1,
{8}1/8,2/7,3/6,,4b/5b,,1b,1b,
{16}8b,,,,1xh[8:1]/7xh[8:1],,,,2xh[8:1]/8xh[8:1],,,,1x/7x,,,2x/8x,
{8},1x/7x,,,,,4,4,
{8}3/5,,6,4/7,3,2/5,1,1,
{8}2/8,3/7,4h[4:1]/6h[4:1],,,3,3h[8:1]/5h[8:1],,
{4}4h[8:1]/6h[8:1],7h[4:1],5h[4:1],4h[4:1],
{8}2h[4:1],,8b,,,,1/8,1/8,
{8}2/7,,3,2/5,6,4/7,8,8,
{8}1/8,2/7,3/6,,3b/6b,,8b,8b,
{16}1b,,,,3xh[8:1]/5xh[8:1],,,,3xh[8:1]/5xh[8:1],,,,4x/6x,,,4x/6x,
{16},,,5,,,4/5,,3/6,,2/7,,1>4[8:1]/8<5[8:1],,,,
{16},,,,B7/E8,,,,B2/E2,,,,1x/8x,,,4x/5x,
{8},3xh[8:5]/6xh[8:5],,,,,,,
{8}4/5,,6,6,5,4,3,3,
{8}4,5h[4:1],,6h[4:1],,8,1,1,
{8}8,,6,6,5,6,5,4,
{8}5,4,3,4,3,2h[4:1],,8,
{16}8,,,,7h[16:3],,,6h[16:3],,,5,,,,2/4,,
{8}2/4,3,3,4,3,4,5,4,
{16}5,,6,,7h[4:1],,,,8,,,,4/7,,,2/5,
{8},3h[4:1]/6h[4:1],,,8,8,1-5[8:1],,
{8},,7,7,8,7,8,1,
{8}8,1,2,1,2,3,4-1[8:1],,
{8},,8h[8:3],,,1,1,8,
{8}7,6,,5/7,5/7,,2/4,2/4,
{4}1b,8<5[8:1],,4>1[8:1],
{8},,7,7,8,8,1,1,
{4}2x/7x,7x-4[8:1]/8x-3[8:1],,1x-6[8:1]/2x-5[8:1],
{4},1x-4[8:1]/8x-5[8:1],,2xh[16:3]/7xh[16:3],
{16},,,,3xh[8:1]/5xh[8:1],,,,4xh[8:1]/6xh[8:1],,,,3x/5x,,,4x/6x,
{8},C1hf[8:21]/B2/B7,,,,,,,
{1},
{1},
{1},
{4},,,(120)3x/6xh[2:1],
{4},8xh[2:1],,1xh[2:1],
{4},3xh[2:5],,6xh[1:2],
{1},
{1},
{1},
{1},
E
&inote_5=
(144){1},
{128},,,,,,,,B1,,,,,,,,,,,,,,,B2,,,,,,,,,,,,,,,B3,,,,,,,,,,,,,,,B4,,,,,,,,,,,,,,,B5,,,,,,,,,,,,,,,B6,,,,,,,,,,,,,,,B7,,,,,,,,,,,,,,,B8,,,,,,,,,,,,,,,
{24}1x/2x,,,,,,2/8,,,1,,,2h[8:1]/8h[8:1],,,,,2/8,,,,3h[8:1]/7h[8:1],,,
{24},,,4/5,,,4/5,,,,,,1h[8:1]/7h[8:1],,,,,1/7,,,,3/4,,,
{24}1/7,,,8,,,1/7,,,8,,,1h[8:1]/7h[8:1],,,,,1/7,,,,2h[8:1]/6h[8:1],,,
{24},,,4/5,,,4/5,,,,,,2h[8:1]/8h[8:1],,,,,2/8,,,,5/6,,,
{24}2,,1,2,,,2,,1,2,,,3h[8:1]/8h[8:1],,,,,4/7,,,,5/6,,,
{24}7,,8,7,,,7,,8,7,,,1h[8:1]/6h[8:1],,,,,2/5,,,,3/4,,,
{24}2,,1,2,,,2,,1,2,,,3h[8:1]/8h[8:1],,,,,4/7,,,,5/6,,,
{4}5q4[4:1]/6<3[4:1],,,C1,
{16},,4,,4h[8:5],,,,B2,,,E1,,,B7,,
{16},,3,4,3,4,3,,2h[8:1]/5h[8:1],,,3h[8:1]/6h[8:1],,,4/7,,
{16},,5,,5h[8:5],,,,B7,,,E1,,,B2,,
{16},,6,5,6,5,6,,4h[8:1]/7h[8:1],,,3h[8:1]/6h[8:1],,,2/5,,
{16},,1/2,,1h[8:5]/2,,,,B6,,,E5,,,B3,,
{16},,1,2,1,2,1,,1h[8:1]/4h[8:1],,,3h[8:1]/6h[8:1],,,5/8,,
{16},,7/8,,7/8h[8:5],,,,B3,,,E5,,,B6,,
{8},7/8,1/8,1/2,1V74[32:5]/8V25[32:5],,,,
{48}2x/7x,,,,,,,,,,,,4,,,,4,,5,,,,5,,,,,,,,3h[8:1]/5h[8:1],,,,,,,,,4h[8:1]/6h[8:1],,,,,,,,,
{16}5x/7xz3[16:3],,,,,,,,,,4h[8:1]/6h[8:1],,,3h[8:1]/5h[8:1],,,
{6}2x/4x,3h[12:1]/5h[12:1],4h[12:1]/6h[12:1],5x/7x,4h[12:1]/6h[12:1],3h[12:1]/5h[12:1],
(130){12}2x/4x,,,7x/8x,7,7,7x/8x,,,1x/2x,2,2,
{12}1x/2x,,,5x/6x,6,6,6x/7x,6,6,5x/6x,,,
{12}4x/5x,,,1x/2x,2,2,1x/2x,,,7x/8x,7,7,
{12}7x/8x,,,3x/4x,3,3,2x/3x,3,3,3x/4x,,,
{12}4x/5x,,,6x/8x,6/8,6/8,6x/8x,,,2x/8x,2/8,2/8,
{12}2x/8x,,,7x/8x,7,7,6x/7x,7,7,7x/8x,,,
{12}4x/5x,,,1x/3x,1/3,1/3,1x/3x,,,1x/7x,1/7,1/7,
{4}1xv4[8:1]/7xv4[8:1],,(121)5x-3[0.49586776859504056##0.5504587155963279]/6x-2[0.49586776859504056##0.5504587155963279],(109),
(119){4},(216.001)1h[8:1]/7h[8:1],5h[8:1]/6h[8:1],2h[8:1]/3h[8:1],
{4}2h[8:1]/8h[8:1],3h[8:1]/4h[8:1],6h[8:1]/7h[8:1],1h[8:1]/7h[8:1],
{4}5h[8:1]/6h[8:1],2h[8:1]/3h[8:1],2x/7x,1x/8x,
{16}2x/7x,,,,(144)3x/6x,,B5,,B4,,E6,,E4,,,B4/B5,
{16},,B3/B6,,,,B4,,B5,,E4,,E6,,,B3/B6,
{16},,4b/8x,,4b/8x-5[8:13],,2,,2,,2,,3h[8:1],,,3h[8:1],
{16},,3,,,,4,,4,,4,,3h[8:1],,,3h[8:1],
{8},3,,B2/B7,C1hf[4:1],,,,
{8},,1/5,2/4,3>6[4:1]*p6[4:1],,,,
{16},,,,7b,8,7,2b,1,2,6b,5,6,3b,4,3,
{24}8x,1x,7x,2x,6x,3x,5x,4x,5x,4x,5x,4x,6x,3x,6x,3x,6x,3x,2x/7x,,,,,,
{16},,,,3/5,,4/6,,5/7,,6,5,,5,4,,
{16}2/4,,3,4,,4/5,4/5,,,,5/6,,5h[8:1]/6h[8:1],,,,
{4}3h[8:1]/4h[8:1],6>3[32:3]/7p2[32:3],,2q7[32:3]/3<6[32:3],
{16},,,,6x/8x,,,1x/3x,,,,,5,,4,,
{16}3,3,,,2/4,,3,3,,5,4,,6,6,,4,
{8}5,3/6,4-8[8:1],,4x>1[8:1]*<7[8:1],,4x,,
{16}3/5,,,,7h[8:1]/8h[8:1],,,,1h[8:1]/2h[8:1],,,,6x/8x,,,1x/3x,
{8},4b/5b,,E8,E2,E7,E3,E6,
{16}E4,,,,3/6,,3/6,,5,4,,,2/7,,,1,
{16}8x<4[16:3]*>4[16:3],,,,,,,,,,2,1,2,,1/2,,
{2}1x-4[8:1]/2x-5[8:1],8x<4[16:3]*>4[16:3],
{16},,,,5x/7x,,,2x/4x,,,,,8,,1,,
{16}2,2,,,1/3,,2,2,,8,1,,7,7,,1,
{8}8,2/7,1-5[8:1],,1x<6[8:1]*>4[8:1],,1x,,
{4}2/8,B5/B6/E6/E7,B3/E3/B4/E4,B1/C1xh[16:3]/B5,
{16},,,1x/8x,,,2/6,,4/8,,2/6,,C1xh[16:3]/B4/B8,,,,
{16},,,,4x-7[12:1]/5x-7[12:1],,,,4x-2[12:1]/5x-2[12:1],,,,4x/5x,,,1x/8x,
{16},,2h[8:5]/7h[8:5],,,,,,,,,,,,1,8,
{16}1,8,1,8,1h[4:1],,,,8,7,6h[4:1],,,,5h[8:1],,
{8}4h[8:1],3h[4:1],,1h[8:3],,,2h[8:1],8h[8:1],
{48}4h[8:1],,,,,,6h[4:1],,,,,,,,,,,,3,,,4,,,3,,,6,,,5,,,6,,,B2,,B3,,E4,,B7,,B6,,E6,,
{16}3,6,2,7,1,8,1h[8:1],,7h[8:1],,3h[4:1],,,,5x,,
{16},,8,1,8h[16:3],,,4h[16:3],,,5h[8:3],,,,,,
{16},,E3,E7,B3,B6,B4,B5,E2,E8,B2,B7,B3,B6,B1,B8,
{16}B2,B7,E3,E7,3h[4:1],,4,,6h[4:1],,5,,2,,2,1,
{16},1,8<1[8:3],,,,,,,,,,,,5b,,
{16}5b,,,,3x/6x,,E4,E8,B4,B8,B5,B1,E3,E7,B3,B7,
{16}B4,B8,E2,E6,B2,B6,B3,B7,B1,B5,B2,B6,E3,E7,C1hf[8:3],,
{16},,,,,,,,,,7,8,6h[8:1],,5h[8:1],,
{32}4h[8:1],,,,3h[8:3],,,,,,,,7x,,,,7x,,,,,,,,E8,B7,B6,E6,E2,B2,B3,E4,
{32}8x,7x,6x,5x,1x,2x,3x,4x,8h[16:3],,,,,,1>8[16:5],,,,,,,,,,,,,,,,,,
{32},,,,E8,B7,B6,E6,E2,B2,B3,E4,8x,B8,C1,B4,4x,,,,2,,1,,2,,,,7,,8,,
{8}7,3/6,B3/E3/B4/E4,,B5/B6/E6/E7,,C1hf[16:3]/B4/B8,,
{16},,,1x/8x,,,3/7,,1/5,,3/7,,B1/C1hf[16:3]/B5,,,,
{16},,,,4x-7[12:1]/5x-7[12:1],,,,4x-2[12:1]/5x-2[12:1],,,,4x/5x,,,1x/8x,
{8},2h[8:3]/7h[8:19],,,,,1h[4:1],,
{4},8pp4[1:1],,,
{4},,,B1/C1f/B2/B3/B4/B5/B6/B7/B8,
{1},
{4},,,(120)3/6h[4:1],
{4}4h[4:1],5h[4:1],3,2h[4:1]/7h[4:1],
{4},3h[4:1]/6h[4:1],,4>5[8:11]/5<4[8:11],
{1},
{24},,,,,,,,,,,,,,,,4,4,5h[16:17],,,,,,
{1},
{1},
{1}1-4[16:1]/8-5[16:1],
{1},
{1},
{1},
E
