&title=U.S.A.
&wholebpm=139
&artist=DA PUMP
&des=はっぴー
&shortid=11036
&genre=POPSアニメ
&cabinet=DX
&version=maimai DX
&chartconverter=Neskol
&lv_2=2
&des_2=-
&lv_3=6
&des_3=-
&lv_4=9
&des_4=サファ太
&lv_5=11
&des_5=はっぴー
&lv_6=12+
&des_6=譜面-100号
&inote_2=
(139.6){1},
{1},
{1},
{1},
{1},
{1},
{1},
{8},,,,,,,4,
{8},,,,,,,4,
{8},,,,,,,5,
{8},,,,,,,5b,
{8},,,,,,,4x/5x,
{8},,,4x/5x,,,,4,
{8},,,4,,,,5,
{8},,,5,,,,4,
{8},,,4,,,,4x/5x,
{8},,,4x/5x,,,,4,
{8},,,4,,,,5,
{8},,,5,,,,4,
{8},,,4,,,,3x/4x,
{8},,,3x/4x,,,,3,
{8},,,3,,,,4,
{8},,,4,,,,5,
{8},,,5,,,,5x/6x,
{8},,,5x/6x,,,,6,
{8},,,6,,,,4h[1:1]/5h[1:1],
{1},
{8},,,,,,,B3,
{8},,,,,,,B2,
{8},,,,,,,B1,
{8},,,,,,,B8,
{8},,,,,,,B7,
{8},,,,,,,B6,
{8},,,,,,,C1hf[1:1],
{1},
{8},,,,,,,2x,
{8},2x,,2x,,,,2x,
{8},2x,,2x,,,,3h[2:1],
{8},,,,,,,3h[2:1]/4h[2:1],
{8},,,,,,,2x,
{8},2x,,2x,,,,2x,
{8},2x,,2x,,,,1,
{8},,,1,,,,1h[2:1]/8h[2:1],
{8},,,,,,,2x,
{8},2x,,2x,,,,2x,
{8},2x,,2x,,,,3,
{8},3,,3,,,,3h[2:1]/4h[2:1],
{8},,,,,,,2x,
{8},2x,,2x,,,,3x,
{8},3x,,3x,,,,4,
{8},,,3,,,,2x,
{8},2x,,2b,,,,1-5[4:3],
{1},
{8},,,,,,,8-4[4:3],
{1},
{8},,,,,,,3h[1:1],
{1},
{8},,,,,,,4h[1:1]/5h[1:1],
{1},
{8},,,,,,,3h[1:3]/6h[1:3],
{1},
{1},
{1},
{8},,,,,,,2,
{8},,,2,,,,2,
{8},,,2,,,,2,
{8},,,2,,,,2b,
{8},,,,,,,2x,
{8},2x,,2x,,2x,,2x,
{8},2x,,2x,,,,3,
{8},3,,3,,,,3/4,
{8},3/4,,3/4,,,,2x,
{8},2x,,2x,,2x,,3x,
{8},3x,,3x,,,,4/5,
{8},4/5,,3/6,,,,2x,
{8},2x,,2b,,,,B1,
{8},,,,,,,B8,
{8},,,,,,,B2,
{8},,,,,,,B7,
{8},,,,,,,B3,
{8},,,,,,,B6,
{8},,,,,,,B4,
{8},,,,,,,B5,
{8},,,,,,,C1f,
{1},
{1},
{1},
E
&inote_3=
(139.6){1},
{1},
{1},
{8},,,,,,,6xh[2:1],
{8},,,5,,,,3xh[2:1],
{8},,,4,,,,3,
{8},3,,4,,4,,5,
{8},5,,4/6,,,,3xh[2:1],
{8},,,4,,,,6xh[2:1],
{8},,,5,,,,6,
{8},6,,5,,5,,4,
{8},4,,3/5,,,,5x,
{8},4x,,3x/6x,,,,6,
{8},6,,5/6,,,,4,
{8},3,,4,,5,,6,
{8},6,,5/7,,,,4x,
{8},5x,,3x/6x,,,,3,
{8},3,,3/4,,,,5,
{8},6,,5,,4,,3,
{8},3,,2/4,,,,5x,
{8},4x,,3x/6x,,,,5,
{8},6,,5/7,,,,6,
{8},5,,4,,3,,4,
{8},3,,2/4,,,,5x,
{8},4x,,3x/6x,,,,4,
{8},3,,2/4,,,,3,
{8},4,,5,,6,,6,
{8},5/6,,4x/7x,,,,3<6[8:3],
{8},,,,,,,7<4[8:3],
{8},,,,,,,3-8[8:3],
{8},,,,,,,7,
{8},7,,7x,,,,6>3[8:3],
{8},,,,,,,2>5[8:3],
{8},,,,,,,6-1[8:3],
{8},,,,,,,2,
{8},1/8,,2b/7b,,,,2,
{8},1/2,,2,,1/2,,2,
{8},3,,2x/4x,,,,6h[4:1],
{8},5,,3h[4:1],,4,,4/5,
{8},3/6,,2b/7b,,,,7,
{8},7/8,,7,,7/8,,7,
{8},6,,5x/7x,,,,3h[4:1],
{8},4,,6h[4:1],,5,,4-1[8:3]/5-8[8:3],
{8},,,,,,,2,
{8},1/2,,2,,1/2,,2,
{8},3/4,,2x/5x,,,,6h[4:1],
{8},5,,3h[4:1],,4,,4/5,
{8},3/6,,2b/7b,,,,7,
{8},7/8,,7,,7/8,,7,
{8},5/6,,4x/7x,,,,3h[4:1],
{8},4,,6h[4:1],,5,,7,
{8},1/8,,2b/7b,,,,B2,
{8},,,C1,,,,B6,
{8},,,,,,,B7,
{8},,,C1,,,,B3,
{8},,,,,,,B5,
{8},,,B4,,,,B3,
{8},,,C1,,,,B6,
{8},,,B7,,,,C1f,
{8},,,,,,,3h[2:1],
{8},,,4,,5,,6h[4:1],
{8},5,,5,,,,6h[2:1],
{8},,,5,,4,,3h[4:1],
{8},4,,3/4,,,,3h[2:1],
{8},,,4,,5,,6h[4:1],
{8},5,,5,,,,5,
{8},6,,7,,8,,1,
{8},1/8,,2b/7b,,,,2,
{8},1/2,,7,,7/8,,6,
{8},5/6,,4x/7x,,,,6h[4:1],
{8},5,,3h[4:1],,4,,2,
{8},1/2,,3b/8b,,,,7,
{8},7/8,,2,,1/2,,3,
{8},3/4,,2x/5x,,,,3h[4:1],
{8},4,,2h[4:1],,1,,1x/2x,
{8},3x/8x,,4b/7b,,,,6-1[8:3],
{8},,,,,,,2-5[8:3],
{8},,,,,,,6h[2:1],
{8},,,5h[2:1],,,,4,
{8},3,,2x/4x,,,,3-8[8:3],
{8},,,,,,,7-4[8:3],
{8},,,,,,,3h[2:1],
{8},,,4h[2:1],,,,5x,
{8},6x,,5b/7b,,,,C1f,
{1},
{1},
{1},
E
&inote_4=
(139.6){1},
{1},
{4}4x/5x,2x/5x,4x/7x,,
{8}4x/5x,,4x/7x,,2x/5h[8:31],,,6,
{8},6,,6,,6,,7,
{8},7,,8,,8,,1,
{8},1,,2,,2,,3,
{8},3,,4,,4x/5x,,6x,
{16}6x,,6xh[16:3],,,4xh[16:3],,,5x,,5x,,5x,,3x,,
{16}3x,,3xh[16:3],,,5xh[16:5],,,4x,,4x,,4x,,4xh[16:1]/6xh[16:1],,
{16},4xh[16:1]/6xh[16:1],,,3xh[16:1]/5xh[16:1],,,3xh[16:1]/5xh[16:1],,,3x/5x,,,,2-4[8:1]/7h[2:1],,
{8},,,2,,3/6,,2x/5x,
{8},4x/7x,,C1f,,,,3,
{8}3,4,,6,6,5,,3h[4:1]/4,
{8},7,,3h[4:1]/4,,6,,3h[4:1]/4,
{8},5,,4,,3/5,,4x/7x,
{8},2x/5x,,C1f,,,,6,
{8}6,5,,3,3,4,,5/6h[4:1],
{8},2,,5/6h[4:1],,3,,5/6h[4:1],
{8},4,,3/5,,4/6,,3x/8x,
{8},1x/6x,,C1f,,,,2,
{8}2,4,,7,7,5,,3h[4:1]/4,
{8},7,,5/6h[4:1],,3,,3h[4:1]/4,
{8},5,,4/6,,3/5,,1x/6x,
{8},3x/8x,,C1f,,,,7,
{8}7,5,,2,2,4,,3x/5x,
{8}3xh[4:1]/5xh[4:1],,,4x/6x,4xh[4:1]/6xh[4:1],,,2x/5x,
{8}2xh[4:1]/5xh[4:1],,,2/5,,4/5,,3h[4:3],
{8},4,,2,,8p1[2:1],,,
{8},,,,,2x/7x,,6h[4:3],
{8},5,,7,,1s5[2:1],,,
{8},,,,,3x/6x,,2,
{8}2,1,,7,7,8-3[8:3]*-5[8:3],,,
{8},,,,,2x/6x,,3,
{8}3,2/4,,4/5,,5/7,,1,
{8}1,8,8,2b/7b,,,,1x-4[8:1],
{8},8x-5[8:1],,1x-4[8:1],,8x-5[8:1],,1x-4[8:1],
{8},8x-5[8:1],,1x,,3/6,,3h[4:1],
{8},4,,7h[4:1],,5,,2h[4:1],
{8},1,,3/8,,2/7,,8x-5[8:1],
{8},1x-4[8:1],,8x-5[8:1],,1x-4[8:1],,8x-5[8:1],
{8},1x-4[8:1],,8x,,3/6,,4x-8[8:1]/5x-1[8:1],
{8},,,2x/7x,,3qq4[2:1]/6pp5[2:1],,,
{8},,,,,3x/6x,,2x-4[8:1],
{8},1x-5[8:1],,2x-4[8:1],,1x-5[8:1],,2x-4[8:1],
{8},1x-5[8:1],,2x,,4/6,,2h[4:1],
{8},4,,7h[4:1],,8,,3h[4:1],
{8},1,,4/5,,3/6,,7x-5[8:1],
{8},8x-4[8:1],,7x-5[8:1],,8x-4[8:1],,7x-5[8:1],
{8},8x-4[8:1],,7x,,3/5,,3/4,
{8},2<5[4:1]/5,,,,,,4/7>4[4:1],
{8},,,,,2b/7b,,3,
{16}3,,3h[16:3],,,5h[16:3],,,4,,4,,4,,6,,
{16}6,,6h[16:3],,,4h[16:3],,,5,,5,,5,,3xh[16:1]/5xh[16:1],,
{16},3xh[16:1]/5xh[16:1],,,4xh[16:1]/6xh[16:1],,,4xh[16:1]/6xh[16:1],,,4x/6x,,,,2-5[8:1]/7h[2:1],,
{8},,,2,,4/5,,B3,
{8},B2,,B1,,B8,,B7,
{8},C1,,B3/B6,,,,B6,
{8},B7,,B8,,B1,,B2,
{8},C1,,B2/B7,,,,3xh[4:15]/6xh[4:27],
{1},
{1},
{1},
{8},,,,,,,3,
{8},3,,3,,3,,3,
{8},3,,3,,3,,3,
{8},3,,3,,3>6[2:1],,,
{8},,,,,1/8,,2x-5[8:1],
{8},1x-6[8:1],,2x-5[8:1],,1x-6[8:1],,2x-5[8:1],
{8},1x-6[8:1],,2x,,3/5,,3h[4:1]/4,
{8},2,,5/6h[4:1],,7,,1/2h[4:1],
{8},3,,4/5,,1b/8b,,7x-4[8:1],
{8},8x-3[8:1],,7x-4[8:1],,8x-3[8:1],,7x-4[8:1],
{8},8x-3[8:1],,7x,,4/6,,3,
{8}4,2/5<2[4:1],,,,,,4>7[4:1]/7,
{8},,,,,1b/8b,,2x,
{16}2x,,2xh[16:3],,,3xh[16:3],,,4x,,4x,,4x,,7x,,
{16}7x,,7xh[16:3],,,6xh[16:3],,,5x,,5x,,5x,,3xh[16:1]/5xh[16:1],,
{16},3xh[16:1]/5xh[16:1],,,4xh[16:1]/6xh[16:1],,,4xh[16:1]/6xh[16:1],,,4x/6x,,,,1x-5[8:1]/7xh[4:3],,
{8},,,1x-5[8:1],,,,6,
{16}6,,6h[16:3],,,5h[16:3],,,6,,6,,6,,3,,
{16}3,,3h[16:3],,,4h[16:3],,,3,,3,,3,,3xh[16:1]/5xh[16:1],,
{16},3xh[16:1]/5xh[16:1],,,4xh[16:1]/6xh[16:1],,,4xh[16:1]/6xh[16:1],,,4x/6x,,,,3/4,,
{8},5/7,,2/4,,3/6,,C1f,
{1},
{1},
{1},
E
&inote_5=
(139.6){1},
{1},
{1},
{8},,,,,,,4xh[4:7]/5x,
{8},5,,6,,6,,5,
{8},6,,5,,5,,4/5h[4:7],
{8},4,,3,,3,,4,
{8},3,,4,,4,,3,
{16}3,,8h[16:3],,,7h[16:3],,,6,,6,,5,,6,,
{16}6,,1h[16:3],,,2h[16:3],,,3,,3,,3/6,,5,4,
{16},2,1,,7,8,,4,5,,2-6[8:1]/6,,,,7-3[8:1],,
{8},4-1[8:1],,8,,2b/7b,,B2/B3/B4/B5/B6/B7,
{8},E1/C1/B4/E5/B8,,B1/C1f/B2/B3/B6/B7/B8,,,8,8,
{8}1,2,3,4,5,6,7,8-4[8:1],
{8},3,,2-6[8:1],,8,,7-3[8:1],
{8},2,,1,,1/8,,B2/B3/B4/B5/B6/B7,
{8},E1/C1/B4/E5/B8,,B1/C1f/B2/B3/B6/B7/B8,,,1,1,
{8}8,7,6,5,4,3,2,1-5[8:1],
{8},6,,7-3[8:1],,1,,2-6[8:1],
{8},7,,8,,1/8,,B2/B3/B4/B5/B6/B7,
{8},E1/C1/B4/E5/B8,,B1/C1f/B2/B3/B6/B7/B8,,,8,8,
{8}1,2,3,4,5,6,7,8-5[8:1],
{8},3,,4-8[8:1],,6,,7-2[8:1],
{8},4,,5,,4/5,,B2/B3/B4/B5/B6/B7,
{8},C1/E1/B4/E5/B8,,B1/C1f/B2/B3/B6/B7/B8,,,1,1,
{8}8,7,6,5,4,3,2,1-4[8:1],
{8},6,,5-1[8:1],,3,,2-7[8:1],
{8},4,,5,5,3/6,,4-1[8:1]/8-5[8:1],
{8},,,1-4[8:1]/5-8[8:1],,,,4h[8:1]/8h[8:1],
{16},3h[8:1]/7h[8:1],,,2-7[8:1]/6-3[8:1],,,,,,,,1h[4:1],,,,
{8}8,8<4[4:1],,4>8[4:1],,8,,4h[4:1],
{8},5,3/6,,8,2/7,,1/8<5[8:1],
{8},1>4[8:1]/8x,,1x/8<5[8:1],,1>4[8:1]/8x,,1x/8<5[8:1],
{8},1>4[8:1]/8x,,1x/8,,3/6,,1,
{8}8,7,6,5,4,3/6,,4/7,
{8},2/5,,3/4h[1:2],,,,8x,
{8}2,8x,2,8x,2,8x,2,8x,
{8}2,8x,1,1-4[8:1],,7,,5-8[8:1],
{8},3-6[8:1],,7-2[8:1],,4>5[4:1],,5,
{8},,,3/4h[1:2],,3,,8x,
{8}2,8x,2,8x,2,8x,2,8x,
{8}2,8x,1,1,,2/6,3v1[8:1]/7v5[8:1],,
{8},,,8x,,2v4[8:1]/6v8[8:1],,,
{8},,3x/4xh[8:17],,,,,8x,
{8}2,8x,2,8x,2,8x,2,8x,
{8}2,8x,1,1,,4>1[8:1],,7,
{8},5<8[8:1],,2,,4>1[8:1],,7,
{8},5,,3/4h[1:2],,3,,8x,
{8}2,8x,2,8x,2,8x,2,3x,
{8}2,3x,2,3x,,4>1[8:1]/6h[4:1],,,
{8},1>4[8:1]/5h[4:5],,,,,,8x,
{8}2,8x,2,8x,,4/5,,E7,
{8}C1,E3,,8-5[8:1],,1,,E3,
{8}C1,E7,,1-4[8:1],,8,,E7,
{8}C1,E3,,8-5[8:1],,1,,B3/B4,
{8},B5/B6,,C1f/E3/E7,,,,6h[8:1],
{8}4h[8:1],5h[8:1],4h[8:1],6h[8:1],3h[8:1],4h[8:1],3,3h[8:1],
{8}5h[8:1],4h[8:1],5h[8:1],3h[8:1],6h[8:1],5h[8:1],6,6h[8:1],
{8}4h[8:1],5h[8:1],3h[8:1],4h[8:1],3h[8:1],5h[8:1],4,3h[8:1],
{8}6h[8:1],4h[8:1],5h[8:1],4,,B1/E2/B8/E8,,3h[2:7]/6h[2:13],
{1},
{1},
{1},
{8},,,,,,,E1,
{8},E1,,E1,,E1,,E1,
{8},E1,,E1,,E1,,E1,
{8},E1,,E1,,,,1/8,
{8},3/4,3/4h[8:17],,,,,7x,
{8}1,7x,1,7x,1,7x,1,7x,
{8}1,7x,2,2,,5<8[8:1],,2,
{8},4>1[8:1],,7,,5<8[8:1],,4,
{8},3/4,,3/4h[1:2],,3,,7x,
{8}1,7x,1,7x,1,7x,1,3x,
{8}2,3x,2,3x,,4>1[8:1]/6h[4:1],,,
{8},1>4[8:1]/5h[4:5],,,,,,7x,
{8}1,7x,1,7x,,2/7,,1/8,
{16}6,,4h[16:3],,,3h[16:3],,,2,,1,,8,,1/8,,
{16}3,,5h[16:3],,,6h[16:3],,,7,,8,,1,,1,8,
{16},6,5,,3,4,,8,1,,2-6[8:1]/7,,,,5-8[8:1],,
{8},1-4[8:1],,8b,,2b/7b,,B3/B4,
{8},B5/B6,,E1,C1,E5,,B5/B6,
{8},B3/B4,,E1,C1,E5,,B2/B3,
{8},B6/B7,,E5,C1,E1,,7/8,
{8},1/2,,3/4,,5/6,,4b/8b,
{1},
{1},
{1},
E
&inote_6=
(139.6){1},
{1},
{4}E2/E8,E4/E7,E5/E6,,
{8}E2/E8,,E4/E7,,E5/E6,,,B2/3h[4:11],
{8},E2,,B1,,E1,,B8,
{8},E8,,B7,,E7,,B6,
{8},E6,,B5,,E5,,6h[4:1],
{8},E5,,3h[4:1],,C1,,2/6,
{8}4,3/7-2[8:1],,,,3/7,5,3-7[8:1]/6,
{16}4/5,,6,,,,8h[4:1],,,,1,,4,,6,4,
{16},3,5,,6,5,,3,4,,5/6,,,,1/8,,
{8},2,,4/5,,3p7[8:1]/6>4[8:1],,3x<5[8:1]/6xq2[8:1],
{8},3x/6x,,1b/6b,,,,3h[2:1],
{8}B3,C1,,6h[2:1],B6,C1,,2h[2:1],
{8}B2,C1,,7h[2:1],B7,C1,,2h[4:1],
{8},5h[4:1],,4,,3p7[8:1]/6>4[8:1],,3x<5[8:1]/6xq2[8:1],
{8},3x/6x,,1b/6b,,,,3h[2:1],
{8}B3,C1,,6h[2:1],B6,C1,,2h[2:1],
{8}B2,C1,,7h[2:1],B7,C1,,2h[4:1],
{8},5h[4:1],,4,,3p7[8:1]/6>4[8:1],,3x<5[8:1]/6xq2[8:1],
{8},3x/6x,,1b/6b,,,,4/5,
{8}3,4/5,6,4/5,3,4/5,6,5h[4:1],
{8}4,4h[4:1],3,3h[4:1],2,2h[4:3],,1<4[4:1],
{8},,,,,3p7[8:1]/6>4[8:1],,3x<5[8:1]/6xq2[8:1],
{8},3x/6x,,1/6,,3,,6<8[8:1],
{8},3>1[8:1],,5<7[8:1],,,,6/8,
{8},4,,1/3,,5,,6,
{8},5,,4,,3,,2p4[8:1]/8p4[8:1],
{8},,,1q5[8:1]/7q5[8:1],,,,2,
{8}4,3,7,5,6,2p6[8:1],,2x/7p3[8:1],
{8},2>5[8:1]/7x,,2x/7<4[8:1],,7x,,3/8,
{8},1-4[8:1]/5-8[8:1],4-1[8:1]/8-5[8:1],,,,,2/3,
{8},6/7,,4/5,,1>4[8:1]/8,,1x/8<5[8:1],
{8},1>4[8:1]/8x,,1x/8<5[8:1],,1/8x,,3/6,
{8},,,C1,,,,E8,
{24},,,E2,,,,,,E6,,,,,,E4,,,,,,1b/5x,2x,,
{24},,,1x/5x,2x,,,,,1x/5x,2x,,,,,1x/5x,2x,,,,,1x/5x,2x,,
{24},,,1x/5x,2x,,,,,1x/5x,2x,,,,,1x/5x,2x,,,,,6h[2:1],,,
{8},B6,,3h[2:1],,B3,,6h[2:1],
{24},,,B6,,,,,,3h[4:1],,,,,,B3,,,,,,1b/5x,2x,,
{24},,,1x/5x,2x,,,,,1x/5x,2x,,,,,1x/5x,2x,,,,,1x/5x,2x,,
{24},,,1x/5x,2x,,,,,1x/5x,2x,,,,,1x/5x,2x,,,,,1-5[8:1]/5,,,
{8},,,4/8-4[8:1],,,,1v4[8:1]/5v8[8:1],
{24}4v7[4:1]/8v3[4:1],,,,,,,,,,,,,,,,,,,,,1b/5b,2x/6x,,
{24},,,1x/5x,2x/6x,,,,,1x/5x,2x/6x,,,,,1x/5x,2x/6x,,,,,1x/5x,2x/6x,,
{24},,,1x/5x,2x/6x,,,,,1x/5x,2x/6x,,,,,1x/5x,2x/6x,,,,,6h[2:1],,,
{8},B6,,3h[2:1],,B3,,6h[2:1],
{24},,,B6,,,,,,3h[4:1],,,,,,B3,,,,,,1b/5b,2x/6x,,
{24},,,1x/5x,2x/6x,,,,,1x/5x,2x/6x,,,,,1x/5x,2x/6x,,,,,2x/5x,3x/4x,,
{24},,,2x/5x,3x/4x,,,,,2x/5x,3x/4x,,,,,2x/5x,3x/4x,,,,,5/7h[4:3],,,
{24}4,,,3,,,,,,2,,,3,,,4,,,,,,1x/5x,2x/6x,,
{48},,,,,,1x/5x,,2x/6x,,,,,,,,,,1x/5x,,2x/6x,,,,,,,,,,1x/5x,,2x/6x,,,,,,,,,,6,,,5,,,
{16}6,5,6-2[8:1],5,6,5,6x,,,,,,,,3,4,
{16}3,4,3-7[8:1],4,3,4,3x,,,,,,,,6,5,
{16}6,5,6-2[8:1],5,6,5,6x,,,,,,,,3,4,
{16}3,4,3-7[8:1],4,3,4,3x,,,,,,,,4,6,
{16}4,,5,3,5,,4,6,4,,5,3,5,,2,4,
{16}2,,5,3,5,,4,6,4,6,3,5,3,,6,4,
{16}6,,3,5,3,,6,4,6,,5,7,5,,6,4,
{16}6,,3,5,3,,6,3,6,3,5,4,5,,3h[4:15]/6h[4:31],,
{1},
{1},
{1},
{48},,,,,,,,,,,,,,,,,,,,,,,,,,,,,,,,,,,,,,,,,,8x,1x,2x,,,,
{48},,,,,,8x,1x,2x,,,,,,,,,,8x,1x,2x,,,,,,,,,,8x,1x,2x,,,,,,,,,,8x,1x,2x,,,,
{48},,,,,,8x,1x,2x,,,,,,,,,,8x,1x,2x,,,,,,,,,,8x,1x,2x,,,,,,,,,,8x,1x,2x,,,,
{48},,,,,,8x,1x,2x,,,,,,,,,,8x,1x,2x,,,,,,,,,,8x,1x,2x,,,,,,,,,,8x,1x,2x,,,,
{48},,,,,,8x,1x,2x,,,,,,,,,,8x,1x,2x,,,,,,,,,,8x,1x,2x,,,,,,,,,,4b/8b,1x/5x,2x/6x,,,,
{48},,,,,,4x/8x,1x/5x,2x/6x,,,,,,,,,,4x/8x,1x/5x,2x/6x,,,,,,,,,,4x/8x,1x/5x,2x/6x,,,,,,,,,,4x/8x,1x/5x,2x/6x,,,,
{48},,,,,,4x/8x,1x/5x,2x/6x,,,,,,,,,,4x/8x,1x/5x,2x/6x,,,,,,,,,,4x/8x,1x/5x,2x/6x,,,,,,,,,,3h[4:1]/6-1[8:1],,,,,,
{8},,,3-8[8:1]/6h[4:1],,,,3h[4:1]/5-1[8:1],
{48},,,,,,,,,,,,,,,,,,4-8[8:1]/6h[4:1],,,,,,,,,,,,,,,,,,,,,,,,4b/8b,1x/5x,2x/6x,,,,
{48},,,,,,4x/8x,1x/5x,2x/6x,,,,,,,,,,4x/8x,1x/5x,2x/6x,,,,,,,,,,4x/8x,1x/5x,2x/6x,,,,,,,,,,1b/6b,2x/5x,3x/4x,,,,
{48},,,,,,1b/6b,2x/5x,3x/4x,,,,,,,,,,1b/6b,2x/5x,3x/4x,,,,,,,,,,1b/6b,2x/5x,3x/4x,,,,,,,,,,5/7h[4:3],,,,,,
{48}4,,,,,,3,,,,,,,,,,,,2,,,,,,3,,,,,,4,,,,,,,,,,,,4x/8x,1x/5x,2x/6x,,,,
{48},,,,,,4x/8x,1x/5x,2x/6x,,,,,,,,,,4x/8x,1x/5x,2x/6x,,,,,,,,,,4x/8x,1x/5x,2x/6x,,,,,,,,,,1pp3[8:1]/8qq6[8:1],,,,,,
{8},1x/8x,,1qq7[8:1]/2pp4[8:1],,1x/2x,,2h[8:1],
{8}1h[8:1],2h[8:1],1h[8:1],2h[4:1],,1,,1pp3[8:1]/8qq6[8:1],
{8},1x/8x,,7qq5[8:1]/8pp2[8:1],,7x/8x,,7h[8:1],
{8}8h[8:1],7h[8:1],8h[8:1],7h[4:1],,8,,1pp3[8:1]/8qq6[8:1],
{8},1x/8x,,1qq7[8:1]/2pp4[8:1],,1x/2x,,2h[8:1],
{8}1h[8:1],2h[8:1],1h[8:1],2h[4:1],,1,,1pp3[8:1]/8qq6[8:1],
{8},1x/8x,,7qq5[8:1]/8pp2[8:1],,7x/8x,,7h[8:1],
{8}8h[8:1],7h[8:1],8h[8:1],7h[4:1],,8,,B4/E4/B5/E6,
{1},
{1},
{1},
E
