&title=Titania
&wholebpm=212
&artist=xi
&des=某S氏
&shortid=11029
&genre=オンゲキCHUNITHM
&cabinet=DX
&version=maimai DX
&chartconverter=Neskol
&lv_2=6
&des_2=-
&lv_3=8
&des_3=-
&lv_4=12
&des_4=小鳥遊さん
&lv_5=14+
&des_5=某S氏
&des_6=
&inote_2=
(212){1},
{1},
{1}4,
{1}3,
{1}2,
{1}1,
{1}8,
{1}7,
{1}6,
{1}5,
{1},
{1},
{1}3h[8:7]/4h[8:7],
{1},
{1}5h[8:7]/6h[8:7],
{1},
{1}B4/B5,
{1}B3/B6,
{1}B2/B7,
{1}B1/B8,
{1}C1hf[1:1],
{1},
{4}1x,1,1,,
{4}1,1,1,,
{4}2,2,2,,
{1}2h[2:1],
{4}3,3,3,,
{4}4,4,4,,
{4}5,5,5,,
{1}4b/5b,
{4}5x,5,5,,
{4}5,5,5,,
{4}6,6,6,,
{1}6h[2:1],
{4}7,7,7,,
{4}8,8,8,,
{1}1h[1:1]/8h[1:1],
{1},
{1}1-4[4:3]/8-5[4:3],
{1},
{1}4,
{1}4,
{1}3,
{1}3/4,
{1}5,
{1}5,
{1}6,
{1}5/6,
{1}4h[1:1]/5h[1:1],
{1},
{1}3h[1:1]/6h[1:1],
{1},
{1}2h[1:1]/7h[1:1],
{1},
{1}2xh[8:7]/8xh[8:7],
{1},
{1}1xh[8:7]/7xh[8:7],
{1},
{1}1b/8b,
{1}1-5[4:3],
{1},
{2}6,6,
{2}7,7,
{1}8-4[4:3],
{1},
{2}3,3,
{1}1/2,
{1}B3,
{1}B4,
{1}B5,
{1}B6,
{1}B4/B5,
{1}B3/B6,
{1}B2/B7,
{1}B1/B8,
{1}C1hf[1:1],
{1},
{1}1h[2:3]/8h[2:3],
{1},
{4}1,1,2,2,
{1}1h[2:1]/2h[2:1],
{4}2,2,2,,
{4}3,3,3,,
{4}4,4,5,5,
{4}4,5,3b/6b,,
{4}4,4,3/5,,
{4}5,5,4/6,,
{4}6,6,7,7,
{1}7h[2:1]/8h[2:1],
{4}1,1,1,,
{4}8,8,8,,
{1}1h[2:1]/8h[2:1],
{4}2/7,2/7,2b/7b,,
{1}1-5[4:3],
{2},8,
{1}8-4[4:3],
{2},1,
{2}2,2,
{2}3,3,
{4}4,4,4,,
{4}5,5,5,,
{4}5,5,6,6,
{4}5,5,4/6,,
{4}4,4,3,3,
{4}4,4,3/5,,
{4}4,4,5,5,
{4}3,3,6,6,
{4}2,2,7,7,
{4}1,1,8,8,
{4},2xh[4:15]/7xh[4:15],,,
{1},
{1},
{1},
{1},
{1},
{1},
E
&inote_3=
(212){1},
{1},
{1}6h[1:1],
{1}5h[1:1],
{1}4h[1:1],
{1}3h[1:1],
{1}4h[1:1],
{1}5h[1:1],
{1}6h[1:1],
{1}C1xh[8:17],
{1},
{1},
{8}3x/4x,,,3x/4x,,,3xh[2:1]/4xh[2:1],,
{2},3x/4x,
{8}5x/6x,,,5x/6x,,,5xh[2:1]/6xh[2:1],,
{2},5x/6x,
{4}3,4,3/5,,
{4}6,5,4/6,,
{2}3x/5x,4x/6x,
{1}5x-8[2:1],
{1}1xh[1:1],
{4}8x,1x/8x,2b/7b,,
{4}3,3,3/4,,
{4}6,6,5/6,,
{4}4,4,3,3,
{4}2/4,2/4,2/4,,
{8}3x,3x,,,5x,5x,,,
{8}4x,4x,,,6x,6x,,,
{4}5/7,5/7,6,6,
{4}4,4,3/5,,
{4}1,1,2,2,
{4}3,3,3/4,,
{4}5,5,6,6,
{4}7,7,7/8,,
{1}5h[2:1]/6h[2:1],
{1}3h[2:1]/4h[2:1],
{1}4-8[4:3]/5-1[4:3],
{2},2x/7x,
{1}3V14[4:5]/6V85[4:5],
{1},
{1}E5,
{1}B4,
{1}B3,
{1}E3,
{1}C1,
{1}E7,
{1}E8,
{1}E1/E2,
{2}B5/E6,B6,
{1}B7,
{2}B4/E4,B3,
{1}B2,
{2}B4/B5,B3/B6,
{1}B2/B7,
{1}C1xh[8:7],
{1},
{1}C1xh[8:7],
{1},
{1}C1f/B2/B7,
{1}8x-4[4:3],
{2},3,
{1}2-6[4:3],
{2},7,
{1}8x-4[4:3],
{2},3/5,
{4}6,6,4/5,4/5,
{4}3x,3x,2b/4b,,
{1}3-8[4:3],
{2},7,
{1}6-2[4:3],
{2},1,
{1}8-4[4:3],
{2},3/5,
{1}4-1[4:3]*-7[4:3],
{2},8x,
{1}2h[2:1]/7h[2:1],
{4}3x/4x,3x/4x,5x/6x,5xs1[1:1]/6x,
{1},
{2},2b/7b,
{4}6,5,4,3,
{4}2/4,2/4,1/5,,
{8}2x,2x,,,4x,4x,,,
{8}6x,6x,,,8x,8x,,,
{4}1,1,2/8,2/8,
{4}1/7,1/7,2b/6b,,
{4}1,2,3,4,
{4}6,7,2/8,,
{4}8,7,6,5,
{4}3,2,1/7,,
{2}5h[4:1]/7h[4:1],5/7,
{2}2h[4:1]/4h[4:1],2/4,
{4}1/2,1/2,3/4,3/4,
{4}5/6,5/6,7/8,7/8,
{1}1x-5[4:3],
{4},,6,6-2[1:1],
{1},
{4},,1/8,1>4[8:7]/8<5[8:7],
{1},
{4},,3x/6x,3V15[8:9]/6V84[8:9],
{1},
{2},3x/6x,
{8}2x,2,2,,3/5,,3/5,,
{8}6,6,6,,5x/7x,,,,
{8}7,7,7,,2/8,,2/8,,
{8}3,3,3,,2b/4b,,,,
{1}4x>5[4:5]/5x,
{1},
{8}4x,4x,,3x/5x,3x/5x,,4x/6x,4x/6x,
{8},2x/7x,2x/7x,,1x/8x,1x/8x,1x/8x,,
{4},C1f,,,
{1},
{1},
{1},
{1}3h[1:2]/6h[1:2],
{1},
{1},
{1}C1xh[8:7],
{1},
{1},
{1},
E
&inote_4=
(212){1},
{4},6,5,4,
{1}3/6h[1:1],
{1}3<6[4:3],
{1}4h[1:1],
{8}3,,,4,,,5,,
{1}5h[1:1],
{4}3,4,5,6,
{2}6h[2:1],5,
{2}3h[2:1],4-8[32:43],
{1},
{32},,,4xw8[32:13],,,,,,,,,,,,,,,,,,,,,,,,,,,,,
{8}3/5,3/5,,4/7,4/7,,1/5,1<2[8:5]/5,
{1},
{8}4/6,4/6,,2/5,2/5,,4/8,4/8>7[8:5],
{1},
{8}3b/8b,,5,5,3,4,3,2/5,
{8},5,4,4,6,5,6,5,
{8}4/7,4/7,,,2/5,2/5,,,
{16}4x/6x,,,3x/5x,,,4x/7x,,,2x/5x,,,1x/8x,,2x>8[8:5]/7x<1[8:5],,
{1},
{4}1x/2x,3/4,5/6,7-3[8:1]/8-4[8:1],
{8},,1b/6b,,3,4,3,2-5[8:1]/5,
{16},,7,,7h[4:1],,,,5x,,,1x/8x,,,2x/4x,,
{8}2-5[8:1]/4-7[8:1],,,,8,1,2,3,
{2}4h[4:1]/7h[4:1],2h[4:1]/4h[4:1],
{8}4/7-5[8:1],4,,,2-4[8:1]/6,6,,,
{8}1/7-3[8:1],1,,,2-6[8:1]/8,8,,,
{4}7h[4:1],5h[4:1],4h[4:1],2h[4:1],
{16}6,,6,,1,,1,,7,8,7,8,7b,,,,
{8}4/5,,C1f/B3/B6,,1x/8x,,7,7-4[8:1],
{16},,2,,2h[4:1],,,,4x,,,1x/8x,,,5x/7x,,
{8}5-2[8:1]/7-4[8:1],,,,1,8,7,6,
{2}2h[4:1]/5h[4:1],5h[4:1]/7h[4:1],
{12}2/5,,,2,1,2,1-5[8:1],,,3,,,
{12}4/7,,,7,8,7,8-4[8:1],,,6,,,
{8}2/5,,8,5/7,,1,2/4,,
{16}7xh[16:3],,,6h[16:3],,,5,,1xh[16:3],,,2h[16:3],,,3,,
{1}4bqq1[4:5]/8bqq5[4:5],
{1},
{4}5/6h[1:2],,4,4,
{4}5,,7,7,
{2}7s3[4:5],E8,
{2}E6,C1,
{4}3h[1:2]/4,,5,5,
{4}4,,2,2,
{2}2z6[4:5],E2,
{2}E4,C1,
{8}5h[8:3]/6h[1:1],,,,,7,7,,
{4}8h[4:1],E8,E3/E7,E6,
{8}3h[1:1]/4h[8:3],,,,,2,2,,
{4}1h[4:1],E2,E3/E7,E4,
{8}5h[8:3]/6h[1:1],,,,,7,7,,
{4}8h[4:1],B1/B8,C1,B4/E4/B5/E6,
{8}1x/2x,1x/2x,,B1/E2/B8/E8,,E4/B4/B5/E6,,C1xh[8:5]/E3/E7,
{1},
{8}7x/8x,7x/8x,,E2/B2/B3/E4,,E6/B6/B7/E8,,E1/C1hf[8:5]/E5,
{1},
{8}8,8,1,1,6,,4b/8b,,
{8}2<6[2:1]/7,,5,5,,,2<6[2:1],,
{8}4,4,,,2h[4:1],,1,,
{8}2/7>3[2:1],,4,4,,,7>3[2:1],,
{8}5,5,,,7h[4:1],,8,,
{4}1h[2:1]/6h[2:1],,,4/5,
{4}5/7,4/5,2/4,4/5,
{4}6x/7x,4/5,2/3,1/8,
{8}6h[8:1],5h[8:1],4h[8:1],3h[8:1],2x,,1b/8b,,
{8}2>6[2:1]/7,,1,1,,,2>6[2:1],,
{8}1,1,,,2h[4:1],,1,,
{8}3/7<3[2:1],,8,8,,,7<3[2:1],,
{8}8,8,,,7h[4:1],,8,,
{2}C1hf[2:3]/B3/B6,E8,
{2}E2,E1,
{8}8,8,1,1,6,6,3,3,
{16}2/7,,2/7,,2/7,,2/7,,1,8,1,8,1>5[4:3],8,1,8,
{1},
{8}4x/6x,5,2x/4x,3,4x/7x,6,1xpp4[8:9]/5xpp8[8:9],,
{1},
{16},,,,,,,,2/4,,,1/8,,,5/7,,
{8}5-2[8:1]/7-4[8:1],,,,1,8,7,6,
{4}2h[4:1]/5,3,4/7h[4:1],6,
{8}2-5[8:1]/8,2/8,,,1/7-4[8:1],1/7,,,
{8}1/2-6[8:1],1/2,,,7-3[8:1]/8,7/8,,,
{4}1h[8:1]/2h[8:1],3h[8:1]/4h[8:1],5h[8:1]/6h[8:1],7h[8:1]/8h[8:1],
{16}3,,3,,8,,8,,2,1,2,1,2b,,,,
{8}4/5,,C1f/B3/B6,,1x/8x,,2,2-5[8:1],
{16},,7,,7h[4:1],,,,5,,,1/8,,,2/4,,
{8}2-5[8:1]/4-7[8:1],,,,8,1,2,3,
{4}4/7h[4:1],6,2h[4:1]/5,3,
{12}4x/7x,,,6,5,6,5-1[8:1],,,8b,,,
{48}2x/5x,,,,,,,,,,,,3,,,,4,,,,3,,,,4xh[8:1],,,,,,,,,3xh[8:1]/5xh[8:1],,,,,,,,,2x/6x,,,,,,
{8}1x/7x,,1/2,3/8,,7/8,1/6,,
{16}2xh[16:3],,,3h[16:3],,,4,,8xh[16:3],,,7h[16:3],,,6,,
{1}1bw5[8:9]/5b,
{4},,,1/8,
{8}2/5,,6,5,4/7,,3,4,
{16}2/5,,,,8,,1,,2x/7x,,,3x/6x,,,4x/5xh[8:3],,
{4},C1f,,1/8,
{8}4,4,6,6,3,3,5,,
{4}2-6[8:1],1,8-4[8:1],2,
{16}3h[4:1],,,,4,,,,1x/2x,,,4x/5x,,,7x/8x,,
{16}6x,5,6,5,6,,3x,4,3,4,3,,2b-6[8:1]/7b,,,,
{8}8-4[8:1],8,3-1[8:1],3,7,,6b/8b,,
{16}3x,4,3,4,3,,6x,5,6,5,6,,2b/7b-3[8:1],,,,
{8}1-5[8:1],1,6-8[8:1],6,2,,1b/3b,,
{16}1x/8x,,,2/4,,,5/7,,,2/5,,,4/7,,,1/5,
{16},,4/8,,,1/6,,,3/8,,,4/5,,,1/8,,
{16}6x,5,6,5,6,,3x,4,3,4,3,,8x,1,8,1,
{16}8,,4x,5,4,5,4,,E5,E6,E7,E8,E1,E2,E3,E4,
{4},C1xh[4:13]/B2/B3/B6/B7,,,
{1},
{1},
{1},
{8},,5,,4,4,5,5,
{8},4,,4,,5,4,5,
{8},,4,,5,5,4,4,
{8},5,,5,,4,5,3b,
{1},
{1},
{1},
E
&inote_5=
(212){1},
{4},4,3,2,
{8}1-5[4:3],,,,,,8,8,
{1}8,
{8}7-3[4:3],,,,,,1,1,
{8}1h[8:3],,,7h[8:3],,,3h[4:1],,
{8}4<7[4:3],,,,,,1,2,
{4}3,8,7,6,
{2}4/5,1/6,
{2}3/7,2/5p4[4:7],
{1},
{8},C1xh[8:3],,,,,,,
{8}2/6,2/6,,3/7,3/7,,1/5,1/5,
{8},7/8,6,5,3/4,2,1,8,
{8}3/7,3/7,,2/6,2/6,,4/8,4/8,
{8},1/2,3,4,5/6,7,8,1,
{16}2x/6x,,5,4,5,,3,4,3,,6,5,6,,4x/7x,,
{16},,3,4,3,,7,8,7,,2,1,2,,8,,
{16}4x/8x,,4x/8x,,8,7,6,5,4x/8x,,4x/8x,,1,2,3,4,
{16}1x/5x,,,4x/8x,,,2x/5x,,,3x/7x,,,1xp3[4:3]/5xp7[4:3],,1x/5x,,
{1},
{16}2x,,6,5,6x,,3,4,3x,,6,5,7x,,3,4,
{8}1-5[8:1],,1b/7,,6,3,2,8w4[8:1],
{16},,8,,,,2,,1/2,,,3/4,,,5/6,,
{16}7h[8:3]/8>3[32:3],,,,,,4,5,6,7,8,1,2,3,4,,
{4}8-4[8:1],2-6[8:1],5-1[8:1],3,
{8}3/4,3/4,5,5,4/6,4/6,3,3,
{8}2/6,2/6,7,7,3/8,3/8,2,2,
{8}1/6,2,3/8,7,2/6,3,4/7,6,
{16}5/7,,5/7,,2/6,,2/6,,4/8,,4/8,,4/8,7,6,5,
{8}3/4-8[8:1],,2/4b,,3,2,1,1w5[8:1],
{16},,1,,,,7,,7/8,,,5/6,,,3/4,,
{16}1<6[32:3]/2h[8:3],,,,,,5,4,3,2,1,8,7,6,5,,
{4}1-5[8:1],7-3[8:1],4-8[8:1],6,
{12}1/6,,,4,4,4,3/5,,,6,6,6,
{48}5/7,,,,,,,,,,,,2,,,,2,,,,2,,,,1x/3x,,,,,,,,,6x/8x,,,,,,,,,2x/5x,,,,,,
{16}3b,4,3,4,3,,6b,5,6,5,6,,1b,8,1,8,
{16}1h[16:3],,,6h[16:3],,,4h[8:1],,5h[16:3],,,2h[16:3],,,8h[8:1],,
{16}1,2,3,4,5,6,7,8,1,2,3,4,5,6,7,8,
{48}1h[4:1],,,,,,6,,,5,,,4,,,,,,2,,,,,,8,,,,,,,,6,,,,,,,,4,,,,,,,,
{2}2>5[2:1],C1,
{2}7<3[2:1],C1,
{1}1qq6[4:5]/2pp5[4:5],
{1},
{2}7<4[2:1],C1,
{2}2>6[2:1],C1,
{1}7qq4[4:5]/8pp3[4:5],
{1},
{8}6h[8:3],,5,5,,6,5,7,
{4}E1/E8,E2/E7,E3/E6,E4/E5,
{8}3h[8:3],,4,4,,3,4,2,
{16}E1/E2,,,,B3,B4,E5,,B6/E7,,,,B2/E2,,,,
{8}7h[8:3],,5,5,,6,5,7,
{12}E1/E2/E8,,,E4/E5/E6,,,3,4,2,6,5,7,
{8}3/8,3-7[8:1]/8,,3/8-4[8:1],,2<7[4:1]/8,,2/7,
{16},,6,,4,5,4,,3,,8,,2/7,,,,
{8}1/6,1/6-2[8:1],,1-5[8:1]/6,,1/7>2[4:1],,2/7,
{16},,3,,5,4,5,,3,4,3,,2/5,,,,
{16}4/7,,6,5,6,,3,4,3,,6,5,7,,3,4,
{8}2qq5[1:1],,,B8,,,E6,,
{16},,E7,,,,,,3/4,,,2/5,,,1/6,,
{8}7pp4[1:1],,,B1,,,E4,,
{8},E3,,,3/6,,4/5,,
{8}2h[8:3]/7h[8:3],,,,,4/5,4/5,,
{4}3h[4:1]/8,4,1/6h[4:1],5,
{4}7/8,3/4,1/2,5/6,
{8}4/6,3/5,2/4,1/3,2/4,3/5,4/6,5/7,
{8}8h[8:3],,6,6h[8:3],,4,4h[8:3],,
{16}2,,2h[8:3],,,,8,,8h[8:3],,,1,,,2,,
{8}3h[8:3],,4,5h[8:3],,6,7h[8:3],,
{8}8,1h[8:3],,2,3,,4/5,,
{16}3/6,,,,4,5,4,5,3/6,,,,2,1,2,1,
{16}3/8,,,,7,8,7,8,1/6,,,,3/4,,,,
{8}1-5[8:1],2/8,1b/7,,8-4[8:1],1/7,2/8b,,
{16}1,,E7,B6,B5,,E3,B3,B4,,7,,1,8,1,,
{16}1x/8x,7,6,5,4,3,2,1,4/8,5,6,7,8,1,2,3,
{8}4x/8x,4/8,2x/6x,2/6,3x/7x,3/7,1xv4[4:5]/5xv8[4:5],1/5,
{1},
{16},,,,,,,,4x/5x,,,3x/6x,,,2x/7x,,
{16}1-5[8:1]/8-4[8:1],,,,1b/8b,,,,1,2,3,4,5,6,7,8,
{4}1-3[8:1]*-4[8:1],1-6[8:1]*-7[8:1],1-5[8:1],1,
{16}4/6,,4/6,,5,4,5,,3/5,,3/5,,4,5,4,,
{16}5/7,,5/7,,6,5,6,,2/4,,2/4,,3,4,3,,
{16}1/5,2,3,4,1/5,6,7,8,1/5,2,3,4,1/5,6,7,8,
{24}1/5,,,1/5,,,2/6,,,2/6,,,3/7,,,3/7,,,4,5,6,7,8,1,
{8}2/5-1[8:1],,5b/7,,6,7,8,1-4[8:1]/2-6[8:1],
{16},,1/2,,,,8,,5/7,,,3/4,,,2/8,,
{16}7-3[8:1]/8-5[8:1],,,,7/8,,,,8,7,6,5,4,3,2,1,
{4}8-5[8:1]*-6[8:1],8-2[8:1]*-3[8:1],8-4[8:1],8,
{12}3/5h[4:1],,,4,4,4,3h[4:1]/5,,,6,6,6,
{48}4/7h[4:1],,,,,,,,,,,,2,,,,2,,,,2,,,,1/3,,,,,,,,,4/6,,,,,,,,,1/7,,,,,,
{24}1x/8x,2,3,4,5,6,7,8,1,2x/7x,6,5,4,3,2,1,8,7,3x/6x,4,5,6,7,8,
{16}1x/5x,,,6x/8x,,,5x/7x,,4x/8x,,,1x/3x,,,2x/4x,,
{4}1xh[8:3]/7x-3[8:9],,,4h[8:3],
{16},,,,,,,,1h[16:3],,,2h[16:3],,,3,,
{4}2-6[8:9]/4h[8:3],,,7h[8:3],
{16},,,,,,,,8h[16:3],,,7h[16:3],,,6,,
{4}5-1[8:1]/7,8h[2:1],,2,
{16}2,1,2,1,3,8,3,8,4,7,4,7,5h[8:1],,6,,
{8}7h[4:1],,5,3h[4:1],,4,5,4-8[8:1]/6,
{16},,7h[4:1],,,,,,1b/2b,,,3b/5b,,,6b/8b,,
{16}1x,2,3,4,5,,1x,2,3,4,5,,1x,2,3,4,
{48}8b,,,7,,,6,,,5,,,7b,,,6,,,5,,,4,,,6b,,5,,4,,3,,2,,1,,8,,7,,6,,5,,4,,3,,
{16}8x,7,6,5,4,,8x,7,6,5,4,,8x,7,6,5,
{48}1b,,,2,,,3,,,4,,,2b,,,3,,,4,,,5,,,3b,,4,,5,,6,,7,,8,,1-5[16:1],,2,,3,,4,,5,,6,,
{16}7x-4[16:1],,,2x-5[16:1],,,8x-4[16:1],,,3x-6[16:1],,,7x-4[16:1],,,1x-5[16:1],
{16},,8x-4[16:1],,,2x-5[16:1],,,6x-3[16:1],,,4x-1[16:1],,,8x,,
{24}8b,7,6,5,4,3,,,,1b,2,3,4,5,6,,,,5b/8b,4/7,3/6,2/5,1/4,3/8,
{96},,,,,,,,,,,,1b/4b,,,,2/5,,,,3/6,,,,4/7,,,,5/8,,,,1/6,,,,,,,,,,,,,,,,8b,,,7,,,6,,,5,,,4,,,3,,,2,,,1,,,8,,,7,,,6,,,5,,,4,,,3,,,2,,,1,,,
{16}4v1[8:1]/8v5[8:1],,,,4bp2[4:11]/8bp6[4:11],C1f,,,,,,,,,,,
{1},
{1},
{1},
{8},,2,,5,3,6,4,
{8},7,,3,,6,4,5,
{8},,B8,,B4,B6,B2,E8,
{8},E1,,E7,,B3,E6,C1,
{1},
{1},
{1},
E
