&title=The Gong of Knockout
&wholebpm=180
&artist=Fear, and Loathing in Las Vegas
&des=サファ太
&shortid=11057
&genre=POPSアニメ
&cabinet=DX
&version=maimai DX
&chartconverter=Neskol
&lv_2=4
&des_2=-
&lv_3=7+
&des_3=-
&lv_4=11
&des_4=小鳥遊さん
&lv_5=13
&des_5=サファ太
&des_6=
&inote_2=
(180){1},
{1},
{1},
{1},
{1},
{1},
{1},
{1},
{1},
{1}1xh[2:3]/8xh[2:3],
{1},
{1}1,
{1}1,
{1}2,
{1}2,
{1}3,
{1}3,
{1}4,
{1}4b,
{1}5,
{2}5,5,
{1}6,
{2}6,6,
{1}7,
{2}7,7,
{1}8,
{2}8,1x/8x,
{2}8,8,
{2}7,7,
{2}6,6,
{4}5,5,5b,,
{2}4,4,
{2}3,3,
{2}2,2,
{4}1,1,1b,,
{1}1-5[4:3],
{1},
{1}6h[1:1],
{1},
{1}8-4[4:3],
{1},
{1}3h[1:1],
{1},
{1}B2,
{1}E1,
{1}B7,
{1}B6,
{1}E5,
{1}B3,
{1}C1xh[1:1],
{1},
{2}1,1,
{4}1,1,1,,
{4}2,2,2,,
{4}2,2,1/2,,
{2}3,3,
{4}3,3,3,,
{4}4,4,5,5,
{2}4x/5x,3b/6b,
{2}5,5,
{2}6,6,
{1}7h[2:1],
{4}7,7,7/8,,
{2}8,8,
{2}1,1,
{1}8h[2:1],
{4}1,1,8,8,
{1}1b/8b,
{1},
{1},
{1},
E
&inote_3=
(180){1},
{1}3xh[1:1],
{1}4h[1:1],
{1}5h[1:1],
{2}6,6,
{1}6h[1:1],
{1}5h[1:1],
{1}4h[1:1],
{2}3,3,
{1}4qq1[1:1]/5pp8[1:1],
{2},2x/7x,
{4}2,2,1/2,1/2,
{4}7,7,7/8,7/8,
{4}2,2,1/2,1/2,
{4}8,1/8,2x/7x,,
{4}7,7,7/8,7/8,
{4}2,2,1/2,1/2,
{4}7,7,7/8,7/8,
{4}1,1/8,2x/7x,,
{4}6h[4:3],,,5,
{4}4h[4:3],,,5,
{4}6h[4:3],,,5,
{4}4,3,3x/4x,,
{4}6h[2:1],,5,5,
{4}4h[2:1],,5,5,
{4}6,6,7,7,
{8}1/8,,2x/7x,2x/7x,,,,,
{4}7x,6x,5,4,
{4}3,2,1x/2x,,
{4}2,3,4,5,
{8}6,,7x/8x,7x/8x,,,,,
{4}8x,7x,6,5,
{4}4,3,2,1x/2x,
{4}2,3,4,5,
{4}4x/5x,3x/6x,2b/7b,,
{1}1-4[2:1],
{1}5-8[2:1],
{1}1-4[2:1],
{4}5x,5x,5x,,
{1}5<8[2:1],
{1}1>4[2:1],
{1}5<8[2:1],
{4}1x,1x,2x/7x,,
{2}B2,C1,
{1}B6,
{2}B7,C1,
{1}B3,
{2}B2,C1,
{2}B6,B7,
{2}C1,B3,
{1}C1f,
{4}2,1/2,7,7/8,
{1}6x>3[2:1],
{4}2,1,8,7,
{4}7/8,7/8,1b/6b,,
{4}7,7/8,2,1/2,
{1}3x<6[2:1],
{4}7,8,1,2,
{4}1/2,1/2,3b/8b,,
{4}4,3,2,1x/2x,
{4}3,4,5,5x/6x,
{4}7,7/8,2,1/2,
{4}3,3/4,2b/5b,,
{4}5,6,7,7x/8x,
{4}6,5,4,3x/4x,
{4}2,1/2,7,7/8,
{4}6,5/6,5/6,4/7,
{1}3b/8b,
{1},
{1},
{1},
E
&inote_4=
(180){1},
{4}4,4,4,4,
{4}5,5,5,5,
{4}E4,B3/B4,E6,B5/B6,
{4}E3,B2/B3,E7,B6/B7,
{4}3,3/4,6,5/6,
{4}3,2/4,6,5/7,
{4}B3,B1/B4,B6,B5/B8,
{4}E3,E2/E4,E7,E6/E8,
{16}2xh[16:3],,,4xh[16:3],,,5xh[16:3],,,7xh[16:3],,,1x,,1x,,
{1}C1hf[2:1],
{16}8x,,8,,1/7,,,,2h[16:3],,,3h[16:3],,,4,,
{16},,1/2,,3/8,,,,7h[16:3],,,6h[16:3],,,5,,
{16},,5/6,,4/7,,,,1h[16:3],,,2h[16:3],,,3,,
{16},,3/4,,2/5,,,,6h[16:3],,,7h[16:3],,,8,,
{16},,5/6,,4/7,,,,7h[16:3]/8,,,6h[16:3],,,5,,
{16},,3/4,,2/5,,,,1/2h[16:3],,,3h[16:3],,,4,,
{16},,1/2,,3/8,,,,1/8h[16:3],,,7h[16:3],,,6,,
{8},7/8,1/6,,1h[16:3]/8h[16:3],,2b/7b,,
{1}3x>6[1:1]/5xh[2:3],
{4},,4,3/6,
{8}4/5,,3,3,4,,2/5,,
{8}3/4,,6,5,4/7,,3/5,,
{8}5/6,,7,7,5/6,,4/5,,
{8}3/4,,2,2,3/4,,4/5,,
{8}5/7,,3,2/4,,1,8,1,
{8}2x/7x,2x/7x,2x/7x,2b/7b,,4/5,4/5,,
{2}3xh[4:1]/4x-7[8:1],2xh[4:1]/4x-8[8:1],
{4}1-5[8:1],8-6[8:1],1-3[8:1],8b,
{2}4x/6x-3[8:1],2x-7[8:1]/8x,
{8}5x/6x,,1/8,1-4[8:1]/8-5[8:1],,,,,
{2}5x-2[8:1]/6xh[4:1],5x-1[8:1]/7xh[4:1],
{4}8-4[8:1],1-3[8:1],8-6[8:1],1b,
{2}3x-6[8:1]/5x,1x/7x-2[8:1],
{8}3x/4x,,5/6,,1,8,2b/7b,,
{1}4xh[4:3]/6x<3[1:1],
{4}4,4,4,4,
{8}4,5,6h[4:3],,7,,7,,
{4}E8,E6,E4,E2,
{1}3>6[1:1]/5h[4:3],
{8}5,,5,,5,,5,4,
{4}3h[1:1],2,2,2,
{4}B2/E2,E8/B8,B6/E6,E4/B4,
{4}C1f/B2/B7,,,E4/E5,
{4}B1/C1f/B8,,,E5/E6,
{4}B1/C1f/B8,,,4x/5x,
{16}2xh[16:3],,,3xh[16:3],,,4x,,7xh[16:3],,,6xh[16:3],,,5x,,
{4}B1/C1f/B8,,,B3/B4/E5,
{4}B1/C1f/B8,,,E5/B5/B6,
{4}B1/C1f/B8,,,4x/5x-1[2:1],
{1},
{16}1x/2xh[16:3],,,3h[16:3],,,4,,6,,5,,4/7,,,,
{2}5x-1[8:1]/6x-8[8:1],3x-1[8:1]/4x-8[8:1],
{16}8xh[16:3],,,7h[16:3],,,6,,2/6>3[8:1],,,,1b,,,,
{16}1xh[16:3],,,2h[16:3],,,3,,3<6[8:1]/7,,,,8b,,,,
{16}7xh[16:3]/8x,,,6h[16:3],,,5,,3,,4,,2/5,,,,
{2}3x-1[8:1]/4x-8[8:1],5x-1[8:1]/6x-8[8:1],
{16}1xh[16:3],,,2h[16:3],,,3,,3<6[8:1]/7,,,,8b,,,,
{2}8x-3[8:1]*-5[8:1],1xw5[8:1],
{2}B1/C1f/B2/E2/B3/B8,B1/C1f/B6/B7/B8/E8,
{1}C1f/B2/B3/E3/B6/E7/B7,
{16}2x/4xh[16:3],,,5xh[16:3],,,7x,,6x>3[8:1]/8x>3[8:1],,,,,,,,
{16}5xh[16:3]/7x,,,4xh[16:3],,,2x,,1x<6[8:1]/3x<6[8:1],,,,,,,,
{2}B1/C1f/B6/B7/E8/B8,B1/C1f/B2/E2/B3/B8,
{1}E1/B1/C1f/B4/B5/E5/B8,
{16}5xh[16:3]/7x,,,4xh[16:3],,,2x,,8,,7,,1x-5[8:1]/6x,,,,
{4}8x-6[8:1],1x-3[8:1],8x-4[8:1],1x,
{1}B1/C1f/B8,
{1},
{1},
{1},
E
&inote_5=
(180){1},
{4}4/5,4,4,4,
{4}4/5,4,4,4,
{4}4/5,4,4,4,
{4}4/5,4,4,4,
{16}6h[16:3],,,4h[16:3],,,5,,5,,,,4/6,,,,
{16}3h[16:3],,,5h[16:3],,,4,,4,,,,3/5,,,,
{16}7h[16:3],,,6h[16:3],,,5,,4/5,,,,3/6,,,,
{16}2h[16:3],,,3h[16:3],,,4,,4/5,,,,3/6,,,,
{16}1xh[8:1]/8xh[8:1],,,5xh[8:1]/7xh[8:1],,,4xh[8:1]/5xh[8:1],,,2xh[8:1]/4xh[8:1],,,1x>4[8:1]/5x<8[8:1],,1x/5x,,
{2}1b/5b,C1xh[16:3]/B2/B3/B6/B7,
{16}1/8,,2,,2h[4:1]/4,,,,6h[16:3],,,5,7,,1,,
{16}1/8,,7,,5/7h[4:1],,,,3h[16:3],,,4,2,,2,,
{16}1/2,,3/8,,4/7h[4:1],,,,2h[16:3],,,1,3,,5,,
{8}3/5,2/6,1/7-3[8:1],,3/7,,1b/6b,,
{16}4x/5x,,6,,5/7h[4:1],,,,8,,7,5,6,,4/5,,
{16}3/4,,2,,1/2h[4:1],,,,8,,2,4,3,,4/5,,
{16}5/6,,7,,7h[4:1]/8,,,,1,,7,5,6,,4/5,,
{16}3x/6x,,2,1,2,,3/8,,5,4,5,,1b>5[2:1]/7b,,,,
{8}6h[2:1],,,,,7,7,,
{16}8h[16:3],,,6h[16:3],,,5,,4/5,,,,3/4,,,,
{16}2h[16:3],,,4h[16:5],,,3,,3,,,,2/5,,,,
{16}7h[16:3],,,5h[16:5],,,6,,6,,,,4/7,,,,
{8}2h[16:3]/4h[16:3],,,1,1,,4/5,,
{8}4h[16:3]/6h[16:3],,,8,8,,4/5,,
{8}2/7,,6,5,4h[4:1]/6,,5h[4:1],,
{48}4,,,5,,,4,,,,,,2/7,,,,,,1>4[8:1]/8<5[8:1],,,,,,,,,,,,E2/E8,,E3/E7,,E4/E6,,E5,,,,,,,,,,,,
{32}2x/7x,,,,3,,4,,2,,,,1/6,,,,1x<6[8:1],2x,3x,,,,,,,E1,E8,E7,,,,,
{32}1x<6[8:1],2x,3x,4x,,,,,,E1,E8,E7,,,,,1x,2x,3x,4x,5x,,,,1b/7b,,,,,,,,
{8}2-5[8:1]/5,1/6,2/5,6,4/7-4[8:1],3/8,4/7,3,
{8}2x-6[8:1],1x-5[8:1],2x,1x,,7/8,1x/6x,,
{32}4x/7x,,,,3,,4,,2,,,,1/6,,,,7x-4[8:1]/8x-3[8:1],,,,,,,,7x/8x,E8,C1,E4,,,,,
{32}1x-6[8:1]/2x-5[8:1],,,,,,,,1x/2x,E2,C1,E6,,,,,1x/8w4[8:1],,,,,,,,8x,B8,C1f,B4,,,,,
{16}2b/6b,,,,2/6,,1,,3/7,,6,5,7,,3/8,,
{8}1x<6[8:1]*>4[8:1]/2x,,1x,,7x/8x,1x/6x,2b>7[2:1]/5b,,
{4}C1f,,,1/8,
{16}8x,,,1x/7x,,,2x/6x,,,,4/5,,4/5,,,,
{8}3/6,6,2h[8:3]/6,,3,4,2/4,,
{16}3x/5x,,,3x/5x,,,4x/6x,,,4x/6x,,,3x/7x,,,,
{4}4>1[4:1]/5,6h[2:1],,1,
{16}1,,,2/8,,,3h[4:1]/7,,,,4,,2/5<3[8:7],,,,
{1}C1xh[2:1],
{16}1x/6x,,,2x/7x,,,8-4[8:1],,1-5[8:1],,8,,1,,,,
{8}C1f/B2/B7,,,,,,3/5,3/5,
{8}C1f/B7/E7/E8,,,,,,4/6,4/6,
{8}C1f/E2/B2/E3,,,,,,4/5,3/6,
{16}2xh[16:3]/7x,,,3xh[16:3],,,4x,,7xh[16:3],,,6xh[16:3],,,5x,,
{8}C1f/B2/B7,,,,,,3/4,3/4,
{8}C1f/B6/B7/B8/E8,,,,,,5/6,5/6,
{8}B1/C1f/B2/E2/B3,,,,,,2x/7x,3x/6x,
{16}4h[8:3],,,5h[16:5],,,,,,,,,6<1[8:1],,,,
{32}2b>5[8:1]/6,,,,,,,,6<1[8:1],E3,E4,E5,,,,,2x>5[8:1]/6,,,,,,,,6-1[8:1],E3,E4,E5,,,,,
{4}1w5[8:1]/6x,1x,E1/B1/C1f/B2/E2/E3,,
{16}2/7-4[8:1],,,8,7,,1,,2-5[8:1]/5,,,1,2,,8,,
{48}4x/7xh[8:1],,,,,,,,,,,,1xh[8:1]/7x,,,,,,,,,,,,1x,E2,B2,B3,E4,,7x,E7,B6,B5,E5,,8b,,,,,,,,,,,,
{32}2x/7x<4[8:1],,,,,,,,3>8[8:1],E7,E6,E5,,,,,3/7x<4[8:1],,,,,,,,3-8[8:1],E7,E6,E5,,,,,
{4}3x/8w4[8:1],8x,E1/C1f/E7/B7/B8/E8,,
{16}2/6-1[8:1],,,4,6,,2,,3-8[8:1]/8,,,5,3,,7,,
{48}1b/6x,,,,,,6,,,,,,2x/8b,,,,,,2,,,,,,8x,E8,B7,B6,E6,,2x,E3,B3,B4,E5,,1b,,,,,,,,,,,,
{32}2b/8x,3x,4x,5x,6x,7x,8x,1x,2x,3x,4x,5x,6x,7x,8x,1x,C1f/2x,3x,4x,5x,6x,7x,8x,1x,2x,3x,4x,5x,6x,7x,8x,1x,
{32}2x,3x,4x,5x,6x,7x,8x,1x,2x,3x,4x,5x,6x,7x,8x,1x,2x,3x,4x,5x,6x,7x,8x,1x,2b,,,,,,,,
{8}3x/7x-4[8:1],,2x/7x,1x-5[8:1],,1x/8x,7,6,
{8}2x-5[8:1]/5x,,1x/2x,8x-4[8:1],,1x/8x,1b,,
{32}2x/7b,6x,5x,4x,3x,2x,1x,8x,7x,6x,5x,4x,3x,2x,1x,8x,7x,6x,5x,4x,3x,2x,1x,8x,7b,6x,5x,4x,3x,2x,1x,8x,
{32}C1f/7x,6x,5x,4x,3x,2x,1x,8x,7x,6x,5x,4x,3x,2x,1x,8x,7x,6x,5x,4x,3x,2x,1x,8x,7b,,,,,,,,
{8}1x-5[8:1]/5x,,1x/6,7x-3[8:1],,1/7x,1,1,
{16}2-6[8:1],8,4,6,2x,,7,,8-4[8:1],2,6,4,8xw4[16:1],,1,,
{1},
{1},
{1},
E
