&title=Strobe♡Girl
&wholebpm=190
&artist=colate
&des=小鳥遊さん
&shortid=11050
&genre=niconicoボーカロイド
&cabinet=DX
&version=maimai DX
&chartconverter=Neskol
&lv_2=2
&des_2=-
&lv_3=7
&des_3=-
&lv_4=10
&des_4=華火職人
&lv_5=12+
&des_5=小鳥遊さん
&des_6=
&inote_2=
(190){1},
{1},
{1},
{1},
{1},
{1},
{1},
{1},
{1},
{1},
{1}1,
{1}1,
{1}2,
{1}2,
{1}3,
{1}3,
{1}4x/5x,
{1},
{1}4h[1:1],
{1},
{1}5h[1:1],
{1},
{1}4,
{1}5,
{2}4,4,
{1}4x/5x,
{1},
{1}B4,
{1}B5,
{1}B3,
{1}B6,
{1}C1hf[1:2],
{1},
{1},
{1},
{2}1,1,
{1}1,
{2}2,2,
{1}2,
{2}3,3,
{1}3,
{1}4h[1:1]/5h[1:1],
{1},
{2}5,5,
{1}5,
{2}6,6,
{1}6,
{2}7,7,
{1}7,
{1}1-4[4:3]/8-5[4:3],
{1},
{1}B3,
{1}B2,
{1}B1,
{1}B8,
{1}B7,
{1}B6,
{1}C1f,
{1},
{1}1h[1:1],
{1},
{1}8h[1:1],
{1},
{1}1,
{1}2,
{1}3h[1:1],
{1},
{1}4/5,
{1},
{1}4/5,
{1},
{1}B4/B5,
{1}B3/B6,
{1}C1f,
{1},
{1}8h[1:1],
{1},
{2}1,1,
{1}1b,
{2}8,8,
{2}7,7,
{1}6h[1:1],
{1},
{2}5,5,
{1}4/5,
{2}4,4,
{1}4/5,
{2}3,3,
{2}2,2,
{1}1h[1:1],
{1},
{1}1-5[4:3],
{1},
{1},
{1},
E
&inote_3=
(190){1},
{1},
{1}1qq6[4:5],
{1},
{1}8pp3[4:5],
{1},
{1}2pp5[4:5],
{1},
{1}7qq4[4:5],
{1},
{4}3,3,3/4,,
{4}6,6,5/6,,
{4}3,4,5,6,
{4}4/5,4/5,3x/6x,,
{4}7,7,7/8,,
{4}2,2,1/2,,
{1}1-4[2:1]/8-5[2:1],
{1},
{2}B3,C1,
{1}B7,
{2}B6,C1,
{1}B2,
{2}B7,C1,
{1}B3,
{2}B4/B5,B3/B6,
{1}B2/B7,
{1}C1f,
{4}3,4,5<8[16:9],,
{1},
{4}1,2,3<6[16:9],,
{1},
{4}6,6,5,5,
{4}4,4,3,3,
{4}4/5,4/5,3/6,3/6,
{1}2b/7b,
{4}2,1/2,7,7/8,
{4}2,1/2,3/8,,
{4}7,6,5,4,
{4}3,3,2/4,,
{4}6,5,4/7,,
{4}3,4,2/5,,
{4}4/5,3/6,2/7,1-4[2:1]/8-5[2:1],
{1},
{4}6,5/6,3,3/4,
{4}6,5/6,4/7,,
{4}3,2,1,8,
{4}7,7,6/8,,
{4}2,1,3/8,,
{4}7,8,1/6,,
{4}1/8,1/8,2/7,2h[4:3]/7h[4:3],
{1},
{1}1-4[2:1],
{1}8-5[2:1],
{1}2-7[2:1],
{1}6-3[2:1],
{4}2,2,1,1,
{4}8,8,7,7,
{4}6,6,5,5,
{4}4/5,4/5,3b/6b,,
{2}B4,B5,
{1}B3/B6,
{2}B7,B2,
{1}C1f,
{4}7,7,7/8,,
{4}2,2,1/2,,
{1}1pp4[4:5]/8qq5[4:5],
{1},
{1}6h[1:1],
{1}5h[1:1],
{1}4h[1:1],
{1}3h[1:1],
{4}4,4,4,,
{4}5,5,5,,
{4}4/5,4/5,3/6,3/6,
{4}2/7,2/7,1b/8b,,
{8}1x/8x,,,,,,,7-4[2:1]/8-3[2:1],
{1},
{4}2,3,4,5,
{4}6,6,5/7,,
{4}3,4,2/5,,
{4}6,5,4/7,,
{4}4/5,3/6,2/7,1>4[2:1]/8<5[2:1],
{1},
{4}6,5,5/6,,
{4}3,4,3/4,,
{4}6,5,4,3,
{4}4/5,4/5,3x/6x,,
{4}2,1,1/2,,
{4}7,8,7/8,,
{1}1-4[2:1]/8-5[2:1],
{1},
{1}C1xh[4:9],
{1},
{1},
{1},
{1},
E
&inote_4=
(190){1},
{4},,,2b/7b,
{8}3h[8:3],,,4h[8:3],,,5pp3[8:5],,
{1},
{8}6h[8:3],,,5h[8:3],,,4qq6[8:5],,
{1},
{8}2h[8:3],,,4h[8:3],,,5pp3[8:5],,
{1},
{8}7h[8:3],,,5h[8:3],,,4q5[2:1],,
{4},,,2x/7x,
{4}3,2/5,6,4/7,
{4}3,2/5,6,4/7,
{4}8,1/7,2,3/8,
{4}4/7,2/5,3b/6b,,
{4}2,4,3/5,4/6,
{4}7,5,4/6,3/5,
{8}2h[8:3],,,1h[8:3],,,8p4[2:1],,
{1},
{2}E4,B7/B8,
{2}E6,B1/B2,
{2}E4/E6,B3/B6,
{2}B2/B7,E2/E8,
{2}1h[2:1],B7,
{2}8h[2:1],B2,
{2}B4/E6,E2/B8,
{2}B1/E8,E4/B5,
{4}1x,8x,2b/7b,,
{4}2h[4:3],4,4,5,
{4}6h[2:1],5qq3[16:5],,,
{4}7h[4:3],1,1,2,
{4}3h[2:1],4pp6[16:5],,,
{4}3,3,2/4,5,
{4}6,6,5/7,4,
{4}4/5,3/6,1/8,2/7,
{1}C1f,
{4}1/8,5/6,1/8,3/4,
{4}1/8,5/7,1/8,2/4,
{8}7,7,8,,2,2,1,,
{4}1/8,4/5,3b/7b,,
{4}4/6h[4:1],8-4[4:1],,,
{4}3h[4:1]/5,1-5[4:1],,,
{4}2,3p6[4:1]/5,,,
{4}5/6,1/2,3b/7b,,
{4}1/8,3/4,1/8,5/6,
{4}1/8,2/4,1/8,5/7,
{8}3,3,4,,6,6,5,,
{4}1/8,4/5,2b/6b,,
{4}3h[1:1],4,2,1,
{4}8h[4:3],1,7,6,
{8}5h[8:3],,,4h[8:3],,,3>6[2:1],,
{4},,,2x/7x,
{8}2,2,1,,7,7,8,,
{8}3,3,8,8,1,,2b/7b,,
{8}3,3,4,,6,6,5,,
{8}8,8,4,,2b/6b,,,,
{4}2h[4:1],3h[4:1],4h[4:1],8,
{4}7h[4:1],6h[4:1],5h[4:1],1,
{4}2h[4:1],4h[4:1],5h[4:1],7h[4:1],
{4}1h[2:1],8h[4:1],,3b/6b,
{2}4h[2:1],B7,
{2}5h[2:1],B2,
{2}B4/E4/B5/E6,B1/E2/E8/B8,
{1}C1hf[2:1],
{4}7,1,1/7,2/8,
{4}3,1,2/8,1/7,
{8}6h[8:3],,,5h[8:3],,,4>5[8:5],,
{1},
{1}4h[1:2],
{1},
{1}5h[1:2],
{1},
{4}3h[1:1],4,4,5,
{4}6h[1:1],5,5,4,
{4}3,3/5,4/6,4>1[8:3]/5<8[8:3],
{4},,,2b/7b,
{8}4h[2:1]/5h[2:1],,,,,,,5x/6x,
{8},3x/4x,,2x/7x,,1x,1b,,
{4}7/8,4/5,1/2,4/5,
{4}1/7,4/5,1b/8b,,
{4}7h[1:1],8,6,5,
{4}4h[4:3],5,3,2,
{8}1h[8:3],,,8h[8:3],,,7<2[2:1],,
{4},,,1x/8x,
{4}7,1/6,2,3/8,
{4}7,1/6,2,3/8,
{4}3,2/5,6,4/7,
{4}1/8,3/4,2b/6b,,
{4}4/5,2b/7b,8,3/4,
{4}5,1/2,4,7/8,
{8}6h[8:3],,,5h[8:3],,,4>5[8:5],,
{1},
{1}C1xh[1:2],
{1},
{1},
{1},
{1},
E
&inote_5=
(190){1},
{2},4-1[8:1]/5-8[8:1],
{8}3xh[4:1]/8xh[4:1],,,2xh[4:1]/7xh[4:1],,,1xh[4:3]/6x>8[2:1],,
{8},,,,,2,1,8,
{8}4xh[4:1]/7xh[4:1],,,3xh[4:1]/6xh[4:1],,,2xh[4:3]/5xqq7[2:1],,
{4},,,3/8,
{8}1xh[4:1]/6xh[4:1],,,2xh[4:1]/7xh[4:1],,,3x<1[2:1]/8xh[4:3],,
{4},,,4/7,
{8}2xh[4:1]/5xh[4:1],,,3xh[4:1]/6xh[4:1],,,4xh[4:3]/7xpp5[2:1],,
{4},,,2b/7b,
{8}4,5,2/6,3,5,4,3/7,6,
{8}4,5,2/6,3,5,4,3/7,6,
{8}3,3,7,7,1,1<3[8:3],,7h[2:1],
{8},,,8,8b,,2x/6x,,
{8}1,8,3/7,2,8,1,2/6,7,
{8}1,8,3/7,2,8,1,2/6,7,
{8}4xh[4:1]/8xh[4:1],,,3xh[4:1]/5xh[4:1],,,4xpp4[8:5]*qq4[8:5]/7x,,
{1},
{12}5/6,,,4/5,,,3/4,,,3,,3,
{12}5,,5,4,,4,6,,6,5,,,
{12}3/5,,,4/6,,,3,,3,5,,5,
{12}4,,4,6,5,6,5,,,4h[4:1]/7<4[4:1],,,
{12},,,3,,,2x/5x,,,6,,6,
{12}4,,4,5,,5,3,,,2/4,,,
{12}4/6,,6,4,5,4,5,,,3pp4[2:1]*V14[2:1],,,
{1},
{4}B3/E3/E4,B6/E6/E7,1>5[4:1]/8,,
{8}6h[2:1],,,,4,,6,6qq3[8:5],
{8},3,,,,,,2,
{8}2h[2:1],,,,3,,2,2,
{8},1w5[8:3],,,,,,,
{4}6h[4:3],B1,C1,B5,
{4}3h[4:3],B8,C1,B4,
{4}B1/B2,B7/B8,B5/B6,B3/B4,
{16}2,,2,,5,,5,,3,4,3,,1b/6b,,,,
{8}1x/2x-5[8:1],,8,,7-3[8:1]/8,,2,2h[4:1],
{8},4>6[4:1],,1h[4:1],,,,3/8,
{8}3<6[4:1]/8,,6<1[4:1],,1>4[4:1],,7,7h[4:1],
{8},6,5,4h[4:1],,5,6,7,
{8}7/8,6,7/8,1,7-4[8:1]/8-4[8:1],,,,
{8}1/2,3,1/2,8,1-5[8:1]/2-5[8:1],,,,
{8}3x/7x,,4/6,5,4,3,2,1-5[8:1],
{8},6<3[16:3],,1,,,2b/7b,,
{8}7x-4[8:1]/8x,,1,,1/2-6[8:1],,7,7h[4:1],
{8},5<3[4:1],,8h[4:1],,,,1/6,
{8}1/6>3[4:1],,3>8[4:1],,8<5[4:1],,2,2h[4:1],
{8},3,4,5h[4:1],,4,3,2,
{8}1/6,,3x/8x-3[8:1],,2-5[8:1],,7,7qq4[2:1],
{8},8,,1,,2,,1x/2x,
{8}3b-5[8:1],,6x,7b-3[8:1],,3x,2bz6[2:1],,
{4},,,4/5,
{8}2,2,3/5,2,7,7,4/6,7,
{8}1,1,8,8,3h[8:1],4h[8:1],5h[8:1],6,
{16},,1,8,1,,7,,4,,4,,5,,5,,
{8}2,1,8,7,5/6,7,3/4,2,
{8}7-5[8:1],7,1-3[8:1],1,8-4[8:1],8,1-3[8:1],1,
{8}8-6[8:1],8,2-4[8:1],2,1-5[8:1],1,2,,
{16}3,4,3,,8,,8,,6,5,6,,1,,1,,
{16}2h[8:1],,4h[8:1],,5h[8:1],,7,,1,8,1,,2b/7b,,,,
{8}3h[8:3]/6,,,4,2/5h[8:7],,,,
{16}4,,,4,,,4,,3/6,,,,4/5,,,,
{8}3/6h[8:3],,,5,4h[8:7]/7,,,,
{16}5,,,5,,,5,,3/6,,,,1x/8x,,,,
{8}5/7,4,5/7,8,5-2[8:1]/7-4[8:1],,,,
{8}2/4,5,2/4,1,2-5[8:1]/4-7[8:1],,,,
{8}5xh[4:1]/7xh[4:1],,,2xh[4:1]/4xh[4:1],,,3xqq5[4:3]/6xpp4[4:3],,
{1},
{1}C1xh[2:7]/1x>8[4:13],
{1},
{1},
{4},,,2b/7b,
{4}3h[1:1],E5,C1,E1,
{4}6h[1:1],E5,C1,E1,
{4}3h[2:1],C1,6h[2:1],C1,
{16}3,,3,,6,,6,,1,8,1,8,1,8,1,,
{8}2xh[2:1]/7xh[2:1],,,,,,3x/4x,2x-5[8:1]/5x,
{8},2x/7x-4[8:1],,3x/7x,,1/8,2b/7b,,
{8}3x>8[4:1]/4x,,8<5[4:1],,5>2[4:1],,7,7h[4:1],
{8},6,5,4h[4:1],,5,6,7,
{8}4/8,,1x-6[8:1]/6x,,7-4[8:1],,3,3qq8[2:1],
{8},5,,6,,7,,5x/6x,
{8}7b-4[8:1],,3x,2b-6[8:1],,6x,7bs3[2:1],,
{4},,,2b/7b,
{8}5,4,3/7,6,4,5,2/6,3,
{8}5,4,3/7,6,4,5,2/6,3,
{8}6,6,2,2,8,8>6[8:3],,2h[2:1],
{8},,,1,1b,,3x/7x,,
{8}4w8[8:1]/5,,4x,,1,8,3/7,2,
{8}8,1,2/6,7,1,8,3/7,2,
{8}1xh[4:1]/5xh[4:1],,,4xh[4:1]/6xh[4:1],,,3xqq4[8:5]/5xpp4[8:5],,
{1},
{1}C1xh[1:2]/B2/B3/B6/B7,
{1},
{1},
{1},
{1},
E
