&title=Soul-ride ON!
&wholebpm=146
&artist=アギラ・キングジョー・ガッツ星人(CV:飯田里穂・三森すずこ・松田利冴)
&des=小鳥遊さん
&shortid=11072
&genre=POPSアニメ
&cabinet=DX
&version=maimai DX
&chartconverter=Neskol
&lv_2=3
&des_2=-
&lv_3=6
&des_3=-
&lv_4=9
&des_4=華火職人
&lv_5=11+
&des_5=小鳥遊さん
&des_6=
&inote_2=
(146){1},
{1},
{1},
{1},
{1}1/8,
{1}1/8,
{2}1,8,
{1}1b/8b,
{2}1,1,
{2}2,2,
{2}3,3,
{1}4x/5x,
{2}5,5,
{2}6,6,
{1}7h[2:1],
{2}8,8,
{2}1,8,
{1}1h[8:3]/8h[8:3],
{1}1-4[4:3],
{1},
{1}5-8[4:3],
{1},
{2}1,1,
{2}8,8,
{2}7,7,
{1}6h[2:1],
{2}5,5,
{2}4,4,
{2}3,3,
{1}2h[2:1],
{1}B1,
{1}B2,
{1}B3,
{1}B4,
{1}B5,
{1}B6,
{1}B7,
{1}B8,
{1}C1hf[1:2],
{1},
{1},
{4}1,1,1,,
{4}2,2,2,,
{2}3/4,5/6,
{1}4h[8:3]/5h[8:3],
{4}5,5,5,,
{4}6,6,6,,
{2}7/8,1/2,
{1}1h[8:3]/8h[8:3],
{2}2/8,1/7,
{1}1h[8:3]/8h[8:3],
{2}1,1,
{2}8,8,
{4}1,1,8,8,
{1}2h[8:3]/7h[8:3],
{2}3,4,
{2}5,6,
{1}7h[2:1],
{1}8h[2:1],
{1}1-5[4:7],
{1},
{1},
{1},
{1},
E
&inote_3=
(146){1},
{2}6h[2:1],5h[2:1],
{2}4h[2:1],3,
{4}2,2,1,1,
{1}2-5[8:3]/8-5[8:3],
{1}1-4[8:3]/7-4[8:3],
{1}2-5[8:3]/8-5[8:3],
{1}2h[2:1]/7h[2:1],
{4}7,7,7/8,,
{4}2,2,1/2,,
{4}3,3,4,4,
{1}4-1[8:3]/5-8[8:3],
{4}7,7,7/8,,
{4}1,1,2/8,,
{4}3,4,5,6,
{4}7,1/8,2x/7x,,
{2}1x/6x,3x/8x,
{1}2b/7b,
{4}1,2,3,4,
{4}5,6,7x/8x,,
{4}6,5,4,3,
{4}2,1x/8x,2b/7b,,
{4}6h[2:1],,5,4,
{4}3h[2:1],,4,5,
{4}6h[2:1],,5,5,
{4}4,3,2x/4x,,
{4}3h[2:1],,4,5,
{4}6h[2:1],,5,4,
{4}3,3,2,2,
{4}1,1/8,2x/7x,,
{1}7-4[8:3],
{1}3-8[8:3],
{1}7<4[8:3],
{4}3,3,3x,,
{2}B2,C1,
{1}B6,
{2}B7,C1,
{2}B3,B2,
{2}C1,B6,
{1}C1hf[1:1],
{1},
{4}7,7/8,7,7/8,
{4}2,1/2,3/8,,
{4}3h[4:1],4,6h[4:1],5,
{1}4-1[8:3]/5-8[8:3],
{4}7,7/8,2,1/2,
{4}3,3/4,2/5,,
{4}3h[4:1],4,6h[4:1],5,
{4}4/5,3/6,2x/7x,,
{1}1-4[8:3]/7-4[8:3],
{1}2-5[8:3]/8-5[8:3],
{4}7,7,7/8,7/8,
{4}2,2,1/2,1/2,
{2}3x/8x,1x/6x,
{1}2b/7b,
{2}B7,B5,
{1}B3,
{2}E5,B4/B5,
{2}B3/B6,B2/B7,
{1}C1xh[1:2],
{1},
{1},
{1},
{1},
E
&inote_4=
(146){1},
{4}E3,E2,E1,E8,
{4}E7,E6,E5,E4,
{4}B2/B7,C1hf[8:3],,,
{16}1x/8x,,,1x/8x,,,2/7,,2/7,,,,4b,,,,
{16}5x/6x,,,5x/6x,,,4/7,,4/7,,,,8b,,,,
{16}3x/4x,,,3x/4x,,,2/5,,2/5,,,,2b/7b,,,,
{16}4x/5x,,,4x/5x,,,3x/6x,,,,,,1b/8b,,,,
{16}2/4,,,2/4,,,,,5/7,,,5/7,,,,,
{4}5/6,7/8,1/2,3/4,
{2}4/5-8[8:1],1-4[8:1]/8,
{16}4x/5x,,,4x/5x,,,2/7,,,,,,1b/8b,,,,
{8}3,3,4,2,6,6,5,7,
{16}1x/7x,,,2x/8x,,,3/6,,3b/6b,,,,8qq4[2:1],,,,
{8},,,,,1,1>4[4:1],,
{8},,,5h[8:3],,,1b,,
{16}1x/2x,,,3x/8x,,,,,7x/8x,,,1x/6x,,,,,
{16}4/5,,,4/5,,,2h[8:3]/7,,,,,,1b,,,,
{8}3/4,,4/5,,6,5,6qq3[2:1],,
{4},,,1b,
{8}5/6,,4/5,,3,4,2p7[2:1],,
{4},,,4/5,
{4}E4,E3,E2,E1/B7,
{4}E8,E7,E6,B3/E5,
{2}5xh[4:1]/6xh[4:1],3xh[4:1]/4xh[4:1],
{4}E6/E7,E3/E4,C1/B3/B6,,
{4}E2,E1,E8,B5/E7,
{4}E6,E5,E4,B1/E3,
{2}7xh[16:3]/8xh[16:3],1xh[16:3]/2xh[16:3],
{4}E3/E4,E6/E7,C1f/B3/B6,,
{4}7h[4:1],6h[4:1],5,5/6,
{8}6h[4:1],,4h[4:1],,3,,3<6[4:1]/4,3/4,
{8},,,,7h[8:3],,5,5,
{8},3,4,2,,5/6,5/6,,
{4}1/8,2/4,1/8,5/7,
{8}1/2,,3/8,,4/7,,5/6,5h[4:1]/6h[4:1],
{8},,,2/4,2/4,,1qq6[4:3]/2pp5[4:3],1/2,
{1},
{2}B2/B3/E3/E4/B4,B5/E6/B6/E7/B7,
{1}B1/C1hf[1:1]/B2/B7/B8,
{4},,,1b/8b,
{8}3,3,4,2,6,6,5,7,
{16}1x/7x,,,2x/8x,,,3/6,,3h[4:1]/6h[4:1],,,,,,4/5,,
{2}4-1[8:1]/5,1/8-5[8:1],
{16}4x/5x,,,4x/5x,,,2/7,,,,,,1b/8b,,,,
{8}6,6,5,7,3,3,4,2,
{16}2x/8x,,,1x/7x,,,3/6,,3b/6b,,,,1pp7[16:7],,,,
{8},,,,,5,5<8[4:1],,
{8},,,1h[8:3],,,5b,,
{16}3x/4x,,,2x/5x,,,,,5x/6x,,,4x/7x,,,,,
{16}1/8,,,1/8,,,2b/7b,,,,,,7<2[16:7]/8p1[16:7],,,,
{8},,,,,1/2,1<6[4:1]/2>5[4:1],,
{8},,,5h[4:1]/6h[4:1],,,4/7,,
{16}1b/2b,,,3b/8b,,,,,7b/8b,,,1b/6b,,,,,
{16}4/5,,,3/6,,,2b/7b,,,,,,,,,,
{4}6h[4:1],8h[4:1],1h[4:1],3,
{4}2h[4:1],4h[4:1],5h[4:1],7,
{1}C1xh[2:3],
{1},
{4},2<5[2:3]/7>4[2:3],,,
{1},
{1},
{1},
{1},
E
&inote_5=
(146){1},
{12}3/6,,,4,5,4,3h[2:1]/6,,,4,,,
{4}6h[2:1],5,4h[4:1],5s1[8:3],
{8},,,,,4x/8x,2b/6b,,
{16}3xh[8:1]/4xh[8:1],,,2/5,,,3/4,,2/5,,1b,,1b,,,,
{16}5xh[8:1]/6xh[8:1],,,4/7,,,5/6,,4/7,,8b,,8b,,,,
{16}4xh[8:1]/5xh[8:1],,,2/7,,,4/5,,2/7,,,,4qq1[16:7]/8qq5[16:7],,,,
{8},,,,,2,3,4,
{16}5/6,,,4xh[16:3]/7xh[16:3],,,,,3/4,,,2xh[16:3]/5xh[16:3],,,,,
{4}6q3[8:1],2<7[8:1],5,1b/8b,
{2}4-1[8:1]/5-8[8:1],1-4[8:1]/8-5[8:1],
{16}7x/8x,,,4x/5x,,,1xh[4:1]/2xh[4:1],,,,,,3b/8b,,,,
{16}5x/6x,,4,5,3,,1/2,,1x/8x,,7,5,6,,3/4,,
{16}1x/2x,,7,8,6,,4/5,,2b/7b,,,,3>5[8:3]/4,,,,
{8}8h[2:1],,,,,4/8,7,6,
{8}2q6[8:1]/5,,8,8p4[8:1],,2,1b,,
{16}3xh[8:1]/4xh[8:1],,,2xh[8:1]/5xh[8:1],,,1/6,,5xh[8:1]/6xh[8:1],,,4xh[8:1]/7xh[8:1],,,3/8,,
{16}1xh[8:1]/8xh[8:1],,,4xh[8:1]/5xh[8:1],,,C1f/B2/B3/B6/B7,,,,,,1b/8b,,,,
{8}3,4,6,5,3,2,1,8,
{16}7h[16:3],,,6h[16:3],,,5,,4-1[8:1]*-7[8:1]/5,,,,4,,,,
{8}6,5,3,4,6,7,8,1,
{16}2h[16:3],,,3h[16:3],,,4,,4/5,,,,1b/8b,,,,
{4}5/6h[4:3],E3,C1,E7,
{4}3h[4:3]/4,E5,C1,E1,
{16}2h[16:3],,,3h[16:3],,,4,,7h[16:3],,,6h[16:3],,,5,,
{4}3/5,4/6,2b/7b,,
{4}3h[4:3]/4,B6/B7,C1,B2/B3,
{4}5/6h[4:3],B4/B5,C1,B1/B8,
{16}7h[16:3],,,6h[16:3],,,5,,2h[16:3],,,3h[16:3],,,4,,
{4}4/6,3/5,C1f/E3/E7,,
{8}7<4[4:1]/8,,,3,3,,E3/B3/B4,,
{8}1/2>5[4:1],,,6,6,,B5/B6/E7,,
{8}7<4[4:1]/8,,,3,3,,B1,B8,
{8},B4/B5,,C1xh[8:3]/E3/E7,,,,,
{8}2,,3/4,,4,5,3/6,,
{8}7,,5/6,,5,4,3,2h[8:3]/5h[8:3],
{8},,,3,4,5,6,2<5[2:1]/7>4[2:1],
{8},,,,,,,4v5[4:1],
{8}4,,,6q3[4:1],6,,,2<3[8:5],
{1}2,
{16}1x/2x,,,4x/5x,,,7xh[4:1]/8xh[4:1],,,,,,1b/6b,,,,
{16}3x/4x,,5,4,6,,7/8,,1x/8x,,2,4,3,,5/6,,
{16}7x/8x,,2,1,3,,4/5,,3bp6[8:1]/7b>2[8:1],,,,,,,,
{8}4-1[8:1],4,8-5[8:1],8,3,2,1,8,
{16}5x/7x,,,2x/4x,,,C1f/B2/B3/B6/B7,,,,,,1b/8b,,,,
{16}1x/2x,,7,8,6,,4/5,,3x/4x,,2,8,1,,7/8,,
{16}5x/6x,,3,4,2,,1/8,,2b/7b,,,,5/6<4[8:3],,,,
{8}1h[2:1],,,,,1/5,2,3,
{8}4/7p3[8:1],,1,1q5[8:1],,7,8b,,
{16}5xh[8:1]/6xh[8:1],,,4xh[8:1]/7xh[8:1],,,3/8,,3xh[8:1]/4xh[8:1],,,2xh[8:1]/5xh[8:1],,,1/6,,
{16}1xh[8:1]/8xh[8:1],,,4xh[8:1]/5xh[8:1],,,2b/7b,,,,,,1<2[2:1]/5,,,,
{8}8h[2:1],,,,,1/7,6,5,
{8}3/4-8[8:1],,5,5-1[8:1],,8,6b,,
{16}7xh[8:1]/8xh[8:1],,,3xh[8:1]/4xh[8:1],,,2/5,,1xh[8:1]/2xh[8:1],,,5xh[8:1]/6xh[8:1],,,4/7,,
{16}3xh[8:1]/8xh[8:1],,,1xh[8:1]/6xh[8:1],,,C1f/B2/B3/B6/B7,,,,,,,,,,
{12}3/6,,,5,4,5,3/6h[4:1],,,7h[4:1],,,
{4}6h[4:1],5h[4:1],4h[4:1],3>4[1:1],
{1},
{2}8h[1:1],C1xh[2:1],
{4},2p2[2:3]/6p6[2:3],,,
{1},
{1},
{1},
{1},
E
