&title=Secret Sleuth
&wholebpm=288
&artist=島爺×蜂屋ななし
&des=某S氏
&shortid=11002
&genre=maimai
&cabinet=DX
&version=maimai DX
&chartconverter=Neskol
&lv_2=2
&des_2=-
&lv_3=7
&des_3=-
&lv_4=10+
&des_4=Jack
&lv_5=12+
&des_5=某S氏
&lv_6=13+
&des_6=はっぴー
&inote_2=
(288){1},
{1},
{1},
{1},
{1},
{1},
{1},
{1},
{1},
{1},
{1},
{1},
{1}1,
{1},
{1}1,
{1},
{1}2,
{1},
{1}2x,
{1},
{1}3,
{1},
{1}3,
{1},
{1}4,
{1},
{1}4b,
{1},
{1}5,
{1}5,
{1}5,
{1},
{1}4,
{1}4,
{1}4/5,
{1},
{1}6,
{1}6,
{1}6,
{1},
{1}7,
{1}7,
{1}7,
{1},
{1}8-5[4:7],
{1},
{1},
{1},
{1}1-4[4:7],
{1},
{1},
{1},
{1}B6,
{1},
{1}E5,
{1},
{1}B3,
{1},
{1}C1f,
{1},
{1}8,
{1}8,
{2}8,8,
{1}8,
{1}7,
{1}7,
{2}7,7,
{1}7,
{1}6,
{1}6,
{2}6,6,
{1}6,
{1}5h[1:2],
{1},
{1},
{1},
{1}4,
{1}4,
{1}4,
{1},
{1}5,
{1}5,
{1}5x,
{1},
{1}4,
{1}3,
{1}4,
{1},
{1}5,
{1}6,
{1}5x,
{1},
{1}E4,
{1},
{1}E3,
{1},
{1}E2,
{1},
{1}E1,
{1},
{1}E8,
{1},
{1}B6,
{1},
{1}C1hf[1:2],
{1},
{1},
{1},
{1}8h[1:2],
{1},
{1},
{1},
{1}1h[1:2],
{1},
{1},
{1},
{1}1/8,
{1}1/8,
{1}2/7,
{1},
{1}C1hf[1:2],
{1},
{1},
{1},
{2}6,6,
{1}6,
{2}7,7,
{1}7,
{2}8,8,
{1}8,
{2}1/8,1/8,
{1}1x/8x,
{2}2,2,
{1}2,
{2}3,3,
{1}3,
{1}4/5,
{1}4/5,
{1}3x/6x,
{1},
{1}7-3[4:7],
{1},
{1},
{1},
{1}2-6[4:7],
{1},
{1},
{1},
{1}B4/B5,
{1},
{1}B3/B6,
{1},
{1}E3/E7,
{1},
{1}C1hf[1:2],
{1},
{1},
{1},
{1},
E
&inote_3=
(288){1},
{1},
{1},
{1},
{1},
{1},
{1},
{1},
{1},
{1},
{1},
{1},
{2}3,4,
{1}3/4,
{2}6,5,
{1}5/6,
{2}3,4,
{2}6,5,
{2}4/5,4/5,
{1}3/6,
{2}7,8,
{1}7/8,
{2}2,1,
{1}1/2,
{2}7,8,
{2}2,1,
{2}1/8,1/8,
{1}2x/7x,
{2}B2,C1,
{1}B6,
{2}B7,C1,
{1}B3,
{1}E4/E6,
{1}E3/E7,
{1}E2/E8,
{1}C1,
{2}B3,C1,
{1}B7,
{2}B6,C1,
{1}B2,
{1}B5/B6,
{1}B3/B4,
{1}B2/B7,
{1}C1f,
{1}8-5[4:5],
{1},
{1}4-1[4:5],
{1},
{1}7-2[4:5],
{1},
{1}3-6[4:5],
{1},
{1}7h[1:1],
{1}6h[1:1],
{1}5h[1:1],
{1}4,
{1}3h[1:1],
{1}2h[1:1],
{1}1h[1:1],
{1}8b,
{2}1/2,3/8,
{2}7/8,1/6,
{2}1/8,2/7,
{1}3b/6b,
{2}4,5,
{2}6,7,
{2}8,1,
{1}2x/7x,
{2}5/6,4/7,
{2}3/4,2/5,
{2}4/5,3/6,
{1}2b/7b,
{2}8,1,
{2}2,3,
{2}4,5,
{1}3x/6x,
{2}B4,B5,
{1}B3/B6,
{2}B2,B7,
{1}C1,
{1}B7/B8,
{1}B1/B2,
{1}B3/B4,
{1}B5/B6,
{2}3h[1:1],4,
{1}4,
{2}6h[1:1],5,
{1}5,
{1}4h[2:1]/5h[2:1],
{1}3x/6x,
{1}C1hf[1:1],
{1},
{1}1pp6[4:11],
{1},
{1},
{1},
{1}5pp2[4:11],
{1},
{1},
{1},
{1}3pp8[4:11],
{1},
{1},
{1},
{1}7pp4[4:11],
{1},
{1},
{1},
{1}3h[1:2],
{1},
{1}4h[1:2],
{1},
{1}5h[1:2],
{1},
{1}6h[1:1],
{1}5,
{2}6,6,
{1}5,
{2}3,3,
{1}4,
{2}4/5,4/5,
{2}3/6,3/6,
{2}2/7,2/7,
{1}1b/8b,
{2}1/2,3/8,
{2}7/8,1/6,
{2}1/8,2/7,
{1}3b/6b,
{2}1,2,
{2}3,4,
{4}5,5,5,,
{1}4x/6x,
{2}5/6,4/7,
{2}3/4,2/5,
{2}4/5,3/6,
{1}2b/7b,
{2}5,6,
{2}7,8,
{1}1-4[4:5]/8-5[4:5],
{1},
{2}7,8,
{1}7/8,
{2}2,1,
{1}1/2,
{2}7,8,
{2}2,1,
{2}1/8,1/8,
{1}2/7,
{2}3,4,
{1}3/4,
{2}6,5,
{1}5/6,
{2}3,4,
{2}6,5,
{2}4/5,4/5,
{1}3x/6x,
{1}C1f,
{1},
{1},
{1},
E
&inote_4=
(288){1},
{1},
{1},
{1},
{2}1h[2:1],2h[2:1],
{1}3<6[2:1],
{2}8h[2:1],7h[2:1],
{1}6>3[2:1],
{2}1h[2:1],2h[2:1],
{1}3<6[2:1],
{8},2x/7x,,,,,,,
{4}1,2,3,4,
{2}5/6,2/8,
{4}3,4,2/5,,
{2}3/4,1/7,
{4}6,5,4/7,,
{2}6<1[2:1],4,
{2}3>8[2:1],5,
{4}6,6,3,3,
{1}4>1[2:1]/5<8[2:1],
{2}1/8,2/4,
{4}7,8,1/6,,
{2}1/8,5/7,
{4}2,1,3/8,,
{2}1/7<4[2:1],3,
{2}2>5[2:1]/8,6,
{4}7,7,4,4,
{4}5,5,4/6,,
{4}3,4,3/5,,
{4}5,4-2[4:1]/6,,,
{4}4,5,4/6,,
{4}4,3/5-7[4:1],,,
{4}5,4,2,3,
{4}8,7,4/6,,
{2}5-8[4:1],4-1[4:1],
{2}5-8[4:1],1x,
{4}4,5,3,4,
{4}5/7,5-3[4:1]/7,,,
{4}5,4,6,5,
{4}2/4,2/4-6[4:1],,,
{4}4,5h[2:1],,3,
{4}2/4,5,4,3,
{2}2/4h[2:1],5h[2:1],
{2}7h[2:1],2b,
{2}4h[1:1],B2/B3,
{2}5h[1:1],B6/B7,
{2}E4,E5,
{2}E6,3/6,
{2}6>3[2:1],1,
{2}2q6[2:1],8,
{2}5h[2:1]/7,4h[2:1],
{2}2h[2:1],7,
{2}5h[1:1],B6/B7,
{2}4h[1:1],B2/B3,
{2}E6,E5,
{4}E4,,4,4,
{4}3h[2:1],,5,5,
{4}6h[2:1],,3,3,
{2}4xh[4:1]/5xh[4:1],3xh[4:1]/6xh[4:1],
{2}2xh[4:1]/7xh[4:1],4b/5b,
{4}2x,1,3/8,7x,
{4}8,1/6,2,3/4,
{4}5,3/4,2,3/4,
{4}5,3-1[4:1]/4-8[4:1],,,
{8}7h[8:3],,,6h[8:3],,,5,,
{8}2h[8:3],,,3h[8:3],,,4,,
{4}4/5,3/6,2/7,1/8<5[4:1],
{4},4h[2:1],,8b,
{4}7x,8,1/6,2x,
{4}1,3/8,7,5/6,
{4}4,5/6,7,5h[4:1]/6h[4:1],
{4},2h[4:1]/4h[4:1],,3/7,
{4},4,5,4,
{8}2h[8:3]/7,,,3h[8:3],,,4,,
{2}4/5,3/6,
{4}2/7,2/7,4h[4:1]/5h[4:1],,
{4}2,2,3/5,,
{4}7,7,4/6,,
{2}2/5,4/7,
{4}3,4,2/5,,
{2}E6/E7,E2/E3,
{2}E4/E5,E1/E8,
{4}6,6,4,4,
{4}5,5,3/4,,
{4}6,5,4/7,,
{4}7,8,1/6,,
{4}2,1,3/8,,
{4}6,5,4/7,,
{2}E3/E4,E7/E8,
{2}E5/E6,E1/E2,
{4}3,3,5,5,
{4}4,4,5/6,,
{2}4h[2:1],5,
{4}6,6,5/7,,
{2}6h[2:1],5,
{4}3,4,2/5,,
{2}2h[2:1],3,
{4}6,5,4/7,,
{1}2q4[4:5]/5<2[4:5],
{1},
{2}5h[2:1],4,
{4}3,3,2/4,,
{2}3h[2:1],4,
{4}6,5,4/7,,
{2}7h[2:1],6,
{4}3,4,2/5,,
{2}4/7h[2:1],5h[2:1],
{2}4h[2:1],2h[2:1],
{1}7<4[2:1],
{1}1>4[2:1],
{1}8<5[2:1],
{1}2>5[2:1],
{1}B6/B7/B8,
{1}B1/B2/B3,
{1}E4/E5/E6,
{2}4/5,3/6,
{2}2/7,3/4,
{2}2/7,5/6,
{2}1/8,2/4,
{2}1/8,5/7,
{8}1h[8:3],,,2h[8:3],,,3,,
{8}7h[8:3],,,6h[8:3],,,5,,
{8}3h[8:3],,,4h[8:3],,,5,,
{2}4/5,2b/7b,
{4}7x,8,1/6,2x,
{4}1,3/8,7,5/6,
{4}4,5/6,7,5/6,
{4}4,5-1[4:1]/6-8[4:1],,,
{8}2h[8:3],,,3h[8:3],,,4,,
{8}7h[8:3],,,6h[8:3],,,5,,
{4}4/5,3/6,2/7,1>4[4:1]/8,
{4},5h[2:1],,1b,
{4}2x,1,3/8,7x,
{4}8,1/6,2,3/4,
{4}5,3/4,2,3h[4:1]/4h[4:1],
{4},5h[4:1]/7h[4:1],,2/6,
{4},5,4,5,
{8}2/7h[8:3],,,6h[8:3],,,5,,
{2}4/5,3/6,
{4}2/7,2-5[4:1]/7-4[4:1],,,
{4}2,2,5,5,
{4}3,3,2/4,,
{4}7,7,4,4,
{4}6,6,5/7,,
{2}E3/B4,B5/E7,
{2}B1/E3,E7/B8,
{4}6,6,4,4,
{4}5,5,3,3,
{4},2/5,2h[4:1]/5h[4:1],,
{2}3h[4:1]/4h[4:1],2h[4:1]/5h[4:1],
{4},4/7,4h[4:1]/7h[4:1],,
{2}5h[4:1]/6h[4:1],4h[4:1]/7h[4:1],
{4},4/5,4h[4:1]/5h[4:1],,
{2}3h[4:1]/6h[4:1],2h[4:1]/7h[4:1],
{4}E2,E8,E3,E7,
{4}E4,E6,E1,E5,
{1}2b/6b,
{1},
{1},
{1},
E
&inote_5=
(288){1},
{1},
{1},
{1},
{1}7s3[4:5],
{1}E4,
{1}2z6[4:5],
{1}E6,
{1}7pp4[4:5],
{1}B3,
{1}2-6[4:1],
{4}B7,B2,B5,B4,
{12}6,,,4,,5,3,,,5,,4,
{12}6,,,4,,5,3,,,6,,5,
{12}7,,,3,,4,2,,,6,,5,
{12}7,,,3,,4,2,,,6,,5,
{12}7,,,4,,5,3,,,5,,4,
{12}6,,,3,,4,2,,,5,,4,
{12}6h[12:5],,,5,,5,,,6,5,,,
{2}5/6,B3/B4/E4/B7/E8/B8,
{12}6h[4:1],,,4,,5,3h[4:1],,,5,,4,
{12}6h[4:1],,,4,,5,3h[4:1],,,6,,5,
{12}7h[4:1],,,3,,4,2h[4:1],,,6,,5,
{12}7h[4:1],,,3,,4,2h[4:1],,,6,,5,
{12}7h[4:1],,,4,,5,3h[4:1],,,5,,4,
{12}6h[4:1],,,3,,4,2h[4:1],,,5,,4,
{4}6,6,1/7,1/7,
{4}2,2,3/5,3/5,
{4}4h[4:5],6,,5,
{4},3<6[4:1],1,,
{4}5h[4:5],3,,4,
{4},6>3[4:1],8,,
{4}2h[2:1],4,7h[2:1],5,
{4}4,3<6[4:1],1,,
{4}7,6,5,1,
{12}2,,,3,,3h[3:1],,,,4,,,
{4}3/4,5,3/4,2,
{4}3/4,5-1[8:1],7,,
{4}5/6,4,5/6,7,
{4}5/6,4-8[8:1],2,,
{4}4,4-8[8:1],5,5-1[8:1],
{4}3,3-8[8:1],6,6-1[8:1],
{4}3,3>6[2:1],,,
{2},2b/7b,
{2}2>5[4:1],8,
{2}7<4[4:1],1,
{1}2pp5[4:5]/6pp1[4:5],
{1},
{4}8,7,6,5,
{4}1,2,3,4q6[4:3],
{1}5h[4:3],
{4},2x/7x,,,
{2}7<4[4:1],1,
{2}2>5[4:1],8,
{1}2V83[4:3]/6V47[4:3],
{4},,1,1,
{4}2/8,3/7,4/6,5,
{4}7/8,1/6,2/5,3>8[4:1],
{4}4,5<8[4:1],4,4>1[4:1],
{4}6,7,2b/8b,,
{4}2-5[4:1],E1,7-4[4:1],E1,
{4}2-5[4:1],E1,7-4[4:1],E1,
{4}2-5[4:1],E1,7-4[4:1],E1,
{4}2q5[4:3],8h[2:1],,,
{12}7h[12:5],,,6,,6,,,4,5,,,
{12}2h[12:5],,,1,,1,,,4,5,,,
{4}5/6,1/7,3/4,1/8,
{4}2q6[4:1]/7,8h[2:1],,1,
{4}7-4[4:1],E1,2-5[4:1],E1,
{4}7-4[4:1],E1,2-5[4:1],E1,
{4}7-4[4:1],E1,2-5[4:1],E1,
{4}7p4[4:3],1h[2:1],,,
{4},3/4,2/5,1/6,
{8}7/8h[8:3],,,1h[8:3],,,2qq7[2:3],,
{1},
{1},
{12}6,,5,6,,,5/7,,,4,,,
{12}3,,4,3,,,2h[4:1]/5h[4:1],,,,,,
{12}3,,4,3,,,2/4,,,5,,,
{12}6,,5,6,,,4h[4:1]/7h[4:1],,,,,,
{12}6,,5,6,,,5/7,,,4,,,
{12}3,,4,3,,,2h[4:9]/5,,,,,,
{4}B8,B1,B7,B2,
{4}B6,B3,B5,B4,
{12}6,,5,6-4[8:1],,,1,,,2,,,
{12}3,,4,3-5[8:1],,,8,,,,,,
{12}7,,8,7-4[8:1],,,1,,,2,,,
{12}2,,1,2-5[8:1],,,8,,,,,,
{12}6,,5,6-2[8:1],,,4,,,3,,,
{12}3,,4,3-7[8:1],,,6h[4:9],,,,,,
{4}B1,B8,B2,B7,
{4}B3,B6,B4,B5,
{4}2/4,3,5/7,6qq3[1:1],
{4},,1,1,
{4}2,2-8[8:1],7,7-3[8:1],
{4}4,4-6[8:1],8,,
{4}5/7,6,2/4,3,
{4}7-2[4:1],3-6[4:1],,8,
{1}8pp3[1:1]*qq3[1:1],
{2},B1/E2/B2/B6/B7/E7,
{4}2/4,3,5/7,6>3[4:1],
{4}1,2-7[4:1],6-3[4:1],,
{4}2,2-8[8:1],7,6z2[2:1],
{4}2,1,1,8,
{4}5/7,6,2/4,3,
{4}4h[8:1]/6h[8:1],3h[8:1]/5h[8:1],4h[8:1]/6h[8:1],3h[8:1]/5h[8:1],
{8}6,5,7,4,5,3,4,2,
{4}8,2/7,3/6,4/5,
{1}4h[1:2],
{1},
{1}5h[1:2],
{1},
{2}4,4,
{2}4,4,
{2}5,5,
{4}4,4,5,5,
{12}4,,5,4,,5,4,,5,4,,5,
{12}4,,5,4,,5,4,,5,4,,5,
{12}4,,5,4,,5,4,,5,4,,5,
{12}4,,5,4,,5,4,,,3/6,,,
{12}4,,5,4,,6,2,,7,2,,8,
{16}1,2,3,4,5,6,7,8,1,2,3,4,5,6,7,8,
{4}1x,1x-5[8:1],7x,7x-3[8:1],
{4}1x,1x,2b/8b,,
{4}8-4[4:1],B1,2-5[4:1],B1,
{4}8-4[4:1],B1,2-5[4:1],B1,
{4}8-4[4:1],B1,2-5[4:1],B1,
{4}7pp4[4:3],1h[2:1],,,
{12}2h[12:5],,,3,,3,,,5,4,,,
{12}7h[12:5],,,8,,8,,,5,4,,,
{4}3/4,2/8,5/6,1/7,
{4}2/7p3[4:1],1h[2:1],,8,
{4}1-5[4:1],B8,7-4[4:1],B8,
{4}1-5[4:1],B8,7-4[4:1],B8,
{4}1-5[4:1],B8,7-4[4:1],B8,
{4}2qq5[2:1],8h[2:1],,,
{4},5/6,4/7,3/8,
{8}1h[8:3]/2,,,8h[8:3],,,7pp2[2:3],,
{1},
{1},
{12}3,,4,3,,,6,,5,6,,,
{12}3,,4,3,,,E1/C1f/E7/B7/B8,,,,,,
{12}6,,5,6,,,3,,4,3,,,
{12}6,,5,6,,,B1/E1/C1f/B2/E3,,,,,,
{12}3,,4,3,,,6,,5,6,,,
{12}3,,4,2,,,6,,5,7-4[8:1],,,
{4}2b,3-8[8:1],7b,6-1[8:1],
{4}3b,2-5[8:1],8b,7,
{4}6,6h[4:5],4,4,
{4}5,5,B1/C1,,
{4}3,3h[4:5],5,5,
{4}4,4,C1/B8,,
{4}7,7h[4:3],C1/B1,,
{4}2,2h[2:5],C1/B8,,
{4}B4,B5,B3,B6,
{4}B2,B7,B1,B8,
{1}C1f/B4/B5,
{1},
{1},
{1},
E
&inote_6=
(288){1},
{1},
{1},
{1},
{1},
{1},
{1},
{1},
{1},
{1},
{1},
{4}E2,E3,E4,E5,
{4}4/6,3,3/7,7,
{4}5/7,5/7,4/6,4/6-3[4:1],
{4}2,1-4[4:1],8,7-4[4:1],
{4}3,2-5[4:1],8,8<5[4:1],
{4}4,4>1[4:1],5,5<8[4:1],
{4}1,1>4[4:1],8,8,
{4}4/7,4/7,3/6,3/6,
{4}5,4,3/5,2-7[4:1]/6-3[4:1],
{4}2x/6x,,1,8,
{4}7,7>2[4:1],3,4,
{4}3/5,2/6,1/7,8,
{4}1,2/8,3/7,4/6,
{4}5v7[4:1],2,1v3[4:1],6,
{4}5v7[4:1],2,1v3[4:1],6,
{4}7,7,4/6,4/6,
{4}3/5,3/5,4/6h[4:1],3,
{12}3/6,,4,5,,5,4,,4,5,,5,
{12}3,,3,6,,6,4,,4,5,,5,
{12}4,,4,5,,5,3,,3,6,,6,
{12}5,,5,8,,8,4,,4,6,,6,
{12}4,,4,5,,5,1,,1,4,,4,
{12}3,,3,5,,5,4,,4,6,,6,
{12}5,,5,7,,7,1,,1,8,,8,
{12}3,,3,6,,6,4,,4,5,,5,
{12}4,,4,5,,5,3,,3,6,,6,
{12}4,,4,5,,5,2,,2,5,,5,
{12}4,,4,5,,5,3,,3,7,,7,
{12}4,,4,5,,5,2,,2,6,,6,
{12}5,,5,4,,4,3,,3,2,,2,
{12}1,,1,8,,8,7,,7,6,,6,
{12}5,,5,3,,3,4,,4,5,,5,
{4}4,3/6,3/6,2>8[1:1]/7,
{1}C1f,
{1},
{1}1-4[4:3],
{4},5,5,,
{1}6>3[4:1],
{1}3<6[4:1],
{1}8-5[4:3],
{4},E4,,,
{4}3,3h[4:7],,4,
{4},4,,4,
{4}5,6h[4:7],,5,
{4},5,,5,
{4}4,3,3,4,
{4}5,6,6,5,
{2}4/5,3/6,
{12}4/5,,,3/6,,,2/7,,8x,1x>5[4:1],,,
{4}5x<1[4:1],1x>7[8:3],5x<3[8:3],1x>7[8:3],
{4}5x<3[8:3],1x>7[8:3],5x<3[8:3],1x>7[8:3],
{4}5x<3[8:3],1x>7[8:3],5x<3[8:3],1x>7[8:3],
{4}5x<3[8:3],1x,5x,1x,
{4}6-8[8:1],1,3-1[8:1],8,
{4}5-7[8:1],1,4-2[8:1],8,
{4}8,3/7,2/6,1/5,
{4}4<7[4:1]/8>3[4:1],4x/8x,,8,
{4}8x<4[4:1],4x>8[4:1],8x<2[8:3],4x>6[8:3],
{4}8x<2[8:3],4x>6[8:3],8x<2[8:3],4x>6[8:3],
{4}8x<2[8:3],4x>6[8:3],8x<2[8:3],4x>6[8:3],
{4}8x<2[8:3],4x>6[8:3],8x,4x,
{4}8x,4,3,2q6[4:1],
{12}7,,,,,8<1[6:5],,,,1x,,,
{1},
{12},,,,,,4,5,4,5,,,
{4}3/6h[4:1],4,3h[4:1]/5,5,
{4}4/6h[4:1],4qq5[2:1],7,7,
{4}6,6,3h[4:1]/5,5,
{4}4-2[8:1],6,5-7[8:1],3,
{4}3h[4:1],5,4/6h[4:1],4,
{4}3h[4:1]/5,5,4/6h[4:1],4x-2[8:1],
{4}5x-7[8:1],3x-1[8:1],6x-8[8:1],2x>1[4:3],
{1}7x,
{4}2h[4:1]/5,6,4/7h[4:1],3,
{4}2h[4:1]/5,6qq7[2:1],1,1,
{4}2,2,3/7h[4:1],4,
{4}3>1[8:1],5,6<8[8:1],1,
{4}1,2,3h[4:1]/8,7,
{4}1/6h[4:1],2,3h[4:1]/8,7x-5[8:1],
{4}2x-4[8:1],8x-6[8:1],1x-3[8:1],7x-5[8:1],
{4}2x-4[8:1],8x-6[8:1],1,1b,
{4}2h[8:1]/8h[8:1],2h[8:1]/8h[8:1],1h[8:1]/7h[8:1],1h[8:1]/7h[8:1],
{16}E2,E3,E4,E5,E6,E7,E8,E1,E2,,,,5xh[8:1],,,,
{4}4h[8:1]/6h[8:1],4h[8:1]/6h[8:1],3h[8:1]/5h[8:1],3h[8:1]/5h[8:1],
{8}6x,5,3x,4,7x,6,2x,3,
{4}8h[8:1],1h[8:1]/7h[8:1],3h[8:1]/5h[8:1],2h[8:1]/6h[8:1],
{8}5x,6,4x,3,6x,7,3x,2,
{12}8x,7x,6x,5x,4x,3x,1x,2x,3x,4xq5[8:5],5x,6x,
{1},
{4}1h[8:1]/8h[8:1],1h[8:1]/8h[8:1],2h[8:1]/7h[8:1],2h[8:1]/7h[8:1],
{4}1/8,2/7,B4/E4/B5/E6,2/7,
{4}3h[8:1]/6h[8:1],3h[8:1]/6h[8:1],4h[8:1]/5h[8:1],4h[8:1]/5h[8:1],
{12}3x/6x,,3x/6x,4x/5x,,,3xh[4:1]/6xh[4:1],,,,,,
{4}1h[8:1],2h[8:1]/8h[8:1],4h[8:1]/6h[8:1],3h[8:1]/7h[8:1],
{8}4x,3,5x,6,3x,2,6x,7,
{12}1,8,1,8,1,8,2,7,2,7,2,7,
{12}3,6,3,6,3,6,4,5,4,5,4,5,
{1}C1f,
{1},
{1},
{1},
{1},
{1},
{1},
{4},3/6,3/6,,
{12}4,,4,5,,5,4,,4,5,,5,
{12}4,,4,5,,5,4,,4,5,,5,
{12}4,,4,5,,5,4,,4,5,,5,
{12}4,,4,5,,5,4,,4,5,,5,
{12}3b,,3,6,,6,4,,4,5,,5,
{12}2b,,2,6,,6,4,,4,5,,5,
{12}1b,,1,6,,6,4,,4,5,,5,
{12}4,,4,6,,,3b/7b,,,8x<4[4:1],,,
{4}4b>8[4:1],8x<8[2:1],C1f,8x<8[2:1],
{4}C1f,8x<8[2:1],C1f,8x<8[2:1],
{4}C1f,8x<8[2:1],C1f,8x<8[2:1],
{4}C1f,8x,4x,8x,
{4}3-1[8:1],8,6-8[8:1],1,
{4}4-2[8:1],8,5-7[8:1],1,
{4}1,2/6,3/7,4/8,
{4}1<6[4:1]/5>2[4:1],1x/5x,,1x>5[4:1],
{4}5b<1[4:1],1x>1[2:1],C1f,1x>1[2:1],
{4}C1f,1x>1[2:1],C1f,1x>1[2:1],
{4}C1f,1x>1[2:1],C1f,1x>1[2:1],
{4}C1f,1x,5x,1x,
{4}6x,E6,E5,E4,
{1}C1xh[2:1],
{2}2-4[8:1]/7-5[8:1],1-5[8:1]/8-4[8:1],
{12}1>4[8:1]/8<5[8:1],,,,,,1,8,1,8,,,
{12}3,,3,6,,6,4,,4,5,,5,
{12}3,,3,4,,2,1,,7,8,,6,
{12}5,,5,7,,7,4,,4,6,,6,
{12}5,,7,8,,2,1,,3,4,,4,
{12}3,,3,5,,5,4,,4,6,,6,
{12}5,,5,7,,7,2,,2,6,,6,
{12}5,,5,6,,2,4,,7,5,,1,
{12}4,,8,5,,3,4,,4,2,,2,
{12}7,,,6,5,6,5,,,3,4,3,
{12}4,,,6,5,6,5,,,3,4,3,
{12}4,,,7,5,6,5,,,2,4,3,
{12}4,,,7,5,6,5,,,2,4,3,
{12}4,,,6,5,7,5,,,3,4,2,
{12}4,,,6,5,6,5,,,3,4,3,
{12}4,,7,8,,6,5,,2,1,,3,
{12}4,,,7,5,6,3,4,2,6,5,7,
{1}1b,
{1},
{1},
{1},
E
