&title=Scarlet Wings
&wholebpm=183
&artist=REDALiCE feat. Ayumi Nomiya
&des=シチミヘルツ
&shortid=11019
&genre=maimai
&cabinet=DX
&version=maimai DX
&chartconverter=Neskol
&lv_2=4
&des_2=-
&lv_3=7+
&des_3=-
&lv_4=10
&des_4=華火職人
&lv_5=12+
&des_5=シチミヘルツ
&des_6=
&inote_2=
(183){1},
{1},
{1},
{1},
{1}1,
{1}1,
{1}2,
{1}2,
{1}3,
{1}3,
{1}4h[1:1],
{1},
{1}5,
{1}5,
{2}6,6,
{1}6,
{1}7,
{1}7,
{2}8,8,
{1}8b,
{2}7,7,
{1}7,
{2}6,6,
{1}6,
{2}5,5,
{1}5,
{1}4h[1:1]/5h[1:1],
{1},
{1}E4,
{1}E3,
{1}E2,
{1}E1,
{1}E8,
{1}E7,
{1}E6,
{1}E5,
{1}B4/B5,
{1}B3/B6,
{1}E3/E7,
{1}C1hf[1:1],
{1},
{4}1,1,1,,
{4}2,2,2,,
{4}3,3,3,,
{1}4h[2:1]/5h[2:1],
{4}5,5,5,,
{4}6,6,6,,
{4}7,7,7,,
{2}1/8,1b/8b,
{4}8,8,8,,
{4}7,7,7,,
{4}6,6,6,,
{1}4h[2:1]/5h[2:1],
{4}4,4,4,,
{4}3,3,3,,
{1}2h[2:1],
{4}1x,8x,1b,,
{1},
{1}1-4[4:3],
{1},
{1}8-5[4:3],
{1},
{1}2-5[4:3],
{1},
{1}7-4[4:3],
{1},
{2}1,1,
{1}1,
{2}2,2,
{1}2,
{2}3,3,
{2}4,4,
{1}4h[1:1]/5h[1:1],
{1},
{1},
{1}5h[2:1],
{4}5x,4x,5b,,
{4}6,6,6,,
{4}7,7,7,,
{4}8,8,8,,
{4}1,1,1,,
{2}1/2,1/2,
{4}7/8,7/8,7x/8x,,
{4}7,7,7,,
{4}6,6,6,,
{4}5,5,5,,
{4}4,5,4,,
{4}3,3,3,,
{4}2,2,2,,
{1}1h[2:1]/8h[2:1],
{4}1,8,1,,
{4}1x/8x,1x/8x,2b/7b,,
{1},
{2}1,1,
{4}2,2,2,,
{2}3,3,
{4}4,5,4,,
{2}5,5,
{4}6,6,6,,
{1}7h[2:1],
{4}8x,8x,8b,,
{4}1x,1x,1b,,
{1},
{1},
{1},
E
&inote_3=
(183){1},
{1},
{4}5,5,5xh[8:3],,
{4},4x/5x,3x/6x,,
{4}3,3,4,4,
{4}5,5,4/5,,
{4}6,6,5,5,
{4}4,4,3/5,,
{4}3,3,4,4,
{4}5,5,6,6-2[8:5],
{1},
{4}1/8,1/8,2x/7x,,
{2}3h[2:1],4h[2:1],
{4}5,5,5,,
{2}6h[2:1],5h[2:1],
{4}4,4,3/4,,
{2}2h[2:1],3h[2:1],
{4}4,4,4/5,,
{1}5-1[4:3],
{2},2x/8x,
{2}2h[2:1],1h[2:1],
{4}8,8,8,,
{2}7h[2:1],8h[2:1],
{4}1,1,1/2,,
{2}2h[2:1],1h[2:1],
{4}8,8,7/8,,
{1}1-5[4:3],
{2},4x/6x,
{4}3,3,4,,
{4}6,6,5,,
{4}3,3,4,4,
{4}5,4,4/5,,
{4}7,7,8,,
{4}2,2,1,,
{4}7,7,8,8,
{4}1/8,1/8,2x/7x,,
{1}3xh[8:3]/4xh[8:3],
{1}5xh[8:3]/6xh[8:3],
{4}4xh[8:3]/5xh[8:3],,,3x/6x,
{1}3xV14[1:1]/6xV85[1:1],
{2},3x/6x,
{4}2,2,3,4,
{4}5/6,5/6,4x/7x,,
{4}7,7,6,5,
{4}3/4,3/4,2x/5x,,
{4}6h[4:1],5,4/7,,
{4}3h[4:1],4,2/5,,
{4}1,1,8,8<4[2:1],
{4},,,3,
{4}3x,3,2,1,
{4}7/8,7/8,1/6,,
{4}6,6,7,8,
{4}1/2,1/2,3/8,,
{4}7,7,1/8,1/8,
{4}2,2,1/8,1-5[2:1]/8-4[2:1],
{1},
{4}3/6,3/6,3xh[2:1]/6xh[2:1],,
{1},
{4}E4,B4,B5,,
{4}B7,B6,E6,,
{2}B3/B6,B2/B7,
{1}C1,
{4}E6,B5,B4,,
{4}B2,B3,E4,,
{2}B3/B6,B2/B7,
{1}C1xh[2:1],
{4}E8,B8,B1,,
{4}B3,B2,E2,,
{2}B1/B8,B2/B7,
{1}C1,
{1}E3/B4,
{1}B5/E7,
{1}C1xh[1:2],
{1},
{1},
{2}4h[2:1],5h[2:1],
{4}4,5,3b/6b,,
{4}2,3,4,5,
{4}5/6,4/7,3/8,,
{4}2h[4:1],1,3/8,3/8,
{4}7h[4:1],8,1/6,,
{4}2/8,2/8,1/7,1>5[2:1],
{4},,,6,
{4}6x,5,4,3,
{4}1/2,3/8,4/7,,
{4}3,4,5,6,
{4}7/8,1/6,2/5,,
{4}2,3,4/5,3/6,
{4}7,8,1/8,2-5[8:5]/7-4[8:5],
{1},
{4}3/6,3/6,2xh[4:1]/7xh[4:1],,
{1}2xV48[1:1]/7xV51[1:1],
{2},2b/7b,
{4}3,3/4,6,5/6,
{4}3,3/4,2/5,,
{4}7,7/8,2,1/2,
{4}7,7/8,1/6,,
{4}3,4,3,2/5,
{4}6,5,6,4-1[8:5]/7,
{1},
{4}7/8,1/6,2x/5x,,
{4}3/6,2/7,1x/8x,,
{1},
{1},
{1},
E
&inote_4=
(183){1},
{1},
{1}3h[8:7]/6h[8:7],
{4},,4/5,2x/7x,
{4}3,2/8,4,2/8,
{4}6,1/7,5,1/7,
{4}3,2/8,6,1/7,
{4}4/5,3/6,2x/7x,,
{4}7,4/6,8,4/6,
{8}2,,3/5,,1,,3/5,3xh[1:1]/5x,
{16},6x,,,7x,,,8x,,,1x,,,,2x>7[4:1],,
{2},8b,
{4}B1,C1,B4/E6,,
{4}B8,C1,E4/B5,,
{4}E7,B8,B1,E3,
{4}B4/B5,B3/B6,B2/B7,,
{4}B1,C1,B4/E6,,
{4}B8,C1,E4/B5,,
{1}C1xh[1:1],
{8},,8x,8x-4[4:1],,,,,
{4}B1,C1,B4/E6,,
{4}B8,C1,E4/B5,,
{4}E7,B8,B1,E3,
{4}4/5,3/6,2/7,1/8,
{4}2,3/5,2,3/5,
{4}7,4/6,7,4qq1[8:5]/6pp1[8:5],
{8},,,,,,,8h[8:3],
{8},1x,1x,,3b/6b,,,,
{4}1,2/4,1,2/4,
{4}5,6,7/8,,
{4}8,5/7,8,5/7,
{4}4,3,1/2,,
{4}1,2/4,1,2/4,
{4}8,5/7,8,5/7,
{2}5/6<8[8:1],1/2>4[8:1],
{4}5,4/6,3b/7b,,
{16}3/4,,,3s7[8:3]/4,,,3/4,,,,,,,,,,
{16}5/6,,,5p2[16:7]/6,,,5/6,,,,,,,,,,
{16}1/8,,,1-5[16:5]/8-4[16:5],,,1/8,,,,,,,,,,
{8}3h[4:1]/4h[4:1],,,5h[4:1]/6h[4:1],,,,2x>7[8:3]/7x,
{4},,,1b/8b,
{8}4/5,,1/2,,4/5,,7/8,7/8-4[16:3],
{2},2b/6b,
{8}4/5,,7/8,,4/5,,1/2,1q7[8:3]/2>6[8:3],
{4},,,1/8,
{8}2,,3/4,,7,7,,5/6,
{8},4h[4:1],,3h[4:1],,2,2,,
{2}1/8-4[8:1],1-5[8:1]/8,
{8}3,3,6,6,2b/7b,,,,
{8}4/5,,7/8,,4/5,,1/2,1-5[16:3]/2,
{2},3b/7b,
{8}4/5,,1/2,,4/5,,7/8,7<3[8:3]/8p2[8:3],
{4},,,1/8,
{8}4/5,,6,6h[4:1],,7,7h[4:1],,
{8}8,,1/2,1h[4:1]/2h[4:1],,,,3xh[1:1],
{16},5x,,,5x,,,7x,,,7x,,,,1x<4[4:1],,
{2},1b,
{1}C1,
{2}3h[1:1]/4,B4,
{2}4h[1:1],B4,
{2}5h[1:1],B5,
{2}6h[2:1],B5,
{2}5/6h[1:1],C1,
{2}5h[1:1],C1,
{2}4h[1:1],C1,
{2}3h[2:1],C1,
{4}3/4,3,3/4,3,
{4}3/5,3,3/6,3,
{4}4/6,6,5/6,6,
{4}4/6,6,3/6,6,
{4}4/5,4/5,3/6,3/6,
{4}2/7,2/7,2/7,2/7,
{1}C1xh[1:2],
{1},
{1},
{8}2h[2:1]/7h[2:1],,,,,,5/6,5/6,
{8},3/4,3/4,,2>5[8:1]/7b,,,,
{8}4/6,,1/2,,3/5,,7/8,7q5[8:3]/8>4[8:3],
{4},,,1/8,
{8}7,,5/6,,2,2,,3/4,
{8},5h[4:1],,6h[4:1],,7,7,,
{2}1-5[8:1]/8,1/8-4[8:1],
{8}2,2,7,7,1b/8b,,,,
{8}4/6,,1/2,,3/5,,7/8,7/8-4[16:3],
{2},2b/6b,
{8}3/5,,7/8,,4/6,,1/2,1<5[8:3]/2p4[8:3],
{4},,,1/8,
{8}4/5,,3,3h[4:1],,2,2h[4:1],,
{8}1,,7/8,7h[4:1]/8h[4:1],,,,6xh[1:1],
{16},4x,,,4x,,,2x,,,2x,,,,8x>5[4:1],,
{8},,,,8b,,,3x/4x,
{8},5x/6x,,2b/7b,2z6[1:1]/7b,,,,
{1},
{4}5,1/7,5,1/7,
{4}4,2/8,4,2/8,
{4}6,1/7,3,2/8,
{4}4/5,3/6,2x/7x,,
{4}2,3/5,1,3/5,
{8}7,,4/6,,8,,4/6,4x/6xh[1:1],
{16},3x,,,2x,,,1x,,,8x,,,,7x<2[4:1],,
{8},,,,1b,,,1x/8x,
{8},4x/5x,4x/5x,,2b/7b,,,,
{1},
{1},
{1},
E
&inote_5=
(183){1},
{1},
{8}3/7xh[2:1],,3,,3,,6,2xh[8:3]/6,
{8},6,5,,4/5,3/6,2b/7b,,
{8}1-5[8:1]/8,,7,,6,5,6,4-8[4:1]/7,
{8},8-2[8:1],,7-4[8:1],,7,8,,
{8}1/8,,2x/7x,,2-5[8:1],1,2,8qq2[2:1],
{16},,1,,2,,3,,4,,,,4,5,4,,
{8}3/6-1[8:1],,2,,2,1,2,3/8-4[8:1],
{8},2,,1,,6<5[8:5],6,1x,
{8},,,,,,,4/5,
{8},2/7,1-4[8:1]/8-5[8:1],,1b/8b,,,,
{4}2>5[2:1]/7,,B3,B1,
{4}7h[4:1],C1,E4/B4/B5/E6,1/8,
{4}2/7<4[2:1],,C1,2h[1:1],
{4}E3,E1,C1,E5,
{4}2>5[2:1]/7,,B3,B1,
{4}7h[4:1],C1,E4/B4/B5/E6,1<3[4:3]/8,
{1}7h[4:3],
{16}5,4,5,,3x/6x,,,4,5,,5,,3x/6x,,,,
{4}2/7<4[2:1],,B6,B8,
{4}2h[4:3],E3,C1,E7,
{4}7h[4:3],E6,E4,C1,
{8}1,1,8,8,2,2,7,7,
{16}3,,3,,2x/5x,,,4,5,,5,,3x/6x,,,5,
{16}6,,6,,4x/7x,,,5,4,,4,,3x/6x,,,6,
{16}4,5,4,5,3,6,3,6,2,7,2,7,2,,1x/8x,,
{8},B7/B8/E8,B2/B3/E3,B5/E6/B6,C1f,,,,
{4}7-4[8:1]/8,1,1/2-5[8:1],8,
{4}7-4[8:1]/8,1,7-4[8:1]/8,1,
{4}3<6[4:1],6<1[4:1],1-5[4:1],5-1[4:1],
{8}8,,8,,1x/8x,1x/8x,2x/7x,,
{4}3-8[8:1]/4,5,5/6-1[8:1],4,
{4}3-8[8:1]/4,5,3-8[8:1]/4,5,
{4}6q2[8:1],4,3>7[4:1],7<3[4:1],
{4},,1/8,2x/7x,
{16}1b/2b,,,4b/7b,,,3bV52[4:1]/8bV61[4:1],,,,,,,,,,
{16}7x/8x,,,2x/5x,,,1xV37[4:1]/6xV48[4:1],,,,,,,,,,
{16}1x/2x,,,4x/5x,,,3xV52[4:1]/7xV16[4:1],,,,,,,,,,
{8}1,,2/4,3,,4/8<2[8:3],,C1f,
{4},8x,2b/6b,,
{8}C1f,,E1/E5,,C1f/B2/E3/B3/B6/B7/E7,,1,8-4[8:1],
{8},8,1,,2x/6x,,1/7,2,
{8}3/4b-8[8:1],,2b-6[8:1],,1b<6[8:1],,3,3qq8[2:1],
{8},7,7-4[8:1],,7b,,2x/6x,,
{16}1/7,,6,5,6,,4,,3/4,,2,1,2,,8,,
{16}7/8,,6,5,6,,4,,3/4,,2,,1b/2b-5[4:1],,,,
{8}5-8[4:1],,8-3[4:1],,3,,6<4[8:3],6,
{4},,8,2b/6b,
{8}C1f,,E1/E5,,C1f/B2/E3/B3/B6/E7/B7,,8,1-5[8:1],
{8},1,8,,3x/7x,,2/8,7,
{8}5-1[8:1]/6,,7-3[8:1],,8>3[8:1],,6,6pp1[2:1],
{8},2,2-5[8:1],,2b,,3x/7x,,
{8}5/6h[4:1],,8,1/7,,1/2,3/8,,
{8}3h[4:1]/4,,1,2/8,,2/4,,1/8,
{16},5/7,,,3/5,,,2/8,,,1/6h[4:1],,,,1x,2x,
{16}3x,4x,5x,6x,7x,8x,1x,2x,3xh[2:1]/7xh[2:1],,,,,,,,
{1},
{4}6h[1:1],5,4,3,
{4}2h[1:1],3,4,5,
{2}6>3[2:1],3>8[2:1],
{1}8<5[2:1]*p4[2:1],
{4}2h[1:1],3,4,5,
{4}6h[4:3],5,4,3<2[1:1],
{1}7h[1:1],
{4},6,5,4,
{4}3h[1:1],2,1,8,
{4}7h[4:3],8,1,2,
{2}3<6[2:1],6-2[2:1],
{1}2<7[2:1]*>5[2:1],
{4}5h[4:1]/6h[2:1],,3h[2:1],4,
{4}6,5/6,4,4/5,
{16}3,,3,,6,,6,,4,5,4,5,4,5,4,,
{8},4/6,,2/4,1/8,,2-4[8:1]/7-5[8:1],,
{4},C1,E2/E6,E4/E8,
{8}2h[8:3],,,4,3/4,,7,5/6,
{16},,4,5,4,,4,,4,,4,,2b/7b,,,,
{8}6/8b>3[8:1],,7b-3[8:1]/8,,5b-2[8:1]/7,,7,7qq4[2:1],
{8},3,3-8[8:1],,3b,,2x/6x,,
{16}1/2,,2,4,3,5,4,,5/6,,7,1,8,1,8,,
{16}1/2,,2,4,3,5,4,,5/6,,7,,1b-4[4:1]/8b,,,,
{8}4-7[4:1],,7-2[4:1],,2,,5<3[8:3],5,
{4},,1,3b/7b,
{8}C1f,,E1/E5,,C1f/B2/E3/B3/B6/B7/E7,,1,8-4[8:1],
{8},8,1,,2x/6x,,1/7,2,
{8}1<6[8:1]/3,,1/2-6[8:1],,2/4-7[8:1],,2,2pp5[2:1],
{8},6,6-1[8:1],,6b,,3x/7x,,
{8}3h[4:1]/4,,1,2/8,,4/5,3/6,,
{8}7h[4:1]/8,,5,4/6,,1/8,,1/7,
{16},5/6,,,3/5,,,2/8,,,1/7h[4:1],,,,1x,2x,
{16}3x,4x,5x,6x,7x,8x,1x,2x,3xh[8:3]/7b,,,,,,7x,6x,
{16}5x,4x,3x,2x,1x,8x,7x,6x,1b/5xh[4:3],,,,,,,,
{32}1x,,,,,,,,1x,,,,,,,,1x,2x,3x,4x,5x,6x,7x,8x,1b/5b,,,,,,,,
{8}1/8-4[8:1],,2/8,,3,4,3,2/5-1[4:1],
{8},1-7[8:1],,2-5[8:1],,2,1,,
{8}1/8,,2x/7x,,7-4[8:1],8,7,1pp7[2:1],
{16},,8,,7,,6,,5,,,,5,4,5,,
{8}3-8[8:1]/6,,7,,7,8,7,1-5[8:1]/6,
{8},7,,8,,3>4[8:5],3,8x,
{8},,,,,,,3/7,
{8},2/6,1>4[8:1]/5<8[8:1],,1b/5b,,,1/5,
{16},,4/8,,1-5[8:1]/7-3[8:1],,,,1b/7b,C1f,,,,,,,
{1},
{1},
{1},
E
