&title=MAXRAGE
&wholebpm=222
&artist=EBIMAYO
&des=玉子豆腐
&shortid=11004
&genre=maimai
&cabinet=DX
&version=maimai DX
&chartconverter=Neskol
&lv_2=5
&des_2=-
&lv_3=7+
&des_3=-
&lv_4=11
&des_4=小鳥遊さん
&lv_5=13+
&des_5=玉子豆腐
&lv_6=14
&des_6=サファ太
&inote_2=
(222){1},
{1},
{1},
{1},
{1},
{1},
{1},
{1},
{1},
{1},
{1}4,
{1}4,
{1}3,
{1}3,
{1}2,
{1}2,
{1}1,
{1}1,
{2}8,8,
{1}8,
{2}7,7,
{1}7,
{2}6,6,
{1}6,
{2}5,5,
{1}5b,
{1}B4,
{1}B3,
{1}B2,
{1}B1,
{1}B8,
{1}B7,
{1}B6,
{1}B4/B5,
{1}B3,
{1}B4,
{1}B5,
{1}B6,
{1}C1hf[1:2],
{1},
{1},
{1},
{2}8,8,
{1}8,
{2}7,7,
{1}7,
{2}6,6,
{1}6,
{2}5,5,
{1}4x/5x,
{2}3,3,
{1}3,
{2}2,2,
{1}2,
{2}1,1,
{1}1,
{2}8,8,
{1}1x/8x,
{2}1,1,
{2}1,1,
{1}2xh[1:1],
{1},
{2}3,3,
{2}3,3,
{1}4xh[1:1],
{1},
{4}5,5,5,,
{4}5,5,5,,
{1}6xh[1:1],
{1},
{4}7,7,7,,
{4}7,7,7,,
{1}8xh[1:1],
{1},
{1}8-5[4:3],
{1},
{1}1-4[4:3],
{1},
{1}8-5[4:3],
{1},
{1}1-4[4:3],
{1},
{2}8,8,
{2}7,7,
{2}6,6,
{4}5,5,5,,
{2}4,4,
{2}3,3,
{2}2,2,
{4}1,1,1,,
{1}8h[1:1],
{1},
{1}1h[1:1],
{1},
{1}C1hf[1:2],
{1},
{1},
{1},
{4}1,1,1,,
{4}2,2,2,,
{4}3,3,3,,
{4}4,5,4,,
{4}5,5,5,,
{4}6,6,6,,
{4}7,7,7,,
{4}8,1,8,,
{4}8,8,8,,
{4}7,7,7,,
{4}6,6,6,,
{4}5,4,5,,
{4}4,4,4,,
{4}3,3,3,,
{4}2,2,2,,
{4}1,8,1,,
{4}1,1,1,1,
{1}1x,
{4}8,8,8,8,
{1}8x,
{4}1,1,2,2,
{4}3,3,4,4,
{4}5,5,6,6,
{1}7,
{1}1b/8b,
{1},
{1},
{1},
E
&inote_3=
(222){1},
{1},
{1}3h[1:1],
{2}4,5,
{1}6h[1:1],
{2}5,4,
{1}3h[1:1],
{2}4,4/5,
{1}4h[1:1]/5h[1:1],
{2},3/6,
{1}5h[2:1]/6h[2:1],
{4}6,6,5,,
{1}3h[2:1]/4h[2:1],
{4}3,3,4,,
{1}4h[2:1]/5h[2:1],
{4}4,4,5,,
{1}4h[2:1]/5h[2:1],
{4}5,4,5x,,
{4}2,2,2,,
{4}1,1,1,,
{4}8,8,8,,
{4}7,7,7,,
{4}6,6,5/6,,
{4}3,3,3/4,,
{1}2-6[2:1],
{2},7b/8b,
{4}6,6,5/6,,
{2}4h[4:1]/5h[4:1],4/5,
{4}3,3,3/4,,
{2}4h[4:1]/5h[4:1],4/5,
{4}7,7,7/8,,
{2}1h[4:1]/8h[4:1],1/8,
{4}2,2,1/2,,
{4}1h[4:1]/8h[4:1],,2/7,2x/7x,
{4}3,3,2/4,,
{2}5h[4:1]/6h[4:1],5/6,
{4}6,6,5/7,,
{2}3h[4:1]/4h[4:1],3/4,
{4}2,2,2,,
{4}8,8,8,,
{1}1-5[2:1],
{2},4x/6x,
{2}B6,C1,
{1}B2,
{2}B3,C1,
{1}B7,
{2}B5,C1,
{1}B1,
{1}C1hf[1:1],
{1},
{1}2-6[2:1],
{2},7,
{1}7-3[2:1],
{2},2,
{1}1-5[2:1],
{2},7,
{1}8-4[2:1],
{2},3x/5x,
{4}3,3,4,4,
{2}4/5,3/6,
{2}6h[2:1],5,
{2}3h[2:1],4,
{4}6,6,5,5,
{2}4/5,3/6,
{2}3h[2:1],4,
{1}2h[2:1]/5h[2:1],
{4}2,2,3,3,
{2}4/5,3/6,
{2}7h[2:1],5,
{2}2h[2:1],4,
{4}7,7,6,6,
{2}4/5,3/6,
{4}2,2,1,1,
{4}1/8,1/8,2x/7x,,
{1}3h[1:1],
{1}4h[1:1],
{1}5h[1:1],
{2}6,5/6,
{1}6h[1:1],
{1}5h[1:1],
{1}4h[1:1],
{4}3,3,3,,
{1}5h[2:1]/6h[2:1],
{4}6,6,5,,
{1}3h[2:1]/4h[2:1],
{4}3,3,4,,
{4}7,7,7/8,,
{4}2,2,1/2,,
{4}8,8,1,1,
{2}8h[2:1],1b,
{1}7<4[4:3],
{1},
{1}3>8[4:3],
{1},
{4}7,7,6,6,
{4}5,5,4/5,,
{4}2,2,3,3,
{4}4/5,4/5,3x/6x,,
{4}3,4,5,6,
{4}5/7,5/7,5/7,,
{4}6,5,4,3,
{4}2/4,2/4,2/4,,
{4}2,2,1,1,
{4}2/8,2/8,2/8,,
{4}7,7,8,8,
{4}1/7,1/7,1x/7x,,
{4}3,4/5,6,4/5,
{4}3,3,2/4,,
{4}6,4/5,3,4/5,
{4}6,6,5/7,,
{4}8,8,7,7,
{4}6,6,5/6,,
{4}4,4,3,3,
{4}2,2,1b/2b,,
{4}3,3,4,4,
{4}5,6,4/7,,
{4}6,6,5,5,
{4}4,3,2/5,,
{4}1,1,2/8,,
{4}8,8,1/7,,
{4}4/5,4/5,3/6,,
{2}E5,B3/B6,
{1}C1f,
{1},
{1},
{1},
E
&inote_4=
(222){1},
{1},
{1}4xV25[4:5]/6xV85[4:5],
{1},
{1}1x-4[4:3]*-6[4:3],
{4},,3/5,2/6,
{1}1x-5[4:3]/7x-3[4:3],
{4},,3/5,4/6,
{1}5x-1[8:3]/7x,
{1}2x/4x-8[8:3],
{8}5h[4:1]/6h[4:1],,,5/6,,,4h[4:1]/7h[4:1],,
{8},4/7,,,5/6,,4/7,,
{8}3h[4:1]/4h[4:1],,,3/4,,,2h[4:1]/5h[4:1],,
{8},2/5,,,3/4,,2/5,,
{8}1h[4:1]/8h[4:1],,,1/8,,,2h[4:1]/7h[4:1],,
{8},2/7,,,1/8,,2/7,,
{4}3,3/4,6,5/6,
{4}1,1/8,C1f,,
{4}5/6,5/6,6/7,6/7,
{4}5/6,5/6,4/7,,
{4}3/4,3/4,2/3,2/3,
{4}3/4,3/4,1/8,2b/7b,
{8}5,5,5,,3,3,3,,
{8}7,7,7,,1,1,1,,
{16}2/7,,2/7,,2/7,,,,1,8,1,8,1,8,1,8,
{4}1-5[4:1],,,3b/7b,
{8}4/5,,4/5,,5,5,4,4,
{8}6,6,5,5,7,,5/6,,
{8}3/4,,4/5,,3,3,5,5,
{8}4,4,6,6,,4,5,4,
{8}4/5,,4/5,,4,4,5,5,
{8}3,3,4,4,2,,3/4,,
{8}5/6,,3/4,,5,5,3,3pp1[8:5],
{4},,,8b,
{8}1/8,,1/8,,8,8,1,1,
{8}7,7,8,8,6,,7/8,,
{8}1/2,,1/8,,7,7,1,1,
{8}8,8,2,2,,1/8,,,
{8}7,7,8,8,6,,2/5,,
{8}2,2,1,1,3,,4/7,,
{16}2,,2,,7,,7,,1,8,1,8,1,8,1s5[8:5],8,
{1},
{4}6h[4:1],5,6h[4:1],3,
{4}6h[4:1],5,6h[4:1],4,
{4}6h[4:1],5,6h[4:1],2,
{4}6h[4:1],5,5/6,1/8,
{4}3h[4:1],4,3h[4:1],6,
{4}3h[4:1],4,3h[4:1],5,
{4}3h[4:1],4,3h[4:1],7,
{4}3h[4:1],4,1b,1b/8b,
{4}6h[4:1],B4,6h[4:1],B2,
{4}6h[4:1],B3,6h[4:1],E1,
{4}6h[4:1],B4,6h[4:1],B2,
{4}6h[4:1],B1,5x/6x,,
{4}3h[4:1],B5,3h[4:1],B7,
{4}3h[4:1],C1,3h[4:1],E1,
{4}3h[4:1],B5,3h[4:1],B7,
{4}3h[4:1],C1,1b,1b,
{8}3/4,,6,5,6,,4/7,,
{8}3,3,,2/4,,1,1,,
{4}E6,B5,B4,E4,
{4}E8,B8,B2/B3/E4,,
{8}5/6,,3,4,3,,2/5,,
{8}6,6,,5/7,,8,8,,
{4}E4,B4,B5,E6,
{1}C1xh[2:1],
{8}1/2,,7,8,7,,1/6,,
{8}2,2,,1/3,,4,4,,
{4}E3,B3,B4,E5,
{4}E7,B7,E1/B1/B2,,
{8}7/8,,2,1,2,,3/8,,
{8}7,7,,6/8,,5,5,,
{8}4,4,5,5,3,3,6,6,
{16}2,,2,,7,,7,,1,8,1,8,1,8,1,8,
{1}1b>8[4:7],
{1},
{1},
{1},
{1}3h[1:1],
{1}4h[1:1],
{1}5h[1:1],
{4}6h[2:1],,5,4/5,
{4}3h[1:1],4,4,4,
{4}5h[1:1],4,4,4,
{4}4h[1:1],5,5,5,
{4}6h[1:1],5,5,5,
{4}3h[4:1],4,6h[4:1],5,
{4}2h[4:1],3,7h[4:1],6,
{4}2h[4:1],1,7h[4:1],8,
{8}1,1,7,7,3,3,5b,,
{1}4x>5[4:5]/5x,
{1},
{1}4x/5x<4[4:5],
{1},
{4}2/4,3,5/7,6,
{4}2/4,1,5/7,8,
{8}2,2,7,7,1/8,1/8,1/8,,
{4}C1f/B4/B5,,,1b/8b,
{2}5x-1[8:1]/7x,2/4-8[8:1],
{4}1/2,3/4,5/6,7/8,
{8}3,3,2/4,,6,6,5/7,,
{8}1/8,,7,7,6/8,,3x/7x,,
{2}2x/4x-8[8:1],5-1[8:1]/7,
{4}7/8,5/6,3/4,1/2,
{8}6,6,5/7,,3,3,2/4,,
{4}7/8,1/2,1h[4:1]/8h[4:1],,
{8}1,8x,1,8x,1,7x,1,7x,
{8}1,5x,1,5x,1,6x,1,6x,
{8}1,7x,1,6x,1,5x,1,4x,
{8}1,6x,1,,1b/5b,,3b/7b,,
{8}8,1x,8,1x,8,3x,8,3x,
{8}8,5x,8,3x,8,4x,8,,
{8}1b/8b,,3x/6x,,1/2,1x/2x,,7/8,
{8}7x/8x,,1x/8x,1x/8x,1x/8x,,2b/7b,,
{4}5/6,6/7,5/6,7/8,
{4}5/6,6/7,5/6,3b/7b,
{4}3/4,2/3,3/4,1/2,
{8}3/4,,2/3,,8b,8b,8b,,
{8}4,4,5,5,3,3,6,6,
{8}2,2,7,7,1,1,8,8,
{16}2,7,2,7,2,7,2,7,1,8,1,8,1,8,1,8,
{1}1s5[2:1],
{1}C1f/E3/E7,
{1},
{1},
{1},
E
&inote_5=
(222){1},
{1},
{1}2x/7x>2[2:1],
{1}3x<6[2:1]/6x,
{1}3x/6x<3[2:1],
{1}2x>7[2:1]/7x,
{1}4x/7x>4[2:1],
{1}1x>6[2:1]/6x,
{1}6h[2:1]/8x>5[2:1],
{1}1x<4[2:1]/3h[2:1],
{8}7h[4:1]/8h[4:1],,,1h[4:1]/7h[4:1],,,2h[4:1]/7h[4:1],,
{8},3h[4:1]/7h[4:1],,,4/7,,2/5,,
{8}1h[4:1]/2h[4:1],,,2h[4:1]/8h[4:1],,,2/7,2/7,
{8},2h[4:1]/6h[4:1],,,3/5,,4/6,,
{8}7h[4:1]/8h[4:1],,,1h[4:1]/7h[4:1],,,2h[4:1]/7h[4:1],,
{8},3h[4:1]/7h[4:1],,,4/7,,2/5,,
{4}1x<5[2:1]/3,3,3,3,
{8}3/4,,2/4,,1x,1x,8x,,
{4}7v4[8:1],8>3[8:1],7v4[8:1],8>3[8:1],
{8}6v3[8:1],,8,,8,1,2/7,,
{4}2v5[8:1],1<6[8:1],2v5[8:1],1<6[8:1],
{8}3v6[8:1],,1,,1,8,2/7,,
{8}8-4[8:1],8,2,2,1-5[8:1],1,7,7,
{8}8<5[8:1],8,2,2,1>4[8:1],1,7,7,
{16}8,1,8,1,8,1,8,1,7,2,7,2,7,2,7,2,
{4}7-3[8:1]*-5[8:1],,2/6,1b/8b,
{16}2-7[8:1]/6-3[8:1],,,,,,,,1/5,,3,4,3,4,3,,
{16}5,4,5,4,5,,2,4,2,4,2,,8,,2,,
{16}3-6[8:1]/7-2[8:1],,,,,,,,4/8,,6,5,6,5,6,,
{16}4,5,4,5,4,,C1,,,,8,,1,,2,,
{16}2-5[8:1]/6-1[8:1],,,,,,,,3/8,,2,1,2,1,2,,
{16}8,1,8,1,8,,3,1,3,1,3,,8,,7,,
{16}3-8[8:1]/7-4[8:1],,,,,,,,1/6,,7,8,7,8,7<2[8:3],,
{4},,,1b/8b,
{16}3-6[8:1]/7-2[8:1],,,,,,,,4/8,,7,5,7,5,7,,
{16}3,5,3,5,3,,8,5,8,5,8,,1,,7,,
{16}2-7[8:1]/6-3[8:1],,,,,,,,1/5,,2,4,2,4,2,,
{16}7,4,7,4,7,,C1,,,,1b/8b,,,,,,
{8}1,1,7,7,3,3,5,5,
{8}4,4,6,6,2,2,7,7,
{16}1,8,1,8,1,8,1,8,1,8,1,8,1,8,1,8V64[16:9]*V24[16:9],
{1},
{8}3/4,,2,,3/4,3,8,,
{8}5/6,,7,,5/6,6,1,,
{8}3/4,,2,,3/4,3,8,,
{8}5/6,6,3,4,1,,2/7,,
{8}5/6,,7,,5/6,6,1,,
{8}3/4,,2,,3/4,3,8,,
{8}5/6,,7,,5/6,6,1,,
{4}5x/6x,3x/5x,5x/7x,2x/5x,
{8}5/6,,1,,5/6,7,1/8,,
{8}3/4,,8,,3/4,2,1/8,,
{8}5/6,,1,,5/6,7,1/8,,
{8}3/4,3,6,5,8,,2/7,,
{4}1-5[8:1]/2,4,4-8[8:1],7,
{4}7-3[8:1],2,2-6[8:1],7,
{4}7-2[8:1],3-6[8:1],8-5[8:1],4-1[8:1],
{4}7-3[8:1],3V15[4:1]*V16[4:1],,,
{8}4/7,,3,2/4,,7/8,1/6,,
{16}E8,E1/E7,E2/E6,E3/E5,E4,,C1,,,,6,,5/7,,,,
{4}6h[4:1],B5/B6,3h[4:1],B3/B4,
{4}7h[4:1],B5/B6,2h[4:1],B3/B4,
{8}2/5,,6,5/7,,1/2,3/8,,
{16}E2,E1/E3,E4/E8,E5/E7,E6,,C1,,,,3,,2/4,,,,
{4}3h[4:1],B3/B4,6h[4:1],B5/B6,
{1}1xv4[2:1]/7xv4[2:1],
{8}3/8,,7,6/8,,3/4,2/5,,
{16}E4,E3/E5,E2/E6,E1/E7,E8,,C1,,,,2,,1/3,,,,
{4}2h[4:1],B1/B2,7h[4:1],B7/B8,
{4}3h[4:1],B1/B2,6h[4:1],B7/B8,
{8}1/6,,2,1/3,,5/6,4/7,,
{16}E6,E5/E7,E4/E8,E1/E3,E2,,C1,,,,7,,6/8,,,,
{8}2,8,4,6,1,7,3,5,
{48}2x,,,,4x,,,,3x,,,,7x,,,,5x,,,,6x,,,,1x,,,8x,,,1x,,,8x,,,1x,,,8x,,,1x,,,8x,,,
{1}1xw5[2:1],
{1}8w4[2:1],
{1}1-5[2:1]/2-4[2:1],
{1}7-5[2:1]/8-4[2:1],
{1}2-7[2:1]/3-6[2:1],
{1}6-3[2:1]/7-2[2:1],
{1}8w4[2:1],
{4}2x,3x,4b,,
{4}E3,B6/E7,E4,E1/B8,
{4}E3,B6/E7,E4,E1/B8,
{4}E7,B3/E3,E6,B1/E1,
{4}E7,B3/E3,E6,B1/E1,
{4}E4/E6,B7/E8,E4/E6,E2/B2,
{4}E4/E6,E1/B7,E4/E6,E1/B2,
{4}E4/B4/B5/E6,E1/E7/B7/B8,B4/E4/B5/E6,B1/E1/B2/E3,
{1}C1hf[2:1],
{2}2b>6[8:3],1,
{2}7b<3[8:3],8,
{2}2b>6[8:3],7b<3[8:3],
{4}1,2,3b/8b,,
{4}4b/5,2/4b,4b/7,1/4b,
{8}4b,8,4b,8,4b,8,4b,8,
{16}4b,8,4b,8,4b,8,4b,8,4b,8,4b,8,4b,8,4b,8,
{4}4-8[8:1],6-2[8:1],1,3b/7b,
{16}1/5-1[8:1],,,,4,,4,,,,2,1,2,,3/8,,
{24}4/7,,,6,,,2/5,,,1,,,1x/6x,,,,3x/8x,,,,,4x,,,
{16}2x-6[8:1]/6x,,,,8,,8,,,,6,5,6,,4/7,,
{24}5x,,,,4x/5x,,,,,3x/6x,,,3x-5[8:1]/6x-8[8:1],,,,,,,,,,,,
{16}4-8[8:1]/7,,,,5,,5,,,,7,8,7,,1/6,,
{24}2/5,,,3,,,4/7,,,8,,,3x/8x,,,,1x/6x,,,,,5x,,,
{8}3x/7x,8,1,2x/6x,1,8,1x-4[8:1]/7x,,
{4}1-6[8:1],1-5[8:1],1,3/7,
{8}2-5[8:1],2,7-3[8:1],7,2-5[8:1],2,7-3[8:1],7,
{8}8-4[8:1],8,7-5[8:1],7,1,2,3/8,,
{8}7-4[8:1],7,2-6[8:1],2,7-4[8:1],7,2-6[8:1],2,
{8}1-5[8:1],1,2-4[8:1],2,8,7,1/6,,
{8}1/2,3,1/2,8,1/2,3,4,5,
{8}7/8,6,7/8,1,7/8,6,5,4,
{8}3/5,6,4/7,3,2/6,7,3/8,2,
{8}1/5,,4/8,4/8,4/8,4/8,4/8,,
{4}7v4[8:1],1>4[8:1],8v5[8:1],2>5[8:1],
{8}1v6[8:1],,4,,4,3,2/6,,
{4}2v5[8:1],8<5[8:1],1v4[8:1],7<4[8:1],
{8}8v3[8:1],,5,,5,6,3/7,,
{8}4-8[8:1],4,6,6,5-1[8:1],5,3,3,
{8}4>1[8:1],4,6,6,5<8[8:1],5,3,3,
{16}4,5,4,5,4,5,4,5,3,6,3,6,3,6,3,6,
{4}3-1[4:1],1v8[4:1],8-6[4:1],6,
{1}5b,
{1},
{1},
{1},
E
&inote_6=
(222){1},
{1},
{1}8b>8[1:1],
{1}8>8[1:1],
{1}8b>8[1:1],
{1}8>8[1:1],
{1}4bq1[4:3],
{1}5p8[4:3],
{1}2b>7[4:3],
{1}2b>7[4:3],
{8}2,,7,2h[4:1],,6,2h[4:1],,
{8}5,2h[4:1],,4,2,,4/5,,
{8}2/7h[4:1],,3,7h[4:1],,4,7h[4:1],,
{8}5,7h[4:1],,6,6/7,,4/5,,
{8}C1f/B3/B6,,1x/8x,1x/8x,,2/7,2/7,,
{8}3/4,3/4,,5/6,5/6,,4/5,,
{2}2xh[4:1]/4xh[4:1],5h[4:1]/7h[4:1],
{8}3h[4:1]/4h[4:1],,,,1x,1x,1x/6x,,
{24}2x,3x,4x,,,,2x,3x,4x,,,,2x,3x,4x,,,,2x,3x,4x,,,,
{24}1x,2x,3x,,,,1x,2x,3x,,,,1x,2x,3x,,,,8x,,,,,,
{24}7x,6x,5x,,,,7x,6x,5x,,,,7x,6x,5x,,,,7x,6x,5x,,,,
{24}8x,7x,6x,,,,8x,7x,6x,,,,8x,7x,6x,,,,1x,,,,,,
{8}2,2,3,3,4,4,5,5,
{8}6,6,7,7,8,8,1,1,
{16}8x,2x,8x,2x,8x,2x,8x,2x,7x,3x,7x,3x,6x,4x,6x,4x,
{4}5x-3[8:1],2x-6[8:1],7x-3[8:1],8b,
{16}1x-5[8:1],,,,5x,,,,4/6,,7,8,7,8,6h[8:1],,
{16}3,4,3,4,2h[8:1],,7,8,7,8,6h[8:1],,2,1,2,1,
{16}3x-6[8:1],,,,8x,,,,5/7,,3,4,3,4,2h[8:1],,
{16}6,5,6,5,7,,1x/8x,,,,2b/6,,2b/6,,3b/5,,
{16}2b-7[8:1]/6-3[8:1],,,,,,,,1x/5x,,2,4,2,4,3h[8:1],,
{16}7,5,7,5,6h[8:1],,2,4,2,4,1h[8:1],,7,8,7,8,
{16}6x-3[8:1],,,,3x,,,,2/4,,1,8,1,8,1,,
{8},2/6,2/6,,3/7v8[8:1],,,,
{16}2b-6[8:1],,,,6b,,,,5/7,,8,1,8,1,7h[8:1],,
{16}2,4,2,4,3h[8:1],,7,5,7,5,6h[8:1],,2,4,2,4,
{16}1b-5[8:1],,,,5b,,,,4/6,,7,3,7,3,5h[8:1],,
{16}2,6,2,6,8,,1-5[8:1]/7-4[8:1],,,,1x/7x,,,,,,
{8}7,7,6,6,5,5,4,4,
{8}3,3,2,2,1,1,8,8,
{16}1,7,1,7,1,7,1,7,2,6,2,6,3,5,3,5,
{1}4V28[2:1]*V68[2:1],
{4}2h[2:1],4,5h[2:1],4,
{4}3h[2:1],4,5h[2:1],4,
{4}2h[2:1],3,8h[2:1],7,
{8}1,,2/5,2/5,3/4,,4/5,,
{4}3h[2:1]/6,5,7h[2:1],5,
{4}4h[2:1],5,6h[2:1],5,
{4}3h[2:1],2,7h[2:1],8,
{4}5,4/5,3/4,2/5,
{4}3/4h[2:1],C1,3h[2:1],E3,
{4}4h[2:1],E6,3h[2:1],E2,
{4}6h[2:1],E8,5h[2:1],E4,
{8}6,,4/7,4/7,5/6,,4/6,,
{4}3/5h[4:7],C1/B5/B6,3,C1/B5/B6,
{4}3,C1/B5/B6,3,C1/B5/B6,
{8}2/7,,C1/B5/B6,C1/B5/B6,C1/B5/B6,C1/B5/B6,C1/B5/B6,C1/B5/B6,
{2}C1xh[2:1]/B5/B6,8b,
{8}2/8,,3/4,3/4,2h[4:1]/5,,1h[4:1],,
{16}2x,1x/3x,4x/8x,5x/7x,6x,,5x/7x,,,,2/4,,2/4,,,,
{8}4-1[8:1]/5,,8V62[4:1],,2V48[4:1],1,1,1,
{8}1h[4:1],,8,1h[4:1]/7,,7,2b/6b,,
{8}1/7,,5/6,5/6,4/7h[4:1],,8h[4:1],,
{16}7x,6x/8x,1x/5x,2x/4x,3x,,2x/4x,,,,3/6,,3/6,,,,
{8}4/5-8[8:1],,1V37[4:1],,7,8,8v2[4:3]*v5[4:3],8,
{1},
{8}4/6,,7/8,7/8,1/6h[4:1],,5h[4:1],,
{16}6x,5x/7x,4x/8x,1x/3x,2x,,1x/3x,,,,2/7,,2/7,,,,
{8}1/8-5[8:1],,4V26[4:1],,6V84[4:1],5,5,5,
{8}5h[4:1],,4,5h[8:1],3,5,2b/6b,,
{8}3/5,,1/2,1/2,3h[4:1]/8,,4h[4:1],,
{16}3x,2x/4x,1x/5x,6x/8x,7x,,6x/8x,,,,1/7,,1/7,,,,
{8}8,8,6,6,4,4,2,2,
{48}7x,,,,5x,,,,6x,,,,2x,,,,4x,,,,3x,,,,5x,,,4x,,,5x,,,4x,,,5x,,,4x,,,5x,,,4x,,,
{1}C1f,
{1},
{1},
{1},
{1}3h[4:3]/4h[4:15],
{1}2h[4:3],
{1}1h[4:3],
{4}1,2,3,2,
{2}1h[4:1]/5<1[2:1],2h[4:1],
{2}3>7[2:1]/7h[4:1],6h[4:1],
{2}2h[4:1]/5q2[2:1],3h[4:1],
{2}4p7[2:1]/7h[4:1],6h[4:1],
{4}5/6,4/5,3/4,2/3,
{16}1/2,,,,1/8,,,,7/8,,,,1,,1,8,
{8}2,2,3,3,4,4,5<3[4:3],4,
{1}3,
{1}1h[2:1]/5b,
{1}4b/8h[2:1],
{1}C1xh[2:1]/1b,
{1}C1xh[2:1]/8b,
{4}2b/7b,4/5-8[4:5],3,2,
{8}1b,1,1,1,1,1,1,1,
{16}1b,8,1,8,1,8,1,8,2,7,1,8,2,7,1,8,
{4}2x/7x,,3x-1[8:1]/6x,3b,
{8}2x/5-1[8:1],,3,4,5-1[8:1],8-6[8:1],5,8-4[8:1],
{8},1>3[8:1]/8<6[8:1],,1-5[8:1]/8,,1/5,6,7,
{8}8-4[8:1],4,3/8,2-6[8:1],,1<7[8:1]/2,,1-5[8:1]/2>4[8:1],
{8},1/2,,2x/8x,2x/8x,,3x/7x,4x/6x,
{8}5x-1[8:1],,3,4,5-1[8:1],8-6[8:1],5,8-4[8:1],
{8},1>3[8:1]/8<6[8:1],,1-5[8:1]/8,,1/5,6,7,
{8}8-4[8:1],4,8,2-8[8:1],,2-4[8:1],6-2[8:1],2,
{4}6,4/8,3/5,4/6,
{8}7/8,1x-3[8:1],6,1x-7[8:1],4,1x-3[8:1],5,1x-7[8:1],
{16}4,,1x-3[8:1],,6,,1x-5[8:1],,4,,1x,,7,,2x/8x-6[8:1],3x,
{8}4x,8x-2[8:1],5,8x-6[8:1],3,8x-2[8:1],5,8x-6[8:1],
{8}3,8x,5,8x,4/8x,,2/6,,
{8}3/5,2,1,8,7,6,5,4,
{8}3/5,6,4/7,3,2/6,7,1/8h[4:1],,
{16}3,7,3,7,2b,6,2,6,1,5,1b,5,8-4[8:1],4,8,4,
{8}8b,,6b,6b,3b/7b,3b/7b,1b/5b,,
{24}1x,2x,3x,,,,1x,2x,3x,,,,2x,3x,4x,,,,2x,3x,4x,,,,
{24}1x,2x,3x,,,,2x,3x,4x,,,,1x,2x,3x,,,,8x,,,,,,
{24}8x,7x,6x,,,,8x,7x,6x,,,,7x,6x,5x,,,,7x,6x,5x,,,,
{24}8x,7x,6x,,,,7x,6x,5x,,,,8x,7x,6x,,,,1x,,,,,,
{8}1/8,1,2/4,2,3/5,3,4/6,4,
{8}5/7,5,6/8,6,1/7,7,2/8,8,
{32}1/2,,8,,7,,6,,4/5,,3,,2,,1,,8x,1x,2,3,4,5,6,7,8,1,2,3,4,,,,
{8},1,8-4[8:1],1-5[8:1],8-6[8:1],1-3[8:1],8,1,
{1}C1f,
{1},
{1},
{1},
E
