&title=Little "Sister" Bitch
&wholebpm=185
&artist=t+pazolite
&des=チャン@DP皆伝
&shortid=11064
&genre=東方Project
&cabinet=DX
&version=maimai DX
&chartconverter=Neskol
&lv_2=4
&des_2=-
&lv_3=7+
&des_3=-
&lv_4=11
&des_4=華火職人
&lv_5=13+
&des_5=チャン@DP皆伝
&des_6=
&inote_2=
(185){1},
{2}4,4,
{1}4,
{2}5,5,
{1}5,
{2}4,4,
{1}4,
{2}5,5,
{1}5b,
{2}4,4,
{2}3,3,
{2}2,2,
{1}1/8,
{2}8,8,
{2}7,7,
{2}6,6,
{1}4/5,
{2}5,5,
{2}6,6,
{2}7,7,
{1}1h[2:1]/8h[2:1],
{2}1,1,
{2}2,2,
{2}3,3,
{1}4h[2:1]/5h[2:1],
{1}6-2[4:3],
{1},
{1}3-7[4:3],
{1},
{1}8-4[4:3],
{1},
{1}1-5[4:3],
{1},
{2}8,8,
{2}7,7,
{2}6,6,
{4}5,5,5,,
{2}4,4,
{2}3,3,
{2}2,2,
{1}1h[2:1]/8h[2:1],
{1}B1,
{1}B2,
{1}B3,
{1}B4,
{1}B5,
{1}B6,
{1}B7,
{1}B8,
{1}E8,
{1}E7,
{1}E6,
{1}E5,
{1}E4,
{1}E3,
{1}E2,
{1}E1,
{1}C1f,
{2}8,8,
{2}7,7,
{4}6,6,6,,
{4}5x,5x,5x,,
{2}4,4,
{2}3,3,
{4}2,2,2,,
{4}1,1,1b,,
{2}2,2,
{2}3,3,
{4}4,4,4,,
{4}5x,4x,5x,,
{2}6,6,
{2}7,7,
{4}8,8,8,,
{4}1,8,1b,,
{1}8h[1:1],
{1},
{1}1h[1:1],
{1},
{1}7h[1:1]/8h[1:1],
{1},
{1}1h[1:1]/2h[1:1],
{1},
{1}3,
{1}3,
{1}4,
{1}4,
{2}5,5,
{2}5,5,
{2}6,6,
{2}6,6,
{1}5b/6b,
{2}4,4,
{2}3,3,
{4}2,2,2,,
{4}1,1,1,,
{2}8,8,
{2}7,7,
{4}6,6,6,,
{4}5,5,4x/5x,,
{4}6,6,6,,
{4}7,7,7,,
{4}8,8,1,1,
{4}8,8,1/8,,
{4}2,2,2,,
{4}3,3,3,,
{4}4,4,5,5,
{4}4,4,4/5,,
{1}C1hf[1:1],
{1},
{1},
{1},
E
&inote_3=
(185){1},
{1}4x/5xh[1:1],
{1}3h[1:1],
{1}4h[1:1],
{4}3,3,3x/4x,,
{1}4h[1:1]/5,
{1}6h[1:1],
{1}5h[1:1],
{4}6,5x/6x,4b/7b,,
{4}6,6,5,,
{4}3,3,4,,
{4}6,6,5,5,
{4}4,3,3/4,,
{4}3,3,4,,
{4}6,6,5,,
{4}3,3,4,4,
{4}5,6,5/6,,
{4}7,6,5,4,
{4}3,3,3x/4x,,
{4}2,3,4,5,
{4}6,6,5x/6x,,
{4}7,6,5,4,
{4}3,2,3,3,
{4}4,5,6,7,
{4}8,1/8,2b/7b,,
{1}1>5[1:1],
{4},,6,6,
{1}7<3[1:1],
{4},,2,2,
{1}1s5[1:1],
{4},,6x,6x,
{4}7,7,8,8,
{4}1x,2x,1x,2x,
{1}8<4[1:1],
{4},,3,3,
{1}2>6[1:1],
{4},,7,7,
{1}8-5[8:5],
{1}4-1[8:5],
{4}8,8,1,1,
{4}1x/8x,1x/8x,2x/7x,2x/7x,
{1}3b/6b,
{1},
{2}E6,E7,
{1}E8,
{2}E2,E3,
{2}E4,E5,
{2}E6,E7,
{1}C1,
{2}E4,E3,
{1}E1/E2,
{2}E8,E7,
{1}E5/E6,
{2}E8,E1,
{2}E2,E3,
{2}E4,E5,
{1}C1hf[1:1]/B3/B6,
{1},
{4}2,2,1/2,1/2,
{4}7,7/8,1x/6x,,
{4}6h[4:1],5,3h[4:1],4,
{4}4x/5x,3x/6x,2b/7b,,
{4}7,7,7/8,7/8,
{4}2,1/2,3x/8x,,
{4}3h[4:1],4,6h[4:1],5,
{4}4x/5x,3x/6x,2b/7b,,
{4}1,2,3/4,3/4,
{4}2,1,7x/8x,7x/8x,
{4}6,5,3,4,
{4}5x/6x,4x/7x,3b/8b,,
{4}8,7,5/6,5/6,
{4}7,8,1x/2x,1x/2x,
{4}3,4,6,5,
{4}4,3,2,1x/8x,
{1}2b/7b,
{1},
{1}6h[1:2],
{1},
{1}5h[1:2],
{1},
{1}4h[1:1],
{1}3x,
{2}E3,E4,
{1}E5,
{2}E7,E6,
{1}E5,
{4}E4,B4,B5,,
{4}E7,B7,B8,,
{4}B2,B1,B8,B7,
{4}B6,B5,B4,B3,
{1}C1f,
{4}7,7/8,2,1/2,
{4}3,3/4,2x/5x,,
{4}6,5,4,3,
{4}1x/2x,3x/8x,4b/7b,,
{4}2,1/2,7,7/8,
{4}6,5/6,4x/7x,,
{4}3,4,5,6,
{4}7x/8x,1x/6x,2b/5b,,
{4}1,7/8,6,7/8,
{4}1,2,3/4,4/5,
{4}3,1/2,8,1/2,
{4}3/4,2/5,1x/6x,,
{4}8,1/2,3,1/2,
{4}8,7,5/6,4/5,
{4}6,7/8,1,7/8,
{4}6,5,4x/5x,3x/6x,
{1}2b/7b,
{1}C1f/E3/E7,
{1},
{1},
{1},
E
&inote_4=
(185){1},
{4}E2,E8,B2,B7,
{4}B3,B6,E4,E6,
{4}B4,B5,E3,E7,
{4}B1,B8,C1,,
{4}6h[2:3],B4,B3,B2,
{4}B1,B8,B7,,
{4}3h[2:3],B5,B6,B7,
{4}B8,B1,B2,,
{4}6,4/7,3,2/5,
{4}6,4/7,3,2/5,
{8}3,3,5,,6,6,4,,
{4}3/4,5/6,2b/7b,,
{4}7,1/6,2,3/8,
{4}7,1/6,2,3/8,
{8}2,2,4,,7,7,5,,
{4}2/4,5/7,1b/8b,,
{4}3h[4:1],1,4h[4:1],1,
{4}8h[4:1],5,7h[4:1],5,
{4}4h[4:1],2,5h[4:1],7,
{4}3>6[4:1]/6,,,1b/8b,
{4}6h[4:1],8,5h[4:1],8,
{4}1h[4:1],4,2h[4:1],4,
{4}8h[4:1],6,1h[4:1],3,
{4}7-5[8:1],8-4[8:1],,8b,
{8}3,3,5,,4h[8:1]/6h[8:1],,5/6,,
{8}7,7,1,,2h[8:1]/8h[8:1],,1/2,,
{8}7,7,5,5,4,4,2>7[2:1],,
{4}8h[2:1],,,1b/2b,
{8}6,6,4,,3h[8:1]/5h[8:1],,3/4,,
{8}2,2,8,,1h[8:1]/7h[8:1],,7/8,,
{8}2,2,4,4,5,5,7,,
{4}2-5[8:1],1-6[8:1],,1b,
{8}3,3,5,,4/6h[4:1],,8,,
{8}7,7,1,,2h[4:1]/8,,4,,
{8}3,3,8,8,1,1,5h[1:1],,
{4}E3,E7,E1,C1,
{8}7,7,1xh[4:1],,5,5,2xh[4:1],,
{8}6,6,1xh[4:1],,4,4,2xh[4:1],,
{4}B6/B7,C1,B2/B3,E5,
{4}6h[4:1],8h[4:1],1h[4:1],3qq5[1:1],
{1},
{4},E7,C1,E3,
{1}8qq4[4:3],
{4},E3,C1,E7,
{1}1qq5[4:3],
{4},E7,C1,E3,
{1}8pp4[4:3],
{4},E3,C1,E7,
{8}3,3,5,,3h[8:1]/5h[8:1],,4h[8:1]/6h[8:1],,
{4}5/7,E8,C1,E4,
{8}6,6,4,,4h[8:1]/6h[8:1],,3h[8:1]/5h[8:1],,
{4}2/4,E2,C1,E6,
{8}3,3,5,,4h[8:1]/5h[8:1],,5h[8:1]/6h[8:1],,
{4}6/7,E8,E1,E2,
{8}6,6,4,,4h[8:1]/5h[8:1],,3h[8:1]/4h[8:1],,
{4}2/3,E2,E1,E8,
{4}E3/E7,C1hf[4:1],,,
{8}1h[4:1],,8,8-4[8:1],,1x,,2xh[4:1],
{8},3,3,,3-8[8:1]/4-7[8:1],,,,
{8}7,7,8,8,1,1,2,2,
{4}7-4[8:1],1-5[8:1],8,3b/7b,
{8}6h[4:1],,8,8-3[8:1],,5x,,4xh[4:1],
{8},3,3,,2/3,,1/8,,
{8}3,4,1,1,6,5,8,8,
{8}2h[4:1],,4,4h[4:1],,3,,2/8,
{8}2/8h[4:1],,1,1-5[8:1],,7x,,7xh[4:1],
{8},6,6,,5-2[8:1]/6-1[8:1],,,,
{8}2,2,1,1,8,8,7,7,
{4}2-5[8:1],8-4[8:1],1,2b/6b,
{8}3h[4:1],,1,1-6[8:1],,4x,,5xh[4:1],
{8},6,6,,6/7,,1/8,,
{8}6,5,8,8,3,4,1>8[2:1],1,
{4}8,,,2/7<8[4:7],
{1}1b,
{1},
{2}3h[1:1],4,
{1}5>2[2:1],
{2}6h[2:3],5,
{2}3,4,
{2}3h[1:1],4,
{1}5<8[2:1],
{4}E6,E4,B6,B3,
{4}B7,B2,E8,E2,
{4}B8,B1,E7,E3,
{8}B5,,B4,,C1,,,1x,
{4}1h[4:3],B8,C1,B4,
{4}5h[4:3],B5,C1,B1,
{4}7h[4:1],1,2h[4:1],8,
{2}7h[4:1]/8h[4:1],1h[4:1]/2h[4:1],
{4}4/5,4/5,4/5,2b/7b,
{8}6h[4:1],,5,5h[4:1],,4,,3h[8:3],
{8},1,1,,6h[4:1],,8,,
{8}7,8,6,,2,1,3,,
{4}5/6,3/4,2b/7b,,
{8}2h[4:1],,1,1h[4:1],,8,,7h[8:3],
{8},5,5,,2h[4:1],,4,,
{8}3,4,2,,6,5,7,,
{4}2V41[8:3]/7V58[8:3],,,2b/7b,
{8}5h[4:1],,4,4-8[8:1],,5x,,6xh[4:1],
{8},7,7,,7-4[8:1]/8-3[8:1],,,,
{8}3,3,4,4,5,5,6,6,
{4}3-8[8:1],5-1[8:1],4,3b/7b,
{8}2h[4:1],,4,4-7[8:1],,1x,,8xh[4:1],
{8},7,7,,6/7,,4/5,,
{8}7,8,5,5,2,1,4>5[2:1],4,
{4}5,,,3/6,
{4}2-4[8:1],1-5[8:1],,3b/7b,
{4}6,4/7,3,2/5,
{4}6,4/7,3,2/5,
{4}6,5/6,3,3/4,
{4}6,5/6,3,3/4,
{4}5,4/5,4,4/5,
{4}5,4/5,4,4>5[1:2]/5<4[1:2],
{1},
{1},
{1},
{1},
{1},
E
&inote_5=
(185){1},
{8}1-6[8:1],7,1,,8-3[8:1],2,8,,
{8}2-5[8:1],8,2,,7-4[8:1],1,7,,
{8}1-5[8:1],8,1,,8-4[8:1],1,8,,
{16}2,,2,,8,1,,8,1,,8,,1/7,,,,
{8}7p3[8:1],1,7,,2q6[8:1],8,2,,
{8}8p3[8:1],2,8,,1q6[8:1],7,1,,
{8}5q1[8:1],4,5,,3,5,6-2[8:1],6,
{4}4-7[8:1],6-1[8:1],4-8[8:1],6,
{8}1b,1,,2,,3,,4,
{8},5,,6,,7,,8,
{8},B5/1,,B6/2,,B7/3,,B8/4,
{8},B1/5,,B2/6,,B3/7,,B4/8,
{8},C1/1,,C1/2,,C1/3,,C1/4,
{8},C1/5,,C1/6,,C1/7,,C1/8,
{8},C1f/1,,C1f/2,,C1f/3,,C1f/4,
{8},C1f/5,,C1/6,7b,,,,
{8}2-4[8:1]/8-6[8:1],2/8,,,1-3[8:1]/7-5[8:1],1/7,,,
{8}2-4[8:1]/8-6[8:1],2/8,,,1-3[8:1]/7-5[8:1],1/7,,,
{8}2-4[8:1]/7-5[8:1],2/7,,,1-3[8:1]/8-6[8:1],1/8,,,
{16}8,,8,,1,8,,1,8,,1,,2/7,,,,
{8}2-4[8:1]/8-6[8:1],1,,,1-3[8:1]/7-5[8:1],8,,,
{8}2-4[8:1]/8-6[8:1],1,,,1-3[8:1]/7-5[8:1],8,,,
{16}1-3[8:1]/8-6[8:1],,2/7,,,,,,1/7,,1,,8,1,,8,
{4}1x,2x,1x,2x,
{16}5-1[8:1],,4,,5,,,,2,,,1,,,8,,
{16}1-4[8:1],,8,8,1,,,,5,,,3,,,4,,
{16}4-8[8:1],,5,,4,,,,7,,,8,,,1,,
{16}8-5[8:1],,1,1,8,,,,4,,,6,,,5,,
{16}5-1[8:1],,4,,5,,,,B2,,,B3,,,B4,,
{16}1-4[8:1],,8,8,1,,,,B5,,,B6,,,B7,,
{16}4-8[8:1],,5,,4,,,,B7,,,B6,,,B5,,
{8}1x,7,2x,7,1x,8,2x,8,
{16}2,,7,,1-3[8:1],,,,1-7[16:1],,,1,,,2,,
{16}6,,4,5,4-2[8:1],,,,4-6[16:1],,,4,,,3,,
{16}7,,2,,8-6[8:1],,,,8-2[16:1],,,8,,,7,,
{16}3,,5,4,5-7[8:1],,,,5-3[16:1],,,5,,,6,,
{16}2,,7,,1>3[8:1],,,,1<7[16:1],,,1-5[16:1],,,1,,
{16}6,,4,5,4>2[8:1],,,,4<6[16:1],,,4-8[16:1],,,4,,
{16}7,,2,,8-6[8:1],,,,8-2[16:1],,,8-4[16:1],,,8,,
{8}1x,5,2x,6,1x,7,2x,8,
{2}C1f/1x,2,
{4}3,B6,B7,B8,
{2}1,2,
{4}3,B1,B2,B3,
{2}1x,2x,
{4}3x,B4/B8,B3/B7,B2/B6,
{2}1x,2x,
{4}3x,B4/B8,B3/B7,B2/B6,
{16}8b,,4,,6,,,,4,,5,4,,5,4,,
{16}5,,3,,5,,,,3,,4,3,,4,3,,
{16}6,,4,,6,,,,4,,5,4,,5,4,,
{16}5,,3,,5,,,,4,,5,4,,5,4,,
{16}1b,,5,,3,,,,5,,4,5,,4,5,,
{16}4,,6,,4,,,,6,,5,6,,5,6,,
{16}2,,5,,2,,,,6,,3,6,,3,6,,
{16}2,,8,,2,,,,7,,2,7,,2,7,,
{16}1x-5[8:1],,,,5xw1[8:1],,,,,C1f,,,,,,,
{8}7,1x/8x,2,1x/8x,7,1x/8x,2,1x/8x,
{8}6,1x/8x,3,1x/8x,6,1x/8x,2x/7x,,
{24}3,,,3,,,8,,,8,,,1/2,,,8x,7x,6x,2-4[8:1]/5x,,,2,,,
{8}8-6[16:1],8,1-5[8:1],1,7,7,7x,,
{8}1,7x/8x,6,7x/8x,1,7x/8x,6,7x/8x,
{8}4,1x/2x,7,1x/2x,4,1x/2x,3x/8x,,
{24}1,,,1,,,2,,,2>5[8:1],,,1/2,,,E1,B8,B7,E7,,,,,,
{8}7,7x/8x,2,1x/2x,7,7x/8x,1x/6x,,
{8}4p8[8:1],4,5q2[8:1],5,3>8[8:1],3,6q2[8:1],6,
{8}4p7[8:1],4,5<1[8:1],5,3p7[8:1],3,,,
{24}6,,,6,,,1,,,1,,,7/8,,,1x,2x,3x,4x/7-5[8:1],,,7,,,
{8}1-3[16:1],1,8-4[8:1],8,2,2,2x,,
{8}5q1[8:1],5,4p7[8:1],4,6<1[8:1],6,3p7[8:1],3,
{8}5q2[8:1],5,4>8[8:1],4,6q2[8:1],6,,,
{24}8,,,8,,,7,,,7<4[8:1],,,7/8,,,E1,B1,B2,E3,,,,,,
{8}1/6h[1:1],,2,2,,1,,1,
{1}1<1[4:7],
{1},
{1},
{1},
{1}B5/1h[2:1],
{1}B6/2h[2:1],
{1}B7/3h[2:1],
{1}B8/4h[2:1],
{16}6b,,5,,6,5,,,4,,4,4,,6,6,,
{16}3,,4,,3,4,,,5,,5,5,,3,3,,
{16}6,,4,,6,4,,,3,,3,3,,6,6,,
{16}3,,5,,3,5,,,6,,6,6,,3,3x,,
{16}6x,,5,,6,5,,,4,,4,4,,6,6,,
{16}3,,4,,3,4,,,5,,5,5,,3,3,,
{16}6x,,4,,6,4,,,3,,3,3,,6,6,,
{16}2x,,7,,2,7,,,8x,,8,8,,1,1,,
{8}1x,2,8x,7,1x/2x,2,7x/8x,7,
{8}2h[4:1],,8,8h[4:1],,1h[4:1],,8h[4:1],
{8},2,1,8,1h[4:1],,7,7,
{24}3,,,3,,,8,,,8,,,1/2,,,8x,7x,6x,2/5x,,,,,,
{8}2-5[8:1],2,1,,7-4[8:1],7,8,,
{8}1b/2b,,8,8h[4:1],,1,,7b/8b,
{8},2,1,8,1b/2b,,7b/8b,,
{24}4b/5b,,,3,,,6,,,1,,,1b/8b,,,1x/8x,2x/7x,3x/6x,4x/5x,,,,,,
{32}4,,5,,4,,5,,3,,6,,3,,6,,2x,1x,8x,7x,6x,5x,4x,3x,1b/2b,,,,,,,,
{8}7h[4:1],1b,3h[4:1],1b,7h[4:1],1b,3h[4:1],1b,
{8}6h[4:1],1b,4h[4:1],1b,6h[4:1],1b,C1f,,
{24}2,,,2,,,5,,,5,,,3x/4x,,,3x/4x,2x/5x,1x/6x,7x/8x-4[8:1],,,,,,
{8}3-8[8:1],3,7-5[8:1],7,4-8[8:1],4,6x,,
{8}6h[4:1],8b,2h[4:1],8b,6h[4:1],8b,2h[4:1],8b,
{8}5h[4:1],8b,3h[4:1],8b,5h[4:1],8b,C1f,,
{24}7,,,7,,,4,,,4,,,5x/6x,,,5x/6x,4x/7x,3x/8x,1x-5[8:1]/2x,,,,,,
{8}6-1[8:1],6,2-4[8:1],2,5-1[8:1],5,3,3,
{16}8x-4[8:1],,,,4xw8[8:1],,,,,C1f,,,1x/5x,2x/6x,3x/7x,4x/8x,
{1}1x/5x,
{1},
{1},
{1},
E
