&title=Halcyon
&wholebpm=191
&artist=xi
&des=ぴちネコ
&shortid=11085
&genre=ゲームバラエティ
&cabinet=DX
&version=maimai DX
&chartconverter=Neskol
&lv_2=3
&des_2=-
&lv_3=8
&des_3=-
&lv_4=11
&des_4=うさぎランドリー
&lv_5=13
&des_5=ぴちネコ
&des_6=
&inote_2=
(95.5){1},
{1},
{1},
{1},
{1},
{1},
{1}4,
{1}4,
{4}5,(87),,(78),
{4}5xh[32:37],(69),,(61),
(63){4},(191),,,
{2}4,4,
{1}4,
{2}3,3,
{1}3,
{1}2h[1:1],
{1},
{1}2h[1:1],
{1},
{2}1,1,
{1}1,
{2}8,8,
{1}8,
{1}7h[1:1],
{1},
{1}7h[1:1],
{1},
{1}6,
{1}6,
{1}5,
{1}5,
{1}4,
{1}4,
{1}4/5,
{1}4b/5b,
{1}6,
{1}6,
{1}7,
{1}7,
{1}8,
{1}8,
{1}1/8,
{1}1b/8b,
{1}B1,
{1}B8,
{1}B7,
{1}B6,
{1}B5,
{1}B4,
{1}B3,
{1}B2,
{1}B1/B8,
{1}B2,
{1}B3,
{1}B4,
{1}B5,
{1}B6,
{1}B7,
{1}B1/B8,
{2}1,1,
{1}1,
{2}2,2,
{1}2,
{2}3,3,
{1}3,
{2}4,4,
{1}4x,
{1}B5,
{1}B4,
{1}B6,
{1}B3,
{1}B4/B5,
{1}B3/B6,
{1}C1hf[1:1],
{1},
{1},
{4}1,1,1,,
{4}8,8,8,,
{4}7,7,7,,
{4}6,6,6,,
{1}5h[2:1],
{1}4h[2:1],
{2}5/6,5/6,
{1}5x/6x,
{4}5,5,5,,
{4}4,4,4,,
{4}3,3,3,,
{4}2,2,2,,
{1}1h[2:1],
{1}8h[2:1],
{2}1/2,1/2,
{1}1x/2x,
{4}2,2,2,,
{4}3,3,3,,
{4}4,4,4,,
{4}5,5,5,,
{1}6h[2:1],
{1}7h[2:1],
{1}8-4[4:3],
{1},
{4}3,3,3,,
{4}2,2,2,,
{4}1,1,1,,
{4}8,8,8,,
{1}1h[2:1],
{1}8h[2:1],
{1}1-5[4:3],
{1},
{4},4xh[1:2]/5xh[1:2],,,
{1},
{1},
{1},
{1},
E
&inote_3=
(95.5){1},
{1},
{2}E6,E5,
{1}E4,
{2}B4,B5,
{1}B3/B6,
{2}E7,C1,
{2}E3,E2,
{4}B1/B8,(87),B2/B7,(78),
{4}B3/B6,(69),C1xh[4:3],(61),
(63){4},(191),,,
{4}3x,3,4,4,
{4}3,3,2/4,,
{4}6,6,5,5,
{4}6,6,5/7,,
{2}3xh[4:1]/4xh[4:1],3/4,
{2}5xh[4:1]/6xh[4:1],5/6,
{4}3,3,6,6,
{4}5,4,3/6,,
{4}2x,2,1,1,
{4}2,2,1/3,,
{4}7x,7,8,8,
{4}7,7,6/8,,
{2}5h[4:1]/6h[4:1],4/7,
{2}3h[4:1]/4h[4:1],2/5,
{1}1-5[2:1],
{4}6,6,5x/7x,,
{2}5h[4:1]/6h[4:1],5/6,
{4}4,4,4/5,,
{2}3h[4:1]/4h[4:1],3/4,
{4}5,5,4/5,,
{4}3h[4:3],4,4,4,
{4}3/4,4/5,5/6,,
{4}6h[4:3],5,5,5,
{4}4/5,4/5,3/6,,
{2}3h[4:1]/4h[4:1],3/4,
{4}5,4,4/5,,
{2}5h[4:1]/6h[4:1],5/6,
{4}5,4,3/6,,
{4}2h[4:3],1,1,1,
{4}1/2,1/8,7/8,,
{4}7h[4:3],8,8,8,
{4}1,1/8,2x/7x,,
{1}1x-5[4:3],
{2},6,
{1}6-1[4:3],
{2},2,
{1}2-5[4:3],
{2},6,
{1}4h[2:1]/5h[2:1],
{4}4,5,3/6,,
{1}4x-8[4:3],
{2},7,
{1}7-4[4:3],
{2},3,
{1}4-1[4:3]/5-8[4:3],
{2},2/7,
{2}1h[1:1],8h[2:1],
{4},2b/7b,,,
{2}E4,E5,
{2}E6,E7,
{1}C1xh[1:1],
{1},
{2}E6,E5,
{2}E4,E3,
{1}C1xh[1:1],
{1},
{4}E4,B3,B2,,
{4}E6,B6,B7,,
{2}E2/E8,E3/E7,
{1}E4/E6,
{4}B7,C1,B3,,
{4}B2,C1,B6,,
{2}B4/B5,B3/B6,
{1}C1hf[1:1],
{4},,,2x/7x,
{4}2b,1/2,7,7/8,
{4}6,5/6,4/7,3/8,
{4}2,1/2,7,7/8,
{4}2,1/2,3/8,4/7,
{4}6h[4:1],5x,4/7,,
{4}3h[4:1],4,2/5,,
{4}6,4/5,3,4/5,
{4}3/6,2/7,1x/8x,,
{4}3,3/4,6,5/6,
{4}3,3/4,2/5,1/6,
{4}7x,7/8,2,1/2,
{4}7/8,1/6,2x/5x,,
{2}1xh[4:1]/2xh[4:1],3/8,
{2}7xh[4:1]/8xh[4:1],1/6,
{1}1-5[4:3]/8-4[4:3],
{4},,3x/6x,3x/6x,
{4}2b,1/2,3,3/4,
{4}6,5/6,4/7,3/8,
{4}2,1/2,7,7/8,
{4}5/6,4/7,3x/8x,,
{4}3/4,2x,1/8,1/8,
{4}7,6,4/5,4/5,
{1}4-8[4:3]/5-1[4:3],
{2},2x/7x,
{4}7x/8x,7/8,5/6,5/6,
{4}3/4,3/4,1/2,1/2,
{4}3x/4x,5/6,7/8,7/8,
{4}5/6,3/4,2b/5b,,
{4}1,2,3,4,
{4}5,6,7,1/8,
{4}2/7,2/7,3/6,3/6,
{8}5,5,5,,4,4,4,,
{4}3/6,2bV41[4:7]/7bV58[4:7],,,
{1},
{1},
{1},
{1},
E
&inote_4=
(95.5){1},
{1},
{1}4>5[4:3]/5,
{4},,4,5,
{1}6<5[4:3],
{2},4h[4:1]/5h[4:1],
{2}E5,C1,
{4}B2/B3,B6/B7,C1,1>4[0.6282722513088999##1.3179274237226934]/8<5[0.6282722513088999##1.3179274237226934],
{4},(87),,(78)4-1[0.76923076923077##0.9866220735785944]/5-8[0.76923076923077##0.9866220735785944],
{4},(69),C1hf[4:3],(61),
(63){4},(191),,,
{8}5/7,,5/6,5/6,,4/7,,3-5[8:1],
{8},7,,6-4[8:1],,1,1,,
{8}2/4,,3/4,3/4,,2/5,,3-5[8:1],
{8},7,,6-4[8:1],,2,,3h[8:3],
{8},,4,,3,4,5,6h[4:1],
{8},8h[4:1],,1h[4:1],,3,3,,
{8}3/4,,5/6,5/6,,8x<3[8:3],,,
{2},1-5[8:1],
{8}7,,5/6,5/6,,4/7,,3-5[8:1],
{8},7,,6-4[8:1],,1,1,,
{8}2/4,,3/4,3/4,,2/5,,6-4[8:1],
{8},2,,3-5[8:1],,7,,6,
{8}6,,5/7,,7,8,1,2-5[8:1],
{8},,,,6,5,4,3-8[8:1],
{8},,,,5/6,5/6,5/6,,
{1}C1hf[4:3]/B3/B4/B7/B8,
{8},,1b/8b,,6h[8:7],,5,5,
{8},4,,5h[8:3],,7,7,,
{8}5/6,,4/7,,5h[8:7],,6,6,
{8},7,,6h[8:3],,5,5,,
{8}3/4,,2/5,,4,5,6h[4:1],,
{4}8h[4:1],1h[4:1],3h[4:1],6,
{4}B4/B5,E2/E8,C1,E3/E7,
{2}8-4[8:1],1-5[8:1],
{8}8,,1b/6b,,3h[8:7],,4,4,
{8},5,,4h[8:3],,2,2,,
{8}3/4,,2/5,,4h[8:7],,3,3,
{8},2,,3h[8:3],,4,4,,
{8}5/6,,4/7,,5,4,3h[4:1],,
{4}1h[4:1],8h[4:1],6h[4:1],3,
{4}B4/B5,E2/E8,C1,E3/E7,
{16}7,,7,,2,,2,,8,1,8,1,8,,,,
{1}2b-5[8:1]/7b-4[8:1],
{16}5xh[16:3]/7,,,6xh[16:3],,,5xh[16:3],,,4xh[16:3],,,3>6[4:3],,,,
{1},
{2}1>4[4:1],8<5[4:1],
{4}2>7[2:1],,,8,
{4}8<3[2:1],,,2,
{4}2>7[2:1],,,8,
{2}8-4[4:1],3<6[4:1],
{4}8,2b/7b,,,
{16}2/4xh[16:3],,,3xh[16:3],,,4xh[16:3],,,5xh[16:3],,,6>3[8:3],,,,
{4},,,1/2<7[8:3],
{4},,,1/6,
{8}7,7,8,8,7,,1b/6b,,
{8}2,2,1,1,2,,3b/8b,,
{8}1/8,1/8,1/8,1/8,1>4[4:1]/8<5[4:1],,,,
{4},C1f/E3/E7,,,
{4}5h[4:5],E5,B3,B2,
{4}E1,8-4[4:1],,,
{4}3h[4:5],E5,B6,B7,
{4}E1,1-5[4:1],,,
{4}6h[4:5],E5,E4,E3,
{4}E2,8-4[4:1],,,
{4}2h[4:5],4,4,4,
{2}4h[4:1],B1/C1f/B5,
{8}6,6,5,,5/6,,4/7,,
{8}3,3,4,,3/4,,2/5,,
{8}7,7,6/8,,2,2,1/3,,
{4}7-5[8:1],1-3[8:1],8-4[8:1],,
{8}3,3,3,3,3,,1x/2x,,
{8}6,6,6,6,6,,7x/8x,,
{8}3,4,2x/5x,,6,5,4x/7x,,
{4}7x/8x,5x/6x,3x/4x,1x/2x,
{1}C1hf[2:1]/E3/E7,
{8}1b/8b,,3/4,2h[4:1]/5,,1,,3x/8x-4[8:1],
{8},2,,1x-5[8:1]/6x,,7,7,,
{8}1x/8x,,5/6,4/7h[4:1],,8,,1x-5[8:1]/6x,
{8},7,,3x/8x-4[8:1],,2,,1h[8:3],
{8},8,8,,2,1,8,7h[4:1],
{8},5h[4:1],,4h[4:1],,2,2,,
{8}5x/6x,,7/8,7x/8x,,1x>6[8:3]/8x,,,
{8},,,,E7,C1,E3,,
{8}1b/8b,,5/6,4/7h[4:1],,8,,1x/2x-5[8:1],
{8},7,,7x-4[8:1]/8x,,2,2,,
{8}1x/8x,,3/4,2h[4:1]/5,,1,,7x-4[8:1]/8x,
{8},3,,1x/2x-5[8:1],,6,,7,
{8}7,,6/8,,5,4,3,2h[4:1],
{8},1,1,,4,5,6,7h[4:1],
{8},8x,8x,8x,7x/8x,,1b/6b,,
{1}B1/C1hf[2:1]/B2/B5/B6,
{8}1b/8b,,5/6,4/7,,2-5[8:1]/6-1[8:1],,,
{8},3-8[8:1]/7-4[8:1],,,,2x/6x,2x/6x,,
{8}8b,,3/4,2/5,,3-8[8:1]/7-4[8:1],,,
{8},2-5[8:1]/6-1[8:1],,,,3/7,,E1/C1f/E5,
{8},,,,6,5,4,3h[4:1],
{8},1h[4:1],,8h[4:1],,6,6,,
{8}1b/5b,,2x/6x,2b/6b,,4b/8b,,1b<6[8:1]/5b>2[8:1],
{2},C1f/E3/E7,
{16}1b/8b,,,,3,4,3,,6,5,6,,3,4,3,,
{16}6,5,6,,3,4,3,,6,5,6,,2b/7b,,,,
{16}1x,8x,1x,8x,1x,8x,1x,8x,1x,8x,1x,8x,1x,8x,1b,,
{8},7-3[8:1],,2-6[8:1],,8-4[8:1],,3,
{8}3,,2/4,,7,8,1/6,1/6h[4:1],
{8},5,5,,2,1,3/8,3h[4:1]/8,
{16},,4,,4,,4,,1,8,1,8,1b,,,,
{8}7/8,7/8,1/6,1/6,2/5,,C1f/E3/E7,,
{4},1b>8[4:7]/8b,,,
{1},
{1},
{1},
{1},
E
&inote_5=
(95.5){1},
{16},,,,,,,,,,,,5,4,3,2,
{1}1h[1:1]/5qq8[2:1],
{48}8h[1:1],,,,,,1,,,2,,,3,,,,3,,,,3,,,,4,,,,,,5,,,,,,6,,,,,,7,,,,,,
{16}1h[16:3],,,5h[16:3],,,4q5[8:3],,,,,,,,,,
{16}7h[2:1],,,,,,,,2x,,1/8,,7,2,6,3,
{2}4h[8:7]/5h[8:3],6h[8:5],
{16}8h[8:3],,,,1h[8:3],,,,3h[8:5],,,,4,5,6,7,
{12}8h[8:1],,,(87)4h[8:1]/5h[8:1],,,1h[8:1]/6h[8:1],,,(78)8,1,8,
{4}1>4[0.76923076923077##0.5434782608695663]/8<5[0.76923076923077##0.5434782608695663],(69),3h[32:21]/6h[32:21],(61),
(63){4},(191)B1/B2/B7/B8,4-1[48:5]/5-8[48:5],4x/5x,
{8}2/7,,2/8,2-6[32:3]/8,,8-4[32:3],,1-5[32:3],
{8},7-3[32:3],,8-4[32:3],,5,6,7,
{8}4/8,,1/7,1/7-3[32:3],,1-5[32:3],,8-4[32:3],
{8},2-6[32:3],,1-5[32:3],,4,,3h[1:1],
{8},,B4/B5,,1,8,7,6h[4:1],
{8},1h[4:1],,8,,3/6,3/6,,
{8}B1/E2/B2/E3,,4/5,E7/B7/E8/B8,,4/5,,B1/C1f/B2/B7/B8,
{16},,,,,,,,4/5,,4,6,3,7,2,8,
{8}1x,,1/7,1/7-3[32:3],,1-5[32:3],,8-4[32:3],
{8},2-6[32:3],,1-5[32:3],,4,3,2,
{8}1/5,,2/8,2-6[32:3]/8,,8-4[32:3],,1-5[32:3],
{16},,7-3[32:3],,,,8-4[32:3],,,,5,,,,7,6,
{8}5h[2:1],,B3/B4,,1,2,3,4h[8:5],
{8},,B5/B6,,8,7,6,5h[4:3],
{16},,1,,1,,1,,1,,1,,1,8,1,8,
{16}1,2,3,4,1,8,7,6,1-6[32:3],2,3,4,1x/5,,,,
{8}2/7,,C1f/B3/B6,,7,8,1,2h[4:1],
{8},4h[4:1],,6h[8:3],,8,8,,
{8}2/7,,B1/C1/B8,,6,5,4,3h[8:3],
{16},,6,,6,,,,2,8,2,8,1,7,1,7,
{8}1-5[32:3],,1b/8b,,7,7,3,3,
{16}6,5,6,,3,4,3,,6,5,6,,3,4,3,,
{8}7-3[32:3],7,8,,1-5[32:3],1,8,,
{16}7,,1,8,1,,2/7,,3,5,3,5,4,6,4,6,
{8}4,,C1f/B3/B6,,2,1,8,7h[4:1],
{8},5h[4:1],,3h[8:3],,1,1,,
{8}2/7,,B1/C1/B8,,3,4,5,6h[8:3],
{16},,3,,3,,,,7,1,7,1,8,2,8,2,
{8}8-4[32:3],,1b/8b,,2,2,6,6,
{16}3,4,3,,6,5,6,,3,4,3,,6,5,6,,
{8}2-6[32:3],2,1,,8-4[32:3],8,1,,
{48}2,,,7,,,1,,,8,,,2,,,7,,,1,,,8,,,E2,,B2,,B3,,E4,,E8,,B7,,B6,,E6,,1x,,B1,,C1,,B5,,
{8}8xw4[8:1],,8b,,,8,1,2,
{16}3/5,,,4/6,,,2/4,,,5/7,,,1,8,1,8,
{8}1pp5[2:1],,6,6,,7,7,,
{8}8qq4[2:1],,3,3,,2,2,,
{8}1>5[8:3],,5,5q1[4:1],,7,7,,
{8}5<1[8:3],,1,1q5[4:1],,3,3,,
{8}1p8[2:1],,5,5,,4,4,,
{16}1/8,,,,8,7,6,5,8,1,2,3,8,7,6,5,
{8}4w8[8:1]/8,,4x,,,1,8,7,
{16}4/6,,,3/5,,,5/7,,,2/4,,,8,1,8,1,
{16}8h[4:1],,,,1,7,1,7,2,6,2,6,3,5,3,5,
{16}4h[4:1],,,,5,3,5,3,6,2,6,2,7,1,7,1,
{16}8-4[16:5],,,,2,,2,,2,,2,,2,4,2,4,
{16}1-5[16:5],,,,7,,7,,7,,7,,7,5,7,5,
{16}8h[4:1],,,,1,8,2,7,3,6,4,5,4,,,,
{32}2b/7b,,,,,,,,8,7,6,5,4,3,2,1,8-4[32:3],7,6,5,4,3,2,1,8x,,,,,,,,
{4}3h[1:2],5,6,6,
{8}7,,7,,8,,8,B7,
{4}6h[1:2],2,1,1,
{16}8,,,,8,,,,B7,,,E1,,,B2,,
{4}4h[1:2],5,6,6,
{8}7,,7,,8,,8,B7,
{8}5h[1:1],,3,,2,,1,B2,
{16}4h[2:1],,,,8,,B7,,5b,,,1b/6b,,,3b/8b,,
{16}2,1,2,,7,8,7,,1/8,,1>4[8:1]/8<5[8:1],,,,,,
{16},,,,4/6,,,3/5,,,5/7,,,2/4,,,
{32}7,,8,,7,,8,,7,,,,2,,1,,2,,1,,2,,,,E8,B7,B6,E6,E2,B2,B3,E4,
{16}8x,,,,4/8,7,6,5,8,1,2,3,8,7,6,5,
{8}4,,3/4,3/4,2/3,2/3,1/2,1/2,
{8}1/8,1/8,7/8,7/8,6/7,6/7,5/6,5/6,
{16}4x/5x,,3,4,3x,,6,5,6x,,2,4,2x,,7,5,
{32}7x,,,,1,,8,,2,,7,,3,,6,,4,,5,,4,,5,,E4,B3,B2,E2,E6,B6,B7,E8,
{48}C1,,,,,,,,,,,,,,,,,,,,,,,,1-5[12:1],,,,,,,,,,,,1x,B1,C1,B5,,,,,,,,,
{8}3x/7x,,2/6,2-7[32:3]/6,,4-8[32:3],,1-5[32:3],
{16},,6-3[32:3],,,,8-4[32:3],,,,5,,6,2,7,1,
{8}8,,3/7,3/7-2[32:3],,5-1[32:3],,8-4[32:3],
{8},3-6[32:3],,1-5[32:3],,4,,3h[1:1],
{8},,B4/B5,,1,8,7,6h[4:1],
{8},1h[4:1],,8,,3/6,3/6,,
{8}B1/B2/E2/E3,,4/5,B7/E7/E8/B8,,4/5,,B1/C1f/B2/B7/B8,
{16},,,,,,,,4/5,,4,6,3,7,2,8,
{8}1x,,3/7,3/7-2[32:3],,5-1[32:3],,8-4[32:3],
{16},,3-6[32:3],,,,1-5[32:3],,,,4,,3,7,2,8,
{8}1,,2/6,2-7[32:3]/6,,4-8[32:3],,1-5[32:3],
{16},,6-3[32:3],,,,8-4[32:3],,,,5,,,,7,6,
{8}5h[2:1],,B3/B4,,1,2,3,4h[8:5],
{8},,B5/B6,,8,7,6,5h[4:3],
{16},,1,,1,,1,,1,,1,,1,8,1,8,
{16}1,2,3,4,1,8,7,6,1-6[32:3],2,3,4,1x/5,,,,
{8}2b/7b,,C1f/B3/B6,,2/7,2/7-3[32:3],,7x/8-4[32:3],
{16},,1-5[32:3]/8x,,,,1x/2-6[32:3],,,,2x/4x,,5,1,6,8,
{8}7h[8:3],,8,8,,2-6[32:3]/7,,1-5[32:3]/2x,
{8},1x/8-4[32:3],,7-3[32:3]/8x,,5x/7x,,4/6h[1:1],
{8},,E1/B1/B8,,4,3,2,1h[4:1],
{8},8h[4:1],,3,,1/8,1/8,,
{8}E7/B7/E8/B8,,4/5,B1/B2/E2/E3,,4/5,,B1/C1f/B2/B7/B8,
{16},,,,,,,,4/5,,4,6,3,7,2,8,
{16}1x,,,,E7,B6,B5,E5,E1,B1,B2,E3,E8,B7,B6,E6,
{16}E2,B2,B3,E4,E1,B8,B7,E7,E3,B3,B4,E5,6x,3x,6x,3x,
{16}6x,,,,E2,B2,B3,E4,E8,B7,B6,E6,4x,5x,4x-1[32:3],,
{16},,4b/8x-5[32:3],,,,2x-6[32:3]/8b,,,,2b/7x,,,,4,5,
{8}4h[8:7],,B1/C1f/B2,,8,7,6,5h[1:1],
{8},,C1f/B7/B8,,4,3,2,1h[4:3],
{16},,8,,8,,8,,8,,8,,8,1,8,1,
{16}8,7,6,5,8,1,2,3,8-3[32:3],7,6,5,4x/8x,,,,
{4}C1f/B3/B4/B5/B6,2xqq5[4:7]/7xpp4[4:7],,,
{1},
{1},
{1},
{1},
E
