&title=HOT LIMIT
&wholebpm=138
&artist=T.M.Revolution [covered by 光吉猛修]
&des=小鳥遊さん
&shortid=11037
&genre=POPSアニメ
&cabinet=DX
&version=maimai DX
&chartconverter=Neskol
&lv_2=3
&des_2=-
&lv_3=6
&des_3=-
&lv_4=9
&des_4=華火職人
&lv_5=11+
&des_5=小鳥遊さん
&des_6=
&inote_2=
(138){1},
{1},
{1},
{1},
{1},
{1},
{1}4,
{1}4,
{1}5,
{1}5b,
{2}4,4,
{1}4,
{2}3,3,
{1}3,
{2}2,2,
{1}2,
{2}1/8,1/8,
{1}1b/8b,
{1}8h[1:1],
{1},
{1}1h[1:1],
{1},
{1}8,
{1}8,
{1}7,
{1}7,
{2}6,6,
{1}6,
{2}5,5,
{1}5,
{1}B4,
{1}B3,
{1}B2,
{1}B1,
{1}B8,
{1}B7,
{1}B6,
{1}B5,
{1}C1f,
{2}1,1,
{2}8,8,
{2}1,8,
{4}1x/8x,1x/8x,1x/8x,,
{2}2,2,
{2}3,3,
{2}4/5,4/5,
{4}4x,5x,4b,,
{4}5,5,5,,
{4}6,6,6,,
{4}7,7,8,8,
{4}1,8,1x,,
{4}1,1,1/2,,
{4}8,8,7/8,,
{4}1,1,8,8,
{4}1x,8x,2x/7x,,
{4}3,3,3,,
{4}4,4,4,,
{4}5,5,5,,
{4}6,6,6,,
{2}7,7,
{2}8,8,
{2}1,1,
{1}1-5[4:3],
{1},
{1},
{1},
E
&inote_3=
(138){1},
{1},
{4}6,6,5,,
{4}3,3,4,,
{4}6,6,5,5,
{4}4,3,3/4,,
{4}6,6,5/6,,
{4}3,3,3/4,,
{4}6,6,7,7,
{4}8,1/8,2b/7b,,
{4}7,7,7/8,7/8,
{4}1,1,2/8,,
{4}3,2,1,1/8,
{4}8,8,1/7,,
{4}2,2,1/2,1/2,
{4}8,8,1/7,,
{4}6,7,8,1/8,
{4}1,1/8,2b/7b,,
{2}B7,C1,
{2}B3,B2,
{2}C1,B6,
{1}C1f,
{4}6h[2:1],,5,4,
{4}3h[2:1],,4,5,
{4}6h[2:1],,5,4,
{4}3,3,2/4,,
{4}3h[2:1],,4,5,
{4}6h[2:1],,5,4,
{4}3,3,2,2,
{4}1,8,2x/7x,,
{1}8-5[2:1],
{1}4-1[2:1],
{1}8<5[2:1],
{4}4,4,4b,,
{1}4-1[2:1],
{1}8-5[2:1],
{1}4>1[2:1],
{4}8,8,8b,,
{4}7,1/8,2b/7b,,
{4}2,1/2,2,1/2,
{4}3h[4:1],4,2x/5x,,
{4}3h[4:1],4,5,6h[4:1],
{4}5,5,5x/7x,,
{4}7,7/8,7,7/8,
{4}6h[4:1],5,4x/7x,,
{4}6h[4:1],5,4,3,
{4}2,1,2b/8b,,
{4}2,1/2,7,7/8,
{4}6h[4:1],5,4/7,,
{4}6h[4:1],5,4,3h[4:1],
{4}4,3/4,2x/4x,,
{4}7,7/8,2,1/2,
{4}3h[4:1],4,2/5,,
{4}3h[4:1],4,5,6h[4:1],
{4}5,7/8,1b/6b,,
{1}6<1[2:1],
{1}2>5[2:1],
{1}6-1[2:1],
{4}2,2,2b,,
{2}B2,C1,
{2}B6,B7,
{2}C1,B3,
{1}C1hf[16:15],
{1},
{1},
{1},
E
&inote_4=
(138){1},
{1},
{4}3h[4:7],4,,4,
{4},5,,5,
{4}6h[4:7],5,,5,
{4},4,,4,
{4}3h[4:3],4,4,4,
{4}6h[4:3],5,5,5,
{8}3h[4:1],4,4,,6h[4:1],5,5,,
{8}4/5,4/5,3/6,,2x/7x,,,,
{4}7b/8b,3b/6b,1/2-5[8:1],,
{8}7,7,5q2[4:1],,,,,,
{8}7h[4:1],5,5,,2h[4:1],4,4,,
{4}1/8,2h[16:3]/7h[16:3],,4/5,
{4}1/2,3/6,7-4[8:1]/8,,
{8}2,2,4p7[4:1],,,,,,
{8}2h[4:1],3,3,,7h[4:1],6,6<3[8:3],,
{2},2b/7b,
{4}5,1/7,4,2/8,
{4}5,1/7,4,2/7,
{4}1,3/5,8,4/6,
{4}1,3/5,2b/6b,,
{8}3h[4:1],4,4<6[4:1],,,,,,
{8}6h[4:1],5,5>3[4:1],,,,,,
{8}3h[4:3],4,4,,2,,1,,
{8}8h[4:1],1,1,,2b/6b,,,,
{4}4h[2:1],B4,C1,B7,
{4}5h[2:1],B5,C1,B2,
{4}4h[2:1],B4,C1,B7,
{8}8,8,2,,3b/7b,,,,
{16}5h[16:3],,,4h[16:3],,,3,,3,,,,1/8,,,,
{16}4h[16:3],,,5h[16:3],,,6,,6,,,,1/8,,,,
{8}2,2,4,,7,7,5,,
{4}4/5,1/8,2b/7b,,
{16}5h[16:3],,,3h[16:3],,,1,,1-6[16:3],,,,,,,,
{16}4h[16:3],,,6h[16:3],,,8,,8-3[16:3],,,,,,,,
{8}6,6,8,,3,3,1,,
{16}1x/8x,,,1x/8x,,,2x/7x,,2x/7x,,,,4/5,,,,
{16}5x/6x,,,3x/4x,,,2x/7x,,2b/7b,,,,,,,,
{4}B7/B8,B1/B2,C1f/B3/B6,,
{8}6,6,1p4[4:1],,,,,,
{8}7h[4:1],5,5,,2h[4:1],4,4,,
{16}5,,4,,3h[16:3],,8x,8x,,,,,3/4,,,,
{4}B5/B6,B3/B4,C1f/B2/B7,,
{8}2,2,4q1[4:1],,,,,,
{8}2h[4:1],1,8,,7h[4:1],8,1>8[8:3],,
{2},2b/7b,
{4}B7/E8/B8,B1/B2/E2,C1f/B4/B5,,
{8}1,1,6q3[4:1],,,,,,
{8}2h[4:1],1,1,,7h[4:1],8,8,,
{16}4,,5,,6h[16:3],,1x,1x,,,,,3/4,,,,
{4}B5/B6/E6,B3/E4/B4,B1/C1f/B8,,
{8}8,8,3p6[4:1],,,,,,
{8}7h[4:1],8,1,,2h[4:1],1,8<5[4:1]*>3[4:1],,
{2},2b/7b,
{8}3,3,2/8,,6,6,1/7,,
{8}3,3,2/8,,6,6,1/7,,
{8}2,2,3/5,,7,7,4/6,,
{8}2,2,3/5,,2x/7x,,,,
{4}C1xh[16:63],B7,,B8,
{4},B1,,B2,
{4},E2,,E1,
{4},E8,,E7,
{1},
{1},
{1},
E
&inote_5=
(138){1},
{16},,,,,,4,5,4,,,5,,,4,,
{4}5/6h[4:7],3,,3,
{4},4,,4,
{4}3h[4:7]/4,6,,6,
{4},5,,5,
{4}4h[4:3]/6,6,6,6,
{4}3/5h[4:1],3,5h[4:1]/6,6,
{4}3/4h[4:3],3,3,3,
{16}4,5,4,5,4,5,4,5,C1f,,,,,,,,
{16}1h[4:1]/6-2[8:1],,,,6b,,,,3,4,,2/5,,,7,,
{16}5/6,,4,,3/5,,2,,1/8,,2/7,2/7,,,,,
{8}4/5,6,5/7,8,4/5,3,1/2pp2[4:1],8,
{16}7,,6,,7h[16:3],,1,1,,4x/5x,,,3b/8b,,,,
{16}3/7,,4,,5,,6,,7h[8:1]/8h[8:1],,,1/6,,,7,,
{16}5/6,,3,,2/4,,1/8,,1/8,,2/7,2/7,,,,,
{8}4/5,3,2/4,1,3/5,6,5/7,8,
{4}3-8[8:1]/7-4[8:1],3x/7x,3b/7b,,
{16}2/4,,4,3,4,2,,,5/7,,5,6,5,7,,,
{16}2/4,,4,3,4,2,,,5/7,,6,,2/4,,3,,
{16}7/8,,8,7,8,6,,,1/2,,1,2,1,3,,,
{16}7/8,,8,7,8,6,,,4x/5x,,1x/8x,,2b/7b,,,,
{16}6-2[4:1],,6,,5,,4,,3h[16:3],,,4,,,3,,
{16}3-7[4:1],,3,,4,,5,,6h[16:3],,,5,,,6,,
{16}6-2[4:1],,6,,5,,4,,3h[16:3],,,4h[16:3],,,5,,
{16}7h[16:3],,,6h[16:3],,,5,,4b/7b,,,,,,,,
{16}2-7[4:1],,2,,4,,5,,6h[16:3],,,5,,,5/6,,
{16}7-2[4:1],,7,,5,,4,,3h[16:3],,,4,,,3/4,,
{16}2-7[4:1],,2,,4,,5,,6h[16:3],,,5h[16:3],,,4,,
{16}2h[16:3],,,3h[16:3],,,4,,3x/7x,,,,1b/5b,,,,
{4}7<4[2:1],B5,C1,B1,
{4}2>5[2:1],B4,C1,B8,
{4}4/7h[4:1],6,2h[4:1]/5,3,
{4}E5,E4/E6,C1/B2/B7,,
{4}1>5[2:1],B6/B7,C1,B2/B3,
{4}8<4[2:1],B2/B3,C1,B6/B7,
{4}3h[4:1]/8,4,1/6h[4:1],5,
{16}5/7,,,4/5,,,2/4,,1-5[8:1]/8-4[8:1],,,,1x/8x,,,,
{16}1/8,,,5/7,,,2/4,,4x/5x,,4x/5x,,2b/7b,,,,
{16}3-7[8:1]/8h[4:1],,,,3b,,,,6,5,,4/7,,,2,,
{16}3/4,,5,,4/6,,7,,1/8,,2/7,2/7,,,,,
{8}4/5,3,2/4,1,4/5,6,7qq7[4:1]/8,1,
{16}2,,3,,2h[16:3],,8,8,,4x/5x,,,1b/6b,,,,
{16}7/8,,6,,4/5,,3,,1h[8:1]/2h[8:1],,,3/8,,,2,,
{16}3/4,,6,,5/7,,1/8,,2/7,,3/6,3/6,,,,,
{8}1/2h[8:3],8,7,6,4/5h[8:3],3,2,1,
{4}1x>4[8:1]/5x<8[8:1],1x-6[8:1]/5xv2[8:1],1x/5x,1b/5b,
{16}6-1[8:1]/8h[4:1],,,,6b,,,,3/4,3/4,,2/5,,,6,,
{16}4/5,,3,,2/4,,1,,7/8,,1/6,1/6,,,,,
{8}3/6,5/7,3/6,2/4,3/6,5/8,3/6,1/4,
{16}3/6-2[8:1],,5/8,,3/6,,1,1,,3x/8x,,,1b/6b,,,,
{16}7/8,,6,,4/5,,3,,1/2,,3/8,3/8,,,1,,
{16}2/8,,3,,4/5,,6,,7/8,,1/6,1/6,,,,,
{8}5/6pp4[4:1],4,3,2,3qq5[4:1],5,6,7,
{8}8,3/7,2-5[8:1]/6-1[8:1],,2x/6x,,3b/7b,,
{16}B4/B5,,2,1,3,8,,,B4/B5,,7,8,6,1,,,
{16}B4/B5,,2,1,3,8,,,5/7,,6,,2/4,,3,,
{16}E1/E7/B7/B8,,3,4,2,5,,,E1/B1/B2/E3,,6,5,7,4,,,
{16}E1/E7/B7/B8,,3,4,2,5,,,5/7,,6,,2/4,,3,,
{1}C1hf[4:7]/1x>8[2:3],
{1},
{1}1x/8x<4[2:1],
{16}6,,7,,8,,1,,2,,3,,5,4,,C1/E1/E5,
{1},
{1},
{1},
E
