&title=CocktaiL
&wholebpm=128
&artist=XYZ
&des=Jack
&shortid=11067
&genre=niconicoボーカロイド
&cabinet=DX
&version=maimai DX
&chartconverter=Neskol
&lv_2=2
&des_2=-
&lv_3=6
&des_3=-
&lv_4=9
&des_4=シチミヘルツ
&lv_5=12+
&des_5=Jack
&des_6=
&inote_2=
(128){1},
{1},
{1},
{1},
{1},
{1},
{2}4,4,
{1}4,
{2}5,5,
{1}4xh[1:1]/5xh[1:1],
{1},
{2}4,4,
{2}3,3,
{2}2,2,
{4}1,1,1x,,
{2}8,8,
{2}7,7,
{2}6,6,
{4}5,5,5b,,
{1}4h[2:1],
{2}4,4,
{1}5h[2:1],
{4}5,5,5,,
{2}6,6,
{2}7,7,
{2}8,8,
{4}8,1,8x,,
{1}1h[2:1],
{2}1,1,
{1}8h[2:1],
{4}8,8,8,,
{2}1,1,
{2}2,2,
{2}3,3,
{4}4,5,4b,,
{1}B5,
{1}B6,
{1}B7,
{1}B8,
{1}B1,
{1}B2,
{1}B3,
{1}B4,
{1}C1hf[1:1],
{1},
{4}8,8,8,,
{4}7,7,7,,
{4}6,6,6,,
{4}5,4,5,,
{4}4,4,4,,
{4}3,3,3,,
{1}2h[2:1],
{1}1h[2:1]/8h[2:1],
{4}1,1,1,,
{4}2,2,2,,
{4}3,3,3,,
{4}4,5,4,,
{4}5,5,5,,
{4}6,6,6,,
{1}7h[2:1],
{1}1b/8b,
{1}8x-5[4:3],
{1},
{1}1x-4[4:3],
{1},
{2}1x/8x,1x/8x,
{4}1,1,1,,
{4}8,8,8-4[4:3],,
{1},
{1},
{1},
E
&inote_3=
(128){1},
{1},
{1}6h[1:1],
{1}5h[1:1],
{1}4h[1:1],
{2}3x,3x,
{2}3h[2:1],4h[2:1],
{2}5h[2:1],6x,
{2}7h[2:1],8h[2:1],
{2}1h[2:1],2x,
{4}8x,1x/8x,2b/7b,,
{4}2,2,1/2,1/2,
{4}8,8,1x/7x,,
{4}7,7,7/8,7/8,
{4}1,1,2x/8x,,
{4}3,3,4,5,
{4}5x/6x,5x/6x,4x/7x,,
{4}6,5,4,3,
{4}2,1x/8x,2b/7b,,
{4}6h[2:1],,5,5,
{4}4h[2:1],,5,5,
{4}6h[2:1],,5,4,
{4}3,3,3x/4x,,
{4}3h[2:1],,4,4,
{4}5h[2:1],,4,4,
{4}3,2,1,8,
{4}8,1/8,2x/7x,,
{4}6,6,5,,
{4}3,3,4,,
{4}6,6,5,5,
{4}4,3,2x/4x,,
{4}6,6,5x/6x,,
{4}3,3,3x/4x,,
{4}6,6,7,7,
{4}8,1/8,2x/7x,,
{1}2-5[2:1],
{1}6-1[2:1],
{1}2>5[2:1],
{4}6,6,7,1x/8x,
{2}2b/7b,B6,
{2}B4,B2,
{2}C1,B7,
{2}B8,B2,
{1}C1hf[1:1],
{1},
{4}2,1/2,8,1/7,
{4}7,7/8,1x/6x,,
{4}6h[4:1],5,3h[4:1],4,
{4}5,4x/5x,3b/6b,,
{4}7,7/8,1,2/8,
{4}2,1/2,3x/8x,,
{4}3,4,5,6,
{4}7x,7x/8x,1b/6b,,
{4}7,7/8,2,1/2,
{4}3,3/4,2x/5x,,
{4}6h[4:1],5,3h[4:1],4,
{4}5,4x/5x,2b/7b,,
{4}2,1/2,7,7/8,
{4}6,5/6,4x/7x,,
{4}3,4,5,6,
{4}7x,1x/8x,2b/7b,,
{1}1x-5[8:3]/2x-5[8:3],
{4}6,6,5b/7b,,
{1}7x-4[8:3]/8x-4[8:3],
{4}3,3,2b/4b,,
{1}4x-1[8:3]/5x-8[8:3],
{4}2/7,3/6,4b/5b,,
{2}B4/B5,B3/B6,
{1}C1hf[2:1],
{1},
{1},
{1},
E
&inote_4=
(128){1},
{1},
{1}6h[1:1],
{1}5h[1:1],
{1}4h[1:1],
{2}3,3,
{2}3h[2:1],4h[2:1],
{4}5h[2:1],,6,6,
{4}7,7,8,1/8,
{1}2h[2:1]/7h[4:5],
{4}1x,1x,1x/8x,2b/7b,
{4}2,1/2,7,7/8,
{4}5/7,3/4,3x/7x,,
{4}7,7/8,2,1/2,
{4}2/4,5/6,2x/6x,,
{4}2h[4:1]/4,4x,5/7h[4:1],5x,
{4}3/4,5/6,2x/7x,,
{4}7h[4:1]/8,8x,1/2h[4:1],1x,
{4}1x/8x,1x/8x,2b/7b,,
{4}E8,E7,E5/E6,,
{4}E2,E3,E4/E5,,
{4}E8,E1,E2,E3,
{4}E4,E5,C1/B3/B6,,
{4}E2,E3,E5/E6,,
{4}E8,E7,E4/E5,,
{4}E3,E5,E7,E1,
{4}E3,E5,C1f/E3/E7,,
{4}8x-4[8:1],,3,3,
{4}2-5[8:1],,6,6,
{2}7-4[8:1],3-8[8:1],
{4}7,8,2x/7x,,
{4}1-5[8:1],,6,5x/6x,
{4}7-4[8:1],,3,3x/4x,
{2}2-5[8:1],6-1[8:1],
{4}2,1x/8x,2b/7b,,
{8}4/6,6,6,,5x/7x,,4,,
{8}3/5,3,3,,2x/4x,,5,,
{8}5/7,7,7,,3x/4x,,3x/4x,,
{4}3h[4:1],4h[4:1],5h[4:1],6x,
{4}5x/7x,,7h[4:1],5,
{4}5h[4:1],4,4h[4:1],2,
{4}2,1/2,7,7/8,
{4}6,5,4,3/4>5[4:3],
{1},
{8}C1f/B3/B6,,,,,1x/8x,1x/8x,,
{16}2xh[16:3],,,3xh[16:3],,,4x-1[8:1],,,,,,8x,,,,
{16}7xh[16:3],,,6xh[16:3],,,5x-8[8:1],,,,,,1x,,,,
{16}3h[16:3],,,2h[16:3],,,1x,,,,7x,,7x/8x,,,,
{16}6h[16:3],,,7h[16:3],,,8x,,,,2x,,1x/2x,,,,
{16}2h[16:3],,,3h[16:3],,,4>1[8:1],,,,,,8x,,,,
{16}7h[16:3],,,6h[16:3],,,5<8[8:1],,,,,,1x,,,,
{4}2h[2:1],8,7h[4:1],1,
{4}1,1x/8x,2b/7b,,
{16}6xh[16:3],,,7xh[16:3],,,8x-5[8:1],,,,,,1x,,,,
{16}3xh[16:3],,,2xh[16:3],,,1x-4[8:1],,,,,,8x,,,,
{16}7h[16:3],,,6h[16:3],,,5x,,,,2x,,1x/2x,,,,
{16}2h[16:3],,,3h[16:3],,,4x,,,,7x,,7x/8x,,,,
{16}6h[16:3],,,7h[16:3],,,8<5[8:1],,,,,,1x,,,,
{16}3h[16:3],,,2h[16:3],,,1>4[8:1],,,,,,8x,,,,
{4}7h[2:1],1,2h[4:1],8,
{4}8,1x/8x,2b/7b,,
{2}7x-5[8:1]/8x-4[8:1],1x-5[8:1]/2x-4[8:1],
{4}7h[4:1],5h[4:1],4h[4:1],2,
{2}1x-5[8:1]/2x-4[8:1],7x-5[8:1]/8x-4[8:1],
{4}2h[4:1],4h[4:1],5h[4:1],7,
{2}7x-5[8:1]/8x-4[8:1],1x-5[8:1]/2x-4[8:1],
{4}6xh[4:1],8h[4:1],1h[4:1],3h[4:1],
{4}8-4[8:1],2-5[8:1],7-3[8:1],1>6[16:5],
{2},C1f/B3/B7,
{1},
{1},
{1},
E
&inote_5=
(128){1},
{1},
{8}3h[8:3],,,4h[8:5],,,,,
{16}6h[16:3],,,5h[16:3],,,4h[8:5],,,,,,,,,,
{8}6h[8:3],,,5h[8:5],,,,,
{16}3h[16:3],,,4h[16:3],,,5h[8:5],,,,,,,,,,
{8}2h[8:3],,,4h[8:5],,,,,
{16}5h[16:3],,,6h[16:3],,,3,,,,5-7[8:1],,,,3,,
{8},4-2[8:1],,6,,5<4[8:7],,C1,
{1},
{16}4/5,,3x,4,2,,6x,5,7,,3x,4,1,,6,5,
{16}8h[16:3],,,1,8,,2/7,,3-8[8:1],3,,,4b,,,,
{16}2/6,,3,4,2,,6,5,7,,3,4,1,,3/7,,
{16}1h[16:3],,,8,1,,2/7,,6-1[8:1],6,,,5b,,,,
{16}3/7,,6,5,8,,3,4,1,,7-4[8:1],,7,,8,8x,
{16},,2-5[8:1],,2,,1,1x,,,7,,6,,5,5xh[16:3],
{16},,4,,2/7,,1/8,1x/8x,,,2-6[8:1],,2,,1,1x,
{16},,7-3[8:1],,7,,8,8x,,,2/4,,3/5,,4/6,,
{16}5/7,,6,,2/4,,3,,1,8,1,8,1,,2b/7b,,
{8},3,3,4-6[8:1],2,2-4[8:1],,7h[4:1],
{8},6,5,4,3,1/2,1/2,,
{8}4/5,6,6,5-3[8:1],7,7-5[8:1],,2h[4:1],
{8},3,4,5,6,7/8,7/8,,
{8}3/4,2,3,4,5-3[8:1],6,7,,
{8}5/6,7,6,5,4-6[8:1],3,2,,
{8}1/8,7,4,5,2-7[8:1],6-3[8:1],,,
{8},2/4,3,5/7,6,1/8,1/8,,
{8}4/5,6,6,5>2[8:1]/7,8,8<5[8:1],,1h[4:1],
{8},4,3,2,1,7/8,7/8,,
{8}4/5,3,3,2/4<7[8:1],1,1>4[8:1],,8h[4:1],
{8},5,6,7,8,1/2,1/2,,
{8}4/5,6,5,4<2[4:1],3,3,,,
{8}4/5,3,4,5>7[4:1],6,6,,,
{8}4/5,3,2/4,6,5/7,1,1/8,7-4[8:1],
{16}2-5[8:1],,7,,2,,7,,6x/8x,,,1x/3x,,,4x/5x,,
{16}3,4,2,,6,5,7,,1h[16:3]/2>5[8:1],,,,,,6,,
{16}6,5,7,,3,4,2,,7<4[8:1]/8h[16:3],,,,,,3-8[8:1],,
{8}3,7b,6,5,4x/6x-1[8:1],3x,2x,3,
{8}3h[4:1],1,4h[4:1],1,5h[4:1],8,6<3[4:1],8,
{8}8x,,,5-7[8:1],5,1-3[8:1],1,7-1[8:1],
{8}7,3-5[8:1],3,1,,4/8,3/7,2/6,
{8}1h[4:1]/5h[4:1],,,1/5,4<7[8:1]/8>3[8:1],,,,
{8}4,4/5,6,5/7,2,1/3,7,6/8,
{16}3,,2/4h[16:3],,,5h[16:3],,,7,8,7,8,,2,1,,
{16}3xh[16:3],,,4,3x,,5/6,,2x-5[8:1]/7x-4[8:1],,1/8,,C1f/2b/7b,,,,
{16}3/6-1[8:1],,,2-6[8:1]/6,,,2,,,,5/7,,4/6,,3/5,,
{16}2/4-7[8:1],,,1-5[8:1]/4,,,1,,,,4/8,,3/7,,2/6,,
{16}1/5<8[8:1],,,4>1[8:1]/5,,,4,,,,7/8,,1/6,,2/5,,
{16}3-8[8:1]/4,,,3/7-3[8:1],,,7,,,,2/4,,3/5,,4/6,,
{16}5-2[8:1]/7,,,5/8-4[8:1],,,8,,,,1/5,,2/6,,3/7,,
{16}4>1[8:1]/8,,,4/5<8[8:1],,,5,,,,1-6[8:1]/2-5[8:1],,3/8,,1x/2x,,
{8},7-4[8:1]/8-3[8:1],1/6,7x/8x,,1-6[8:1]/8-3[8:1],2/7,1x/8x,
{32},,,,4/5,,,,3/6,,,,2/7,,,,1>4[8:1]/8<5[8:1],,,,,,,,1b/8b,E2/E8,E3/E7,E4/E6,,,,,
{16}2-6[8:1]/8,,,2/7>5[4:1],,,7,,,,8,,1,,2/6,,
{16}3-7[8:1]/7,,,3/8>6[4:1],,,8,,,,1,,2,,3/7,,
{16}4-8[8:1]/8,,,4/5<3[4:1],,,5,,,,4,,5,,4/6,,
{16}3/7-3[8:1],,,2<4[4:1]/7,,,2,,,,1,,8,,3/7,,
{16}2/6-2[8:1],,,1<3[4:1]/6,,,1,,,,8,,7,,2/6,,
{16}1/5-1[8:1],,,4>6[4:1]/5,,,4,,,,5,,4,,3-8[8:1]/5x,,
{8},4,5,4x/6-1[8:1],,5,4,4x/5x,
{32}3/6,,,,2/7,,,,1/8,2,3,4,5,6,7,8,1b/5b,,,,,,3b/7b,,,,,,2b/6h[4:1],,,,
{8}8,5h[4:1],8,6h[4:1],8,5h[4:1],8,6,
{16}5/7,,3,,2/4,,6,,5/7-4[8:1],,,7/8,,,3h[4:1],,
{8}1,4h[4:1],1,3h[4:1],1,4h[4:1],1,3,
{16}2/4,,6,,5/7,,3,,2-5[8:1]/4,,1,2,,,6h[4:1],,
{8}8,5h[4:1],8,6h[4:1],8,5h[4:1],8,6,
{16}5/7,,3,,2/4,,6,,5-2[8:1]/7-4[8:1],,,5/7,,,,,
{8}1x/8x,3/5,1x/8x,4/6,1x/8x,3>6[4:1]/5,1x/8x,5,
{16},,4h[16:3],,,5,,,C1f/B2/E3/B3/B6/E7/B7,,,,,,,,
{1},
{1},
{1},
E
