&title=Blows Up Everything
&wholebpm=215
&artist=USAO
&des=はっぴー
&shortid=11023
&genre=maimai
&cabinet=DX
&version=maimai DX
&chartconverter=Neskol
&lv_2=5
&des_2=-
&lv_3=9
&des_3=-
&lv_4=11+
&des_4=Jack
&lv_5=13+
&des_5=はっぴー
&lv_6=14
&des_6=サファ太
&inote_2=
(215){1},
{1},
{1},
{1},
{1},
{1},
{1},
{1}1x,
{1}1x,
{1}8x,
{1}8b,
{1}1,
{1}1,
{1}2,
{1}2,
{1}3x,
{1}3x,
{2}4x,4x,
{1}4b,
{2}5,5,
{1}5,
{2}6,6,
{1}6,
{2}7,7,
{1}7,
{2}8,8,
{1}8,
{2}1,1,
{1}1,
{2}2,2,
{1}2,
{2}3,3,
{1}3,
{2}4,4,
{1}4x/5x,
{2}3,3,
{2}2,2,
{2}1,1,
{1}1x/8x,
{2}7,7,
{2}6,6,
{2}5,5,
{1}4b/5b,
{1}4h[2:3],
{1},
{1}5h[2:3],
{1},
{1}4h[2:3],
{1},
{1}5h[2:3],
{1},
{1}4b/5b,
{1},
{1},
{1},
{1}1,
{1}1,
{1}8,
{1}8,
{1}1-4[4:3],
{1},
{1}8-5[4:3],
{1},
{1}B4,
{1}B3,
{1}B2,
{1}B1/B8,
{1}B7,
{1}B6,
{1}B5,
{1}E5,
{1}B4/B5,
{1}B3/B6,
{1}C1hf[1:1],
{1},
{1}8xh[1:1],
{1},
{1}1xh[1:1],
{1},
{2}8,8,
{1}7/8,
{2}1,1,
{1}1/2,
{1},
{4}1,1,1,,
{4}2,2,2,,
{4}3,3,3,,
{4}4,4,4,,
{4}5,5,5,,
{4}6,6,6,,
{4}7,7,7,,
{1}1x/8x,
{1}8h[2:1],
{1}1h[2:1],
{1}8h[2:1],
{1}2x/7x,
{4}7,7,7,,
{4}6,6,6,,
{4}5,5,5,,
{4}4x,5x,4x,,
{4}3,3,3,,
{4}2,2,2,,
{4}1,1,1,,
{4}8x,1x,8b,,
{4}1,1,1,1,
{4}2,2,2,2,
{4}3,3,3,3,
{4}4x,5x,4x,,
{4}5,5,5,5,
{4}6,6,6,6,
{4}7,7,7,7,
{4}8x,1x,8b,,
{4}7,7,6,6,
{4}5,5,4,4,
{4}3,3,2,2,
{4}1,1,1x/8x,,
{4}1,1,2,2,
{4}3,3,4,4,
{1}4-1[4:3]/5-8[4:3],
{1},
{1}2x/7x,
{1},
{1},
{1},
E
&inote_3=
(215){1},
{1},
{1},
{4}3,3,3,3,
{4}4,4,4,4,
{4}5,5,5,5,
{4}6,6,5x/6x,,
{4}7,7,7,7,
{4}8,8,8,8,
{4}1,1,1,1,
{1}2h[2:1]/7h[2:1],
{2}B6,B4,
{2}B2,C1,
{2}B6,B4,
{1}C1,
{1}B4/B5,
{1}B3/B6,
{1}B2/B7,
{1}C1f,
{4}1,1,2,2,
{8}3,,3,,4,4,4,,
{8}5,,5,,4/5,,6,6,
{4}6,7,7x/8x,,
{4}7,7,1/8,1/8,
{4}2,1,2/8,,
{4}3,3,4/5,4/5,
{1}3b/6b,
{4}8,8,7,7,
{8}6,,6,,5,5,5,,
{8}4,,4,,4/5,,3,3,
{4}3,2,1x/2x,,
{4}2,2,1/8,1/8,
{4}7,8,1/7,,
{4}6,6,4/5,4/5,
{4}3x,2x,1b/8b,,
{4}1,1,2,2,
{8}3,,3,,4,4,4,,
{8}5,,5,,4/5,,6,6,
{4}6,7,7x/8x,,
{4}7,7,1/8,1/8,
{4}2,1,2/8,,
{4}3,2,1,8,
{4}1/8,2/7,3b/6b,,
{1}5pp8[8:9],
{4},,1,1,
{1}1q4[8:9],
{2},5x,
{1}4qq1[8:9],
{4},,8,8,
{1}8p5[8:9],
{2},4b,
{1}3h[1:1],
{1}4h[1:1],
{1}5h[1:1],
{1}6,
{1}6h[1:1],
{1}5h[1:1],
{1}4h[1:1],
{1}3b,
{2}3,2,
{2}1,8,
{2}7,6,
{1}4h[2:1]/5h[2:1],
{1}B1/B7,
{1}B2/B8,
{1}B4/B5,
{1}C1xh[2:1],
{1}B1/B7,
{1}B2/B8,
{1}B4/B5,
{1}B6/B7,
{1}B1/B8,
{1}B2/B3,
{1}C1hf[1:1],
{1},
{1}1-4[2:1]*-6[2:1],
{1}5h[2:1],
{1}5-2[2:1]*-8[2:1],
{1}1h[2:1],
{1}2-5[2:1]*-7[2:1],
{1}6h[2:1],
{1}4-1[2:1]/5-8[2:1],
{1}2h[1:1]/7h[1:1],
{4},,1b,1b,
{4}7/8,1,2/4,3,
{4}5/6,4/7,3x/8x,,
{8}2,2,2,,8,8,8,,
{8}7/8,,7/8,,2,2,2b,,
{4}3/4,2,3/4,2,
{4}1/2,8,1/2,8,
{4}7/8,2,7/8,2,
{4}1/2,1/2,3b/8b,,
{2}3xh[2:1],4x,
{2}7xh[2:1],5x,
{2}1xh[2:1],3x,
{1}4x>1[2:1]/5x<8[2:1],
{4}1/2,8,5/7,6,
{4}3/4,2/5,1x/6x,,
{8}7,7,7,,1,1,1,,
{8}1/2,,1/2,,7,7,7b,,
{4}5/6,7,5/6,7,
{4}7/8,1,7/8,1,
{4}1/2,7,1/2,7,
{4}7/8,1/6,2b/5b,,
{4}3,2,1,7x/8x,
{8}6,,5,,3x/4x,3x/4x,3x/4x,,
{8}2,,3,,4,,5x/6x,5x/6x,
{4}5x/6x,4/7,3b/8b,,
{4}6,7,8,1x/2x,
{8}3,,4,,5x/6x,5x/6x,5x/6x,,
{8}7,,6,,5,,3x/4x,3x/4x,
{4}3x/4x,2/5,1b/6b,,
{4}1h[4:1]/8h[4:1],,2/4,3,
{4}5/6,4/7,3x/8x,,
{8}1/2,1/2,1/2,,7/8,7/8,7/8,,
{8}2x/5x,,1,,2,2,2b,,
{4}3/4,2,3/4,2,
{4}1/2,8,1/2,8,
{4}7/8,1/6,2/5,3/4,
{4}1xh[4:1]/8xh[4:1],,1/8,2/7,
{1}3b/6b,
{1},
{1},
{1},
E
&inote_4=
(215){1},
{1},
{1},
{4}4/5,4,4/5,5,
{4}4/5,3,4/5,6,
{4}4/5,2,4/5,7,
{4}4/5,1,4/5,8,
{4}4/5,B2/B3,4/5,B6/B7,
{4}4/5,B2/E2,4/5,B7/E8,
{4}4/5,B1/B8,4/5,E3/E7,
{1}1b/8b,
{2}3h[2:1],2,
{4}6h[2:1],,7,4/5,
{2}2h[2:1],3,
{4}7h[2:1],,6,4/5,
{4}1b,2,3,4,
{4}2b/5,4/7,3/5,4/6,
{4}3b/5,4/7,2b/5,4/8,
{1}C1f/B2/B3/B6/B7,
{4}4/5,3/4,5/6,2/3,
{8}6/7,,4/5,,3,3,2/4,,
{8}5/6,,3/4,,4/5,,6,6,
{8}5/7,,2/4,,1x/8x,1x/8x,2b/7b,,
{8}4,5,4,,5/6,,3/4,,
{8}6/7,,2/3,,1x/8x<5[4:1],1x,1x,,
{8}4,,3/6,,1x>4[4:1]/8x,8x,8x,,
{4}5xh[8:1],4xh[8:1]/6xh[8:1],3xh[8:1]/7xh[8:1],2xh[8:1]/8xh[8:1],
{8}1b,,2/8,2h[4:1]/8,,4h[4:1],,6h[4:1],
{8},8h[4:1],,2,2h[4:1],,1,2,
{8}3/8,,1/7,1/7h[4:1],,5h[4:1],,3h[4:1],
{8},1h[4:1],,7,7h[4:1],,8,7,
{4}1/6h[8:1],2/6h[8:1],3/6h[8:1],4/6h[8:1],
{8}3h[8:1]/5,,3h[8:1]/6,,3h[8:1]/7,,3x/8x,3x/8x,
{4}1xh[8:1]/2xh[8:1],3h[8:1]/4h[8:1],5h[8:1]/6h[8:1],7h[8:1]/8h[8:1],
{4}1b/6x,2b/5x,3b-8[8:1]/4x,5b,
{4}2-6[8:1]/7,5b,1-4[8:1]/7,5b,
{4}2-6[8:1]/7,5b,3-8[8:1]/7,5b,
{4}2-6[8:1]/7,5b,1-4[8:1]/7,5b,
{8}5x/7x,,2x/4x,,1x/8x,1x/8x,2b/7b,,
{4}3h[8:1]/6h[8:1],2h[8:1]/5h[8:1],3h[8:1]/6h[8:1],4h[8:1]/7h[8:1],
{8}3h[8:1]/6h[8:1],,2h[8:1]/5h[8:1],,3h[8:1]/6h[8:1],,4x/5x,4x/5x,
{4}3h[8:1]/6h[8:1],5h[8:1]/7h[8:1],3h[8:1]/6h[8:1],2h[8:1]/4h[8:1],
{4}3/6-1[8:1],2-5[8:1],6x,1b/8b,
{8}4h[4:1]/5h[4:1],,,1h[4:1]/2h[4:1],,,4h[4:1]/5h[4:1],,
{8},7h[4:1]/8h[4:1],,,4/5,4/5,3b/6b,,
{8}1h[4:1]/8h[4:1],,,2h[4:1]/4h[4:1],,,1h[4:1]/8h[4:1],,
{8},5h[4:1]/7h[4:1],,,1/8-5[8:1],,4b,,
{8}4h[4:1]/6h[4:1],,,7h[4:1]/8h[4:1],,,3h[4:1]/5h[4:1],,
{8},1h[4:1]/2h[4:1],,,4/5,4/5,3b/6b,,
{8}1h[4:1]/8h[4:1],,,6h[4:1]/7h[4:1],,,1h[4:1]/8h[4:1],,
{8},2h[4:1]/3h[4:1],,,1/8-4[8:1],,4b>5[2:3],,
{1}1b,
{1},
{1},
{1},
{2}3h[2:1],4h[2:1],
{2}5h[2:1],6h[2:1],
{1}5p4[4:3],
{1},
{1}4qq4[2:1],
{1}5pp5[2:1],
{1}3>6[2:1],
{1}4p5[2:1]/6<3[2:1],
{4}4b/6b,5,,5,
{4}1b/8b,4,,4,
{4}1b/7b,5,,5,
{16}2x/8x,,,2x/8x,,,2x/8x,,,,,,,,,,
{4}3b/4b,2h[2:1],,1,
{4}6b,7h[2:1],,8,
{4}5b,2h[2:1],,3,
{4}4b,7h[2:1],,6,
{4}3b,4,5,6,
{4}2b,1,8,7,
{4}1b,2/8,3/7,4/6,
{1}B1/C1f/B5,
{4}3/4,4/5,5/6,6q3[2:1]/7>2[2:1],
{1},
{8}3,3,4,,6,6,5,,
{4}2/4,5/7,3/6,1x/8x,
{4}B2/E2,E6/B6,E4/B4,B8/E8,
{8}B2/B3,,B6/B7,,E5,C1,E1,,
{8}E4/E6,,E2/E8,,E1,C1,E5,,
{1}C1xh[2:3],
{1},
{4}3-5[8:1]/8,7,2-4[8:1]/6,5,
{4}3-5[8:1]/5,6,2-4[8:1]/7,8,
{8}3/8,3/8,3/8,,1/6,1/6,1/6,,
{8}4xh[8:1]/5xh[8:1],,4xh[8:1]/5xh[8:1],,4x/5x,4/5,2x/7x,,
{4}1/6-4[8:1],2,3/7-5[8:1],4,
{4}4/6-4[8:1],3,2/7-5[8:1],1,
{8}4/6,4/6,4/6,,3/5,3/5,3/5,,
{8}1xh[8:1]/8xh[8:1],,1xh[8:1]/8xh[8:1],,1x/8x,1/8,2b/7b,,
{4}3/4,3/4,2/5,,
{4}6h[4:1],5h[4:1],4h[4:1],3,
{4}5/6,4/7,2/5,3/4,
{4}1>4[4:1]/8<5[4:1],,,2b/7b,
{8}1-4[8:1]/8,,5,5h[4:1],,6h[4:1],,7,
{8}7-4[8:1],,3,3h[4:1],,2h[4:1],,1,
{8}1,2/8,,2/4,,4-1[8:1]/6,,7,
{8}7,6/8,,1/3,,2/7,2b/7b,,
{8}1/8-5[8:1],,4,4h[4:1],,3h[4:1],,2,
{8}2-5[8:1],,6,6,4,4,5,5,
{4}4/6,2/5,3/7,1/5,
{4}3x/7x-3[8:1],1x-5[8:1],6x,1b/8b,
{4}7x-4[8:1],8x-3[8:1],7x-4[8:1],8x-3[8:1],
{8}7x-4[8:1],,8x-3[8:1],,7x,7x,6x/8x,,
{8}4x-1[8:1],,5x-8[8:1],,4x-1[8:1],,5x,5x,
{4}4xh[8:1]/6xh[8:1],3xh[8:1]/7xh[8:1],2xh[8:1]/8xh[8:1],1b,
{4}2x-5[8:1],1x-6[8:1],2x-5[8:1],1x-6[8:1],
{8}2x-5[8:1],,1x-6[8:1],,2x,2x,1x/3x,,
{4}4/5,6/8,4/5,2/4,
{4}5/7,2/3,6/7p2[4:1],1x,
{4},1b/8b,4/5-8[8:1],1b,
{4}4/6-2[8:1],1b,4/7-3[8:1],1b,
{4}4/6-2[8:1],1b,4/5-8[8:1],1b,
{8}2x/4x,,5x/7x,,1x/8x,1x/8x,2b/7b,,
{16}3x-5[8:1],,,,,6x-4[16:1],,,2x-6[8:1],,,,7x-3[8:1],,,,
{4}1x-5[8:1],8x-4[8:1],1x,2b/7b,
{1}4xqq1[4:3]/5xpp8[4:3],
{4},3/6,2/7,1b-4[8:1]/8b-5[8:1],
{1},
{1},
{1},
E
&inote_5=
(215){1},
{1},
{1},
{4}4,4/5,4,4/5,
{4}4,4/5,4,4/5,
{4}4,4/5,4,4/5,
{4}4-1[4:1],5-8[4:1],,,
{4}4/5,C1/B2/B7,4/5,C1/B2/B7,
{4}4/5,C1/B3/B7,4/5,C1/B2/B6,
{4}4/5,C1/B3/B7,4/5,C1/B2/B6,
{4}5-1[4:1],4-8[4:1],,,
{4}E6,E4,1-4[8:1],5,
{4}E8,E6,1/8,3/6,
{4}E4,E6,8-5[8:1],4,
{4}E2,E4,1/8,3/6,
{4}5xh[4:3],4,4,4,
{4}4xh[4:3],5,5,5,
{4}3xh[4:1],4,2xh[4:1],3,
{8}1,1-5[8:1],,8,8,,3/6,,
{4}2-4[8:1]/7-5[8:1],2/7,2-4[8:1]/7-5[8:1],2/7,
{4}2-4[8:1]/7-5[8:1],2/7,1/8,3/6,
{4}1-4[8:1]/8-5[8:1],1/8,1-4[8:1]/8-5[8:1],1/8,
{4}2b-6[8:1]/7b,8b-4[8:1],1b-5[8:1],7b,
{16}1/7-5[8:1],,,,E1/7,C1,E5,,2-4[8:1]/8,,,,E1/2,C1,E5,,
{16}1/7-5[8:1],,,,E1/7,C1,E5,,2/8,,,,3/6,,,,
{16}2-4[8:1]/8,,,,E1/2,C1,E5,,1/7-5[8:1],,,,E1/7,C1,E5,,
{16}2-4[8:1]/8,,,,E1/2,C1,E5,,1/7,,,,3x/6x,,,,
{16}1-4[8:1]/8,,,,E1/1,C1,E5,,1/8-5[8:1],,,,E1/8,C1,E5,,
{16}1-4[8:1]/8,,,,E1/1,C1,E5,,1/8,,,,3/6,,,,
{16}1/8-5[8:1],,,,E1/8,C1,E5,,1-4[8:1]/8,,,,E1/1,C1,E5,,
{16}1/8-5[8:1],,,,E1/8,C1,E5,,1/8,,,,3/6,,,,
{16}4-2[8:1]/5,,,,E5/4,C1,E1,,4/5-7[8:1],,,,E5/5,C1,E1,,
{16}4-2[8:1]/5,,,,E5/4,C1,E1,,4/5,,,,2/7,,,,
{16}4/5-7[8:1],,,,E5/5,C1,E1,,4-2[8:1]/5,,,,E5/4,C1,E1,,
{16}4/5-7[8:1],,,,E5/5,C1,E1,,4/5,,,,2b/7b,,,,
{16}1>4[8:1]/8,,,,E1/1,C1f,E5,,1/8<5[8:1],,,,E1/8,C1f,E5,,
{16}1>4[8:1]/8,,,,E1/1,C1f,E5,,1/8<5[8:1],,,,E1/8,C1f,E5,,
{16}1>4[8:1]/8,,,,E1/1,C1f,E5,,1/8<5[8:1],,,,E1/8,C1f,E5,,
{16}2/7,,,,4/5,,,,1,8,1,8,2/7,,,,
{16}1-3[8:1]/8,,,,E1/1,C1,E5,,1/7-5[8:1],,,,E1/7,C1,E5,,
{16}1-4[8:1]/8,,,,E1/1,C1,E5,,1/8<5[8:1],,,,E1/8,C1,E5,,
{16}1>4[8:1]/8,,,,E1/1,C1,E5,,1/8-5[8:1],,,,E1/8,C1,E5,,
{4}1x-5[8:1],1/7-3[8:1],4/7,2x/6x,
{8}3/4,2,2,3/4,2,2,3/4,2,
{8}2,3/4,2,2,4/5,4/5,2x/7x,,
{8}5/6,7,7,5/6,7,7,5/6,7,
{8}7,5/6,7,7,4/5,4/5,2x/7x,,
{8}3/4,1,1,3/4,1,1,3/4,1,
{8}1,3/4,1,1,4/5,4/5,2x/7x,,
{8}5/6,8,8,5/6,8,8,5/6,8,
{8}8,5/6,8,8,4/5,4/5,2>1[1:3]/7x,,
{1}C1xh[1:3],
{1},
{1},
{1},
{4}E5,E4,E3,E2,
{4}E1,E8,E7,E6,
{16}5/6,,,7,,,1/8,,,2,,,3-7[8:1]/4,,,,
{4}8-5[8:1],4-1[8:1],8,8,
{1}C1f/B2/B3/B6/B7,
{1},
{4}8,8-4[8:1],,1>8[2:1],
{1}C1f,
{2}2h[2:1],C1f/B6,
{2}1h[2:1],C1f/B5,
{2}8h[2:1],C1f/B4,
{16}C1f/B3/B4,,,C1f/B5/B6,,,C1f/E3/E7,,,,,,1x/8x,,,,
{4}7,7h[4:1],C1f/B3,,
{4}6,6h[4:1],C1f/B2,,
{4}5,5h[4:1],B1/C1f,,
{4}4,4h[4:1],C1f/B8,,
{4}3,3,C1f/B7/3,3,
{4}2,2,C1f/B6/2,2,
{4}1,1,C1f/B5/1,1,
{1}8b,
{8}B4/E4/B5/E6,,B1/E2/E8/B8,,2/6,2/6,3V16[2:1]/7,3/7,
{1}3/7V52[2:1],
{8}3,3,2-7[8:1],,6-3[8:1],,,,
{4}1,2,3-1[8:1]/7,3b,
{4}2/4,C1/B2/B6,5/7,C1/B3/B7,
{4}2/4,C1/B2/B6,5/7,C1/B3/B7,
{4}2/4,C1/E5,5/7,C1/E5,
{4}3h[1:1]/4h[4:1],,,C1xh[2:1],
{1},
{8}2-7[8:1],2,6-2[8:1],6,4-1[8:1],4,8,8,
{8}5/7,4,3/5,2,1/8,7,4/6,3,
{8}2-7[8:1],2,6-2[8:1],6,4-1[8:1],4,8,8,
{4}E6/B6/B7,B2/B3/E4,E1/C1/E5,1x/8x,
{16}1x-5[8:1]/5x-1[8:1],,,,1/5,C1f,,,3x-7[8:1]/7x-3[8:1],,,,3/7,C1f,,,
{16}4x-8[8:1]/8x-4[8:1],,,,4/8,C1f,,,2x-6[8:1]/6x-2[8:1],,,,2/6,C1f,,,
{16}1x-5[8:1]/5x-1[8:1],,,,1/5,C1f,,,4x-8[8:1]/8x-4[8:1],,,,4/8,C1f,,,
{4}E6/B6/B7,B2/B3/E4,C1/E1/E5,2x/7x,
{8}6h[1:1],,4,,B1/B8,,,4,
{8}3h[1:1],,4,,B1/B8,,,5,
{16}6,,6,,4,,4,,5,,5,,4>5[2:1],5,4,5,
{4},,C1,1x/8x,
{8}7-2[8:1],7,3-7[8:1],3,5-8[8:1],5,1>5[4:1],1,
{4}5<1[4:1],1>5[4:1],5,1,
{8}2-7[8:1],2,6-2[8:1],6,4-1[8:1],4,8<4[4:1],8,
{4}4>8[4:1],8<4[4:1],4,8,
{16}4-1[8:1]/5,,,,E5/4,C1,E1,,4/5-8[8:1],,,,E5/5,C1,E1,,
{16}4-1[8:1]/5,,,,E5/4,C1,E1,,4/5-8[8:1],,,,E5/5,C1,E1,,
{16}4-1[8:1]/5,,,,E5/4,C1,E1,,4/5-8[8:1],,,,E5/5,C1,E1,,
{4}2-7[8:1],8-4[8:1],1,2x/7x,
{16}3-1[8:1]/7,,,,E8/3,C1,E4,,2/6-8[8:1],,,,E2/6,C1,E6,,
{16}3-1[8:1]/7,,,,E8/3,C1,E4,,2/6-8[8:1],,,,E2/6,C1,E6,,
{16}3-1[8:1]/7,,,,E8/3,C1,E4,,2/6-8[8:1],,,,E2/6,C1,E6,,
{8}3/7,3/7,2/6,2/6,1/5,1/5,4/8,,
{16}2>4[8:1]/6,,,,E6/2,C1,E2,,3/7<5[8:1],,,,E4/7,C1,E8,,
{16}2>4[8:1]/6,,,,E6/2,C1,E2,,3/7<5[8:1],,,,E4/7,C1,E8,,
{16}2>4[8:1]/6,,,,E6/2,C1,E2,,3/7<5[8:1],,,,E4/7,C1,E8,,
{4}2/6,4/8,1>5[4:1]/6,5<1[4:1],
{4}1b>1[2:1],C1f,1b>1[2:1],C1f,
{4}1b>1[2:1],C1f,1b>1[2:1],C1f,
{4}1b>1[2:1],C1f,1b,C1f,
{16}2x/7x,,,,5,4,5,4,5<1[4:1],,,,1b>5[4:1],,,,
{4}5b<5[2:1],C1f,5b<5[2:1],C1f,
{4}5b<5[2:1],C1f,5b,C1f,
{16}1x/8x,,,6x/7x,,,4x/5x,,,2x/3x,,,1-5[8:1],8,1,8,
{4}1x,7-3[8:1],,1-4[8:1]/5-8[8:1],
{1}1b/5b,
{1},
{1},
{1},
E
&inote_6=
(215){1},
{1},
{1},
{4}4,4/5,4,4/5,
{4}5,4/5,5,4/5,
{4}4,4/5,5,4/5,
{1}4z8[2:1]/5z1[2:1],
{4}4/5,2/3,4/5,6/7,
{4}4/5,1/2,4/5,7/8,
{4}3h[4:1]/4,1,5/6h[4:1],8,
{8}2/7,2/7-4[4:1],,5,5,,1,,
{4}3h[8:3]/5h[2:1],,3,4/5,
{8}7h[2:1],,6,6,5,,4/5,,
{4}2h[2:1]/4h[8:3],,4,4/5,
{8}6h[4:1],,5,5,4/6,,2/4,,
{4}1h[4:3]/5b,4,5,6,
{4}4b/8h[4:3],6,4,2,
{4}3b/6h[4:1],8,2b/5<1[4:1],1s5[2:1]*V35[2:1],
{4},,,1/8,
{8}4/5,5,2/4,2,4/5,5,2/4,2,
{8}4/5,5,2/4,2,4h[8:1]/5h[8:1],,4/5,,
{8}5/7,7,4/5,4,5/7,7,3h[8:1]/5h[8:1],,
{4}3-8[8:1]/5,8-4[8:1],4-1[8:1]*-7[8:1],,
{8}8b,,4/6,6,2/4,2,4/6,6,
{16}2/4,,2,,4/6,,6,,1/4,,1,,1/5,2,3,4,
{16}5/6,,6,,3/5,,3,,1/8,,8,,2/8,7,6,5,
{4}3-8[8:1]/4,8-4[8:1],4w8[8:1],,
{16}2b/6b,,,,2/6,,4,,3/7,,5,,1,,7,5,
{8}7-3[8:1],7,1-5[8:1],1,8-4[8:1],8,1,1,
{8}2/6,,4/8,4,5/7,6,3/5,2,
{16}1/8,,2,4,2,7,5,7,3-8[8:1],,,,6b,,,,
{4}5h[8:1]/7h[8:1],4h[8:1]/5h[8:1],2h[8:1]/4h[8:1],1h[8:1]/8h[8:1],
{16}5h[8:1]/7h[8:1],,,,2h[8:1]/4h[8:1],,,,3h[8:1]/6h[8:1],,,,3/6,,8,1,
{8}8-4[8:1],,1,1,1/5,2/6,3/7,4/8,
{4}1b-5[8:1]/5,2b-6[8:1],3b-7[8:1],5b,
{8}1-5[8:1]/8,8,1/8,,4/7-3[8:1],4,4/7,,
{8}2-6[8:1]/5,5,2/5,,3/7-4[8:1],3,3/7,,
{8}1-6[8:1]/5,5,1/5,,4/8-3[8:1],4,4/8,,
{16}2/5,,,,4/7,,,,8,,8,,1/8,2,3,4,
{8}5-1[8:1]/6,6,5/7,,3/4-8[8:1],3,2/4,,
{16}5-2[8:1]/6,,6,,5/7,,,,1,,1,,1/8,7,6,5,
{8}3/4-8[8:1],3,1/4,,5-1[8:1]/6,6,5/8,,
{4}3/4<7[8:1],1w5[8:1],1,2b/8b,
{8}7-5[8:1],4,7,2-8[8:1],4,2,7-5[8:1],4,
{8}7,2-8[8:1],4,2,6,6,4/8,,
{8}2-4[8:1],5,2,7-1[8:1],5,7,3,3,
{16}4,5,3,6,4,5,3,6,4-8[8:1],,7,,5,,,,
{8}1-4[8:1],4,1,8-5[8:1],5,8,1-4[8:1],4,
{8}1,8-5[8:1],5,8,1,1,3/7,,
{8}1v4[8:1],4,1,8v5[8:1],5,8,1v4[8:1],4,
{8}1,8v5[8:1],5,8,1,1,3>5[4:15]/7,,
{1}4h[1:1],
{1},
{1}C1xh[1:1],
{1},
{4}4/5h[4:3],4,4,4,
{8}3h[4:1]/4,,4,,2,2,3,,
{16}2h[16:1]/5h[16:1],,,3h[16:1]/4h[16:1],,,5h[16:1]/6h[16:1],,,4h[16:1]/7h[16:1],,,1>8[2:1],8,1,8,
{4}1,,1,5,
{1}C1f,
{1},
{4}3/6,4/5>2[4:1],,1s5[8:5],
{1}8b,
{4}2b/8b,4/5h[2:1],,4,
{4}1b/8b,3h[2:1]/4,,4,
{4}8b,2h[2:1]/3,,3,
{16}1h[8:3]/8b,,,8b,,,8b,,,,,,,,,,
{2}C1xh[1:6]/7b,7,
{2}6b,6,
{2}5b,5,
{2}4b,4,
{4}3b,3,3,3,
{4}2b,2,2,2,
{16}1b,,,,1,,,,1/8,,1/8,,2,7,2,7,
{4}4p3[2:1],8<4[4:1],,,
{4}2/6,4z8[8:3]/8z4[8:3],,,
{1}1/5p2[2:1]*pp2[2:1],
{8}1/8,2z6[8:3]/7s3[8:3],3/6,,,,,,
{4}1b/5h[2:1],2b,3b-1[8:1]*-8[8:1],3b,
{4}6/7,C1/E5,2/3,C1/E1,
{4}6/7,C1/E5,2/3,C1/E1,
{4}5/6,C1/E4,1/2,C1/E8,
{1}5h[4:3]/6h[16:13],
{16}5h[2:1],6h[16:7],,,,,,,,,,,4/5,,3,4,
{8}2-5[8:1],6,6,6,6/8-4[8:1],6,6,6,
{8}3-7[8:1]/6,6,6,6,5-1[8:1]/6,6,6,6,
{16}2/6-3[8:1],,2,,2,,2,,2/8,,3,4,3-7[8:1],,4,,
{8}3/5-1[8:1],,1/5,,2/6,2,3b/8b,,
{8}4-1[8:1]/5,5,4/5,5,5/7-3[8:1],5,5/7,5,
{8}4-8[8:1]/5,5,4/5,5,5/7-3[8:1],5,5/7,5,
{8}1/5-2[8:1],1,1/5,1,1/4-8[8:1],1,1/4,1,
{8}1>4[8:1]/2<7[8:1],,1/2,,5/6,5/6,2b/8b,,
{8}5h[8:3]/6,,,7,5/6h[4:1],,5,,
{8}3/4h[8:3],,,2,3/5h[4:1],,4,,
{16}5/6,,,,3/4,,,,2/6,,2,,5,5,5,,
{4}3-7[8:1]/7-3[8:1],,1-5[8:1]/5h[4:1],1b,
{32}3/7,,,,,,,,3/7,,,,5,,,,2/6,,,,4,,,,3/7,,,,3h[32:3]/7,6,5,4,
{32},,,,1/6h[32:3],2,3,4,,,,,7,,,,7/8,,,,,,,,2/6,,,,2/6h[32:3],3,4,5,
{32},,,,3h[32:3]/8,7,6,5,,,,,2,,,,1/2,,,,,,,,1/7,,,,1h[32:3]/7,6,5,4,
{32},,,,2/8h[32:3],3,4,5,,,,,7,,,,5-1[8:1]/7-4[8:1],,,,,,,,5b/7b,,,,,,,,
{32}2/8,,,,3/7,,,,4/6-3[8:1],,,,,,,,1/6,,,,,,,,2/8,,,,2h[32:3]/8,7,6,5,
{32},,,,1/7h[32:3],2,3,4,,,,,7,,,,7/8,,,,1/6,,,,2/5,,,,,,,,
{32}3h[32:3]/7,6,5,4,,,,,1/5h[32:3],2,3,4,,,,,3h[32:3]/8,7,6,5,,,,,1/6h[32:3],2,3,4,,,,,
{4}C1f/B6/E6/B7/E8,C1f/E2/B2/B3/E4,E1/C1f/E5,2b/7b-5[8:1],
{4}7/8-4[8:1],1-3[8:1]/8,1-5[8:1]/5,1/6-1[8:1],
{48}4-8[8:1]/6,,,,,,,,,,,,4/8,,,,,,,,,,,,1,E2,B2,B3,E4,,7,E7,B6,B5,E5,,1b,,,,,,,,,,,,
{48}3-8[8:1]/8,,,,,,,,,,,,3/5-1[8:1],,,,,,,,,,,,1/5,,,,,,,,,,,,8,E8,B7,B6,E6,,2,E3,B3,B4,E5,,
{4}8bw4[8:1],8b,8bw4[8:1],8b,
{16}1b/7b,,,,2h[8:1]/4h[8:1],,,,5h[8:1]/7h[8:1],,,,4/5,,3,4,
{16}2,,1/2,,3/8,,6,5,7,,7/8,,1,6,1,6,
{16}1,2,3,4,2,3,4,5,3,4,5,6,4,5,6,7,
{4}4/8-3[8:1],6-1[8:1],4-8[8:1],3/4>6[4:1],
{4}4/5,4b<2[4:1],3/4,4b>6[4:1],
{4}4/5,4b<2[4:1],3/4,4b>6[4:1],
{4}4/6,4b<2[4:1],2/4,4b-8[8:1],
{32}4/8,,,,,,,,2,3,4,5,8,7,6,5,1-5[8:1],,,,,,,,8b<2[4:1],,,,,,,,
{4}2/8,8b>6[4:1],6/8,8b<2[4:1],
{4}2/8,8b>6[4:1],6/8,8b,
{16}1h[8:1]/8h[8:1],,,5h[8:1]/7h[8:1],,,4h[8:1]/5h[8:1],,,2h[8:1]/4h[8:1],,,1,5,3,7,
{4}1s5[8:3],4,8,3-8[8:1]/7-4[8:1],
{48}3b/7b,C1f,,,,,,,,,,,,,,,,,,,,,,,,,,,,,,,,,,,,,,,,,,,,,,,
{1},
{1},
{1},
E
