&title=BLACK ROSE
&wholebpm=145
&artist=S!N・+α/あるふぁきゅん。×ALI PROJECT
&des=はっぴー
&shortid=11001
&genre=maimai
&cabinet=DX
&version=maimai DX
&chartconverter=Neskol
&lv_2=2
&des_2=-
&lv_3=6
&des_3=-
&lv_4=9+
&des_4=はっぴー
&lv_5=12
&des_5=はっぴー
&des_6=
&inote_2=
(145){1},
{1},
{1},
{1},
{1},
{2}1,1,
{1}1x,
{2}2,2,
{1}2x,
{2}3,3,
{1}3x,
{2}4,4,
{1}4,
{2}4/5,4/5,
{1}4xh[1:1]/5xh[1:1],
{1},
{2}4,4,
{2}5,5,
{1}4h[1:1],
{1},
{1}5h[1:1],
{1},
{1}B4,
{1}B5,
{1}B3,
{1}B6,
{1}C1hf[1:3],
{1},
{1},
{1},
{2}1,1,
{2}2,2,
{2}3,3,
{1}4/5,
{2}6,6,
{2}7,7,
{1}1h[1:1]/8h[1:1],
{1},
{4}7,7,7,,
{4}6,6,6b,,
{4}5,5,5,,
{4}4,4,4b,,
{4}3,3,3,,
{4}2,2,2,,
{1}1-5[4:3],
{1},
{1}8h[1:1],
{1},
{1}1h[1:1],
{1},
{2}8,8,
{2}7,7-3[4:3],
{1},
{1},
{2}2,2,
{4}3,3,3,,
{2}4,4,
{4}5,5,5,,
{2}6,6,
{4}7,7,7,,
{2}8,8,
{2}1,1,
{2}1/8,1/8,
{1}1-4[4:3]/8-5[4:3],
{1},
{1}B3,
{1}B2,
{1}B1,
{1}B8,
{1}B7,
{1}B6,
{1}B5,
{1}B4,
{1}B4/B5,
{1}B3/B6,
{1}C1f,
{4}1,1,1,,
{4}2,2,2,,
{4}3,3,3,,
{4}4x,5x,4x,,
{4}6,6,6,,
{4}7,7,7,,
{1}8h[1:1],
{1},
{2}1/8,1/8,
{1}1-4[4:3]/8-5[4:3],
{1},
{1}B4/B5,
{1}B3/B6,
{1}C1f,
{1},
{1},
{1},
E
&inote_3=
(145){1},
{1}3h[1:1],
{2}4,3/4,
{1}6h[1:1],
{2}5,5/6,
{4}7,7,7/8,,
{4}2,2,1/2,,
{4}7,8,1,2,
{4}1/8,1/8,2x/7x,,
{4}3,3,3/4,,
{4}6,6,5/6,,
{4}3,4,5,6,
{4}4/5,4/5,3x/6x,,
{1}2-5[2:1],
{1}6<3[4:5],
{1},
{4}3h[2:1],4,4,,
{4}6h[2:1],5,5,,
{2}3h[2:1],2h[2:1],
{2}1h[2:1],8,
{2}7h[2:1],6h[2:1],
{2}5h[2:1],4,
{1}2-5[2:1],
{1}6-1[2:1],
{1}1pp4[4:5]/8qq5[4:5],
{1},
{4}B3,C1,B6,,
{4}B7,C1,B2,,
{2}B5/B6,B3/B4,
{1}C1hf[2:1],
{4}2,2,1/8,,
{4}7,7,1/8,,
{4}6,6,4/5,,
{4}3,3,4/5,,
{4}6,6,7,7,
{4}8,8,1,1,
{4}2,2,3,3,
{4}4/5,3/6,2b/7b,,
{4}3,4,3/5,,
{4}6,5,4/6,,
{4}7,8,1/7,,
{4}2,1,2/8,,
{4}7,7,6,6,
{4}5,5,4,4,
{4}3,3,2,2,
{4}1/8,2/7,3b/6b,,
{4}B2,C1,B6,,
{4}B7,C1,B3,,
{4}B6,C1,B2,,
{4}B3,C1,B7,,
{2}B4/E6,E4/B5,
{2}E2/B8,B1/E8,
{1}C1hf[1:1],
{1},
{8}2,2,2,,1/8,,2/7,,
{8}8,8,8,,2x/7x,,,,
{8}6,6,6,,4/5,,3/6,,
{8}4,4,4,,3x/6x,,,,
{8}2,2,2,,1/8,,2/7,,
{8}6,6,6,,5x/7x,,,,
{4}4,3,2,1,
{4}7/8,7/8,1b/6b,,
{1}7-4[2:1],
{1}3>6[4:5],
{1},
{1}6h[1:1],
{1}5h[1:1],
{1}4h[1:1],
{2}3h[2:1],4,
{1}2h[1:1],
{1}1h[1:1],
{1}8h[1:1],
{2}7h[2:1],8,
{1}8-5[2:1],
{1}4-1[2:1],
{1}1-4[2:1]/8-5[2:1],
{8}6,6,6,,4/5,,3/6,,
{8}4,4,4,,3x/6x,,,,
{8}2,2,2,,1/8,,2/7,,
{8}8,8,8,,2x/7x,,,,
{8}6,6,6,,4/5,,3/6,,
{8}2,2,2,,1x/3x,,,,
{4}8,7,6,5,
{4}3/4,3/4,2b/5b,,
{1}2-5[2:1],
{1}6<3[4:5],
{1},
{2}B5/E6,E4/B4,
{2}B3/B6,B2/B7,
{1}C1hf[1:1],
{1},
{1},
{1},
E
&inote_4=
(145){1},
{4}4/6h[1:2],5,,5,
{4},5,,4,
{4}3h[4:7],4,,4,
{4},4,,6,
{4}7h[4:1],5,2h[4:1],4,
{8}1,8,1>4[4:1]/8<5[4:1],,,,,,
{2}6-3[4:1],2-7[4:1],
{4}8h[4:1],1,2x/7x,4/5,
{4}2h[4:1],4,7h[4:1],5,
{8}8,1,1-5[4:1]/8-4[4:1],,,,,,
{4}4/6h[4:3],4,5,4,
{4}3h[4:3]/5,5,4,5,
{8}4h[4:1],,5,5h[4:1],,3h[4:1],,1<2[8:7],
{1},
{1},
{8}5,4,3h[4:1],,4,5,6h[4:1],,
{8}5,4,3h[4:1],,4,5,6>8[1:1],,
{1},
{2},4/5,
{4}E6,B5,B4,E4,
{1}C1xh[2:1],
{4}E7,E8,E1,C1,
{4}E3,E2,E1,,
{4}E5,C1,E1,,
{1}C1xh[2:1],
{2}2-5[4:1],6-1[4:1],
{4}3<6[4:1],,8,4/6,
{2}7-4[4:1],3-8[4:1],
{4}6>3[4:1],,1,4b/5b,
{8}4/6h[4:1],,5>2[4:1],,,,8,8,
{4}1/8,5-1[4:1]/7,,8,
{8}3h[4:1]/5,,4<7[4:1],,,,1,1,
{4}1/8,2/4-8[4:1],,1,
{8}4/6h[4:1],,5>2[4:1],,,,8,8,
{4}1/8,5-1[4:1]/7,,8,
{2}2h[4:3]/4h[4:1],5h[4:3],
{2}4h[4:3],7h[4:1],
{8}3/4,,1/2>5[4:1],,,,8,8,
{8}1,1,2-6[4:1],,,,,,
{8}5/6,,7<4[4:1]/8,,,,1,1,
{8}8,8,7-3[4:1],,,,,,
{8}3/4,,1>4[4:1]/8,,,,8,8,
{8}1,1,2/7,2h[8:3]/7h[8:3],,,,,
{8}6,6,5,3,3,4,6,6,
{8}5,3,3,4,4/5,,3/6,,
{4}7/8,7<3[8:3]/8p2[8:3],,,
{4}1/2,1q7[8:3]/2>6[8:3],,,
{4}5/6,5q3[8:3]/6<2[8:3],,,
{4}3/4,3>7[8:3]/4p6[8:3],,,
{4}2-5[4:1]/8-4[4:1],,,3/6,
{4}1-5[4:1]/7-4[4:1],,,3/6,
{8}7,7,8,8,1,1,2,,
{4}3h[4:1],4h[4:1],5h[4:1],6,
{8}6,5,4,3,3,4,5,6,
{4}6-3[4:1],2-7[4:1],,8,
{8}6,6,5,3,3,4,4/5,,
{4}5/7,2/4,1b/8b,,
{8}3,4,5,6,6,5,4,3,
{4}2-6[4:1],7-3[4:1],,1,
{4}2h[4:1],3h[4:1],4h[4:1],5,
{4}7h[4:1],6h[4:1],5h[4:1],4,
{8}1,1,8,8w4[4:1],,,,,
{8},2/6,2h[2:1]/6h[2:1],,,,,,
{1}C1hf[2:1],
{4}6,5/7,3,2/4,
{8}6,6,4,4,8,8,1/8,,
{4}3,2/4,6,5/7,
{8}3,3,5,5,1,1,1/8,,
{4}5,3/7,4,2/6,
{8}5,5,4,4,8,8,2/8,,
{4}4,2/6,5,3/7,
{8}4,4,5,5,4,4,4/5,,
{8}B5/E6,,B4/E4,,E3,C1,E7,,
{8}B2/E2,,B7/E8,,E5,C1,E1,,
{1}C1hf[2:1],
{8}2,3,4,5,5,4,3,2,
{4}1-4[4:1],5-8[4:1],,1,
{8}7,7,8,2,2,1,1/8,,
{4}E3/E7,E1/E5,C1f,,
{8}7,6,5,4,4,5,6,7,
{4}8-5[4:1],4-1[4:1],,8,
{4}6h[4:1],5,3h[4:1],4,
{4}5h[4:1],4,4h[4:1],5,
{8}7,6,5,4h[4:1],,5,4,3h[8:5],
{8},6,6h[2:1],,,,5<4[4:3],,
{1},
{8}E7,E6,E5,,E3,E4,E5,,
{8}E8,E7,E6,,E2,E3,E4,,
{1}C1f,
{1},
{1},
{1},
E
&inote_5=
(145){1},
{2}1>4[4:1],8<5[4:1],
{8}4,4,4,4,4,4,4,,
{2}8<5[4:1],1>4[4:1],
{8}5,5,5,5,5,5,4/5,,
{8}5<8[8:1],6,4,,4>1[8:1],3,5,,
{24}6,,,5,,,4,,,3,,,3,,4,,2,,6,,5,,7,,
{16}4>1[8:1],,3,,5,,,,5<8[8:1],,6,,4,,,1,
{4}1-5[8:1],8-4[8:1],1,2/7,
{8}4>1[8:1],3,5,,5<8[8:1],6,4,,
{24}3,,,4,,,5,,,6,,,6,,5,,7,,3,,4,,2,,
{4}8<5[8:1],3,4>1[8:1],7,
{4}8<5[8:1],3,4>1[8:1],8,
{8}6,5,4,3h[4:1],,4,5,6h[4:1],
{8},1,1>8[1:1],,,,,,
{1},
{16}8<5[8:1],,4,,2,,,1,1>4[8:1],,5,,7,,,,
{16}8<5[8:1],,4,,2,,,1,1>4[8:1],,5,,7,,,,
{1}C1xh[2:3],
{1},
{8}5/6,4,3,3,3/4,5,6,6,
{2}5/6>3[8:1],4/5,
{8}2/5,5,6,7,4/7,4,3,2,
{8}2/5,5,6,7,4/7,4,3,2,
{4}2/5,3/6,4>1[8:1]/7,5<8[8:1],
{2}1h[2:1],C1f,
{8}E6,E2,E7,E3,E8,E4,E1,E5,
{8}B7,B3,B6,B2,B4/B5,,3/6,,
{8}E4,E8,E3,E7,E2,E6,E1,E5,
{8}B2,B6,B3,B7,B4/B5,,3/6,,
{16}3h[16:3]/5,,,4,3,,3,,2/5,,1,,8,,7,,
{8}4/6,3,2-7[8:1],5,6-3[8:1],,1,,
{16}4/6h[16:3],,,5,6,,6,,4/7,,8,,1,,2,,
{8}3/5,6,7-4[8:1],4,3-8[8:1],,6,,
{16}4/6h[16:3],,,5,6,,6,,4/7,,8,,1,,2,,
{8}3/5,6,7<4[8:1],3,2-6[8:1],,8,8,
{8}7>2[8:1],,,3,3<6[8:1],,8,,
{8}7>2[8:1],,,4,4,,3/6,6,
{12}6,5,7,3,4,2,2h[4:1],,,4>1[8:1],,,
{8},,1>4[8:1]/5,,8h[4:1],,4,3,
{12}3,4,2,6,5,7,7h[4:1],,,5<8[8:1],,,
{8},,4/8<5[8:1],,1h[4:1],,5,6,
{12}6,5,7,3,4,2,2h[4:1],,,4-8[8:1],,,
{4}1,1-5[8:1]/5,8h[4:1],5>1[4:1],
{4},4<8[4:1],,5>1[4:1],
{4},4<8[4:1],,,
{4}7-5[8:1]/8-4[8:1],7x/8x,1-5[8:1]/2-4[8:1],1x/2x,
{8}2h[8:1],4h[8:1],5h[8:1],7,7h[8:1],5h[8:1],4h[8:1],2,
{4}1-5[8:1]/2-4[8:1],1x/2x,7-5[8:1]/8-4[8:1],7x/8x,
{8}7h[8:1],5h[8:1],4h[8:1],2,2h[8:1],4h[8:1],5h[8:1],7,
{2}4-1[8:1]/8-5[8:1],1-4[8:1]/5-8[8:1],
{2}4-1[8:1]/8-5[8:1],1-4[8:1]/5-8[8:1],
{16}4,5,4,5,3,6,3,6,4,5,3,6,2,7,1x,,
{12}6,5,8,3,4,1,6,5,7,3,4,2,
{8}6>3[8:1],3,1,1,3<6[8:1],6,8,8,
{24}7-4[8:1],,,3-8[8:1],,,,,,,,,6,,5,,7,,3,,4,,2,,
{16}6-3[8:1],,6,,1>6[4:1],,1,,7,,7,,8-5[8:1],,,4,
{12}4-1[8:1],,,5,,,3,4,2,6,5,7,
{8}3<6[8:1],6,8,8,6>3[8:1],3,1,1,
{24}2-6[8:1],,,8-5[8:1],,,,,,,,,3,,4,,2,,6,,5,,7,,
{4}2h[2:1],4,7h[2:1],5,
{4}1h[2:1],4,8h[2:1],5,
{8}1,1,8,8h[4:1],,4,3,2h[4:1],
{8},E5,C1hf[4:3],,,,,,
{1},
{8}3/5,3,3/4,3,3/5,3,3/5,3,
{8}3/4,3,3/5,3,3/4,3,3/4,3,
{8}3/5,3,4/6,4,5/7,5,6/8,6,
{8}5/7,5,4/6,4,3/5,3,3/4,3,
{8}4/6,6,5/6,6,4/6,6,4/6,6,
{8}5/6,6,4/6,6,5/6,6,5/6,6,
{8}4/6,6,3/5,5,2/4,4,1/3,3,
{8}2/4,4,3/5,5,4/6,6,5/6,6,
{8}4/5<8[8:1],4,4,4,3/8<5[8:1],3,3,3,
{8}4>1[8:1]/5,5,5,5,1>4[8:1]/6,6,6,6,
{8}4/5<8[8:1],4,4,4,3/8,3,4/5,,
{8}4-8[8:1]/6>3[8:1],4/6,,,3<6[8:1]/5-1[8:1],3/5,,,
{24}7,,,5,,,4,,,2,,,E7,,E3,,E6,,E5,,E8,,E1,,
{8}3<6[8:1]/5-1[8:1],3/5,,,4-8[8:1]/6>3[8:1],4/6,,,
{4}1-5[8:1]/8-4[8:1],1x/8x,3b/6b,1/8,
{8}3<6[8:1]/5-1[8:1],3/5,,,4-8[8:1]/6>3[8:1],4/6,,,
{24}2,,,4,,,5,,,7,,,E3,,E7,,E4,,E5,,E2,,E1,,
{4}3h[2:1],4,6h[2:1],5,
{4}1h[2:1],4,8h[2:1],5,
{8}1,1,8,8h[4:1],,4,3,2h[4:1],
{8},E5,C1hf[4:3],,,,,,
{1},
{8}1>4[8:1],4,4,,8<5[8:1],5,5,,
{8}1>4[8:1],4,4,,8<5[8:1],5,5<4[2:3],,
{1}4,
{1},
{1},
{1},
E
