&title=管弦楽組曲 第3番 ニ長調「第2曲(G線上のアリア)」BWV.1068-2
&wholebpm=180
&artist=月鈴 那知(ヴァイオリン) 伴奏:イロドリミドリ
&des=小鳥遊さん
&shortid=11025
&genre=オンゲキCHUNITHM
&cabinet=DX
&version=maimai DX
&chartconverter=Neskol
&lv_2=5
&des_2=-
&lv_3=7+
&des_3=-
&lv_4=10
&des_4=サファ太
&lv_5=13+
&des_5=小鳥遊さん
&des_6=
&inote_2=
(180){1},
{1},
{1}1xh[2:3],
{1},
{1}8xh[2:3],
{1},
{1}1-4[4:3],
{1},
{1}8-5[4:3],
{1},
{1}4xh[2:3],
{1},
{2}5,5,
{2}6,6,
{1}7xh[2:3],
{1},
{2}8,8,
{2}1,1,
{1}2-5[4:3],
{1},
{1}7-4[4:3],
{1},
{1}3xh[4:3]/4xh[4:3],
{2},3x/4x,
{1}5xh[4:3]/6xh[4:3],
{2},5x/6x,
{2}4,4,
{2}3,3,
{2}2,2,
{1}1/8,
{2}8,8,
{2}7,7,
{2}6,6,
{1}4b/5b,
{1}3-8[4:3],
{1},
{1}6-1[4:3],
{1},
{1}2h[2:1],
{2}2,3,
{2}4,5,
{4}6,6,6,,
{1}7-2[4:3],
{1},
{2}1,1,
{2}8,8,
{1}1-4[4:3],
{1},
{2}5,5,
{1}4b/5b,
{1}B3,
{1}B2,
{1}B1,
{1}B8,
{1}B7,
{1}B6,
{1}B5,
{1}B4,
{1}B3/B6,
{1}E3/E7,
{1}C1hf[1:1],
{1},
{1}1h[1:1],
{2},1,
{1}8h[1:1],
{2},8,
{2}1,1,
{2}2,2,
{1}3h[1:1]/4h[1:1],
{1},
{2}4,4,
{2}5,5,
{2}6,6,
{2}7,7,
{1}8-4[4:3],
{2},1,
{1}1-5[4:3],
{2},8,
{1}1b/8b,
{1}1xh[2:3]/2xh[2:3],
{1},
{1}3xh[2:3]/4xh[2:3],
{1},
{4}4,4,4,,
{4}5,5,5,,
{1}4h[2:1]/6h[2:1],
{1}4/6,
{1}7xh[2:1]/8xh[2:1],
{1}7xh[2:1]/8xh[2:1],
{4}6,6,6,,
{4}5,5,5,,
{1}3xh[2:1]/4xh[2:1],
{1}3xh[2:1]/4xh[2:1],
{4}2,2,2,,
{4}1,1,1,,
{1}1x-6[4:3]/2x-5[4:3],
{2},7,
{1}7x-4[4:3]/8x-3[4:3],
{2},2,
{4}1,1,1,,
{4}8,8,8,,
{1}1h[2:1]/8h[2:1],
{1}2h[2:1]/7h[2:1],
{1}1x-4[4:3]/8x-5[4:3],
{1},
{1}3xh[1:4]/6xh[1:4],
{1},
{1},
{1},
{2},C1f,
{1},
{1},
{1},
E
&inote_3=
(180){1},
{1},
{1}4>8[4:5],
{1},
{1}7<3[4:5],
{1},
{1}2q5[4:5],
{1},
{1}3h[2:1]/6h[2:1],
{4}4/5,4/5,3b/6b,,
{4}4,3,2,1,
{4}8,7,5/6,,
{4}3,3,3/4,,
{2}4h[4:1]/5h[4:1],3/6,
{4}5,6,7,8,
{4}1,2,3/4,,
{4}6,6,5/6,,
{2}4h[4:1]/5h[4:1],3x/6x,
{4}2,2,1,1,
{4}8,8,1/7,,
{4}6,6,5,5,
{4}4,4,3/5,,
{1}4xq5[1:1],
{1},
{1}6x<3[1:1],
{2},4x/5x,
{2}6h[2:1],5,
{4}4,4,4/5,,
{2}3h[2:1],4,
{4}5,5,4/5,,
{2}7h[2:1],8,
{4}2,2,1/2,,
{1}1-4[4:3]/8-5[4:3],
{2},3x/6x,
{2}2h[2:1],3h[2:1],
{2}4,4/5,
{2}6h[2:1],7h[2:1],
{2}8,1/8,
{1}2h[2:1]/4h[2:1],
{1}5h[2:1]/7h[2:1],
{2}6h[2:1],5h[2:1],
{2}4h[2:1],3,
{1}2x-5[4:3],
{2},6,
{1}7-4[4:3],
{2},2,
{1}1-5[4:3],
{2},7,
{1}8-4[4:3],
{2},3x/6x,
{2}E4,E3,
{2}E2,E1,
{2}B1/B8,B2/B7,
{1}C1xh[2:1],
{4}E7,B6,B5,,
{4}E3,B3,B4,,
{2}B1/B8,B2/B7,
{1}C1xh[2:1],
{4}1/8,1/8,2/7,2/7,
{4}3/6,3/6,4h[4:1]/5h[4:1],,
{4}4/5,6,4/5,3,
{4}4/5,4/5,3/6,2/7,
{4}1b/8b,,2/4,3,
{4}4,5,4/5,,
{4}5h[4:1]/7h[4:1],,5/7,6,
{4}5,4,4/5,,
{4}3h[2:1],4,5,,
{4}6h[2:1],5,4,,
{4}2h[2:1],1,8,,
{2}1h[4:1]/8h[4:1],2/7,
{4}3h[4:1],4,2/5,,
{4}6h[4:1],5,4/7,,
{1}5h[2:1]/6h[2:1],
{1}3h[2:1]/4h[2:1],
{1}2>7[4:5],
{1},
{1}1pp4[4:5]/8qq5[4:5],
{1},
{4}3xh[2:1]/6xh[2:1],,,2b/7b,
{4}1,1,2,2,
{4}3,4,5/6,7,
{4}8,8,7,7,
{4}5/6,4,3x/5x,,
{4}2,2,1,1,
{4}2,1/2,3/8,,
{4}7,7,8,8,
{4}7/8,1/6,2b/5b,,
{4}1,2,3/4,3/4,
{8}5,5,5,,4/6,,,,
{4}8,7,5/6,5/6,
{8}4,4,4,,3x/5x,,,,
{4}4,3,1/2,1/2,
{8}8,8,8,,1/7,,,,
{4}5,6,7/8,7/8,
{8}1,1,1,,2x/8x,,,,
{8}7,7,7,,5/6,,5/6,,
{8}4,4,4,,3/5,,,,
{8}3,3,3,,1/2,,1/2,,
{8}8,8,8,,1/7,,,,
{4}6h[4:1],5,4,3,
{4}3h[4:1],4,2/5,,
{8}3,3,3,,5,5,5,,
{8}4,4,4,,6,6,6,,
{8}2xh[8:3]/7xh[8:3],,,,,,1x/8x,1x>8[8:35]/8x,
{1},
{1},
{1},
{1},
{1},
{2},C1f/B2/B7,
{1},
{1},
{1},
E
&inote_4=
(180){1},
{1},
{4}2xh[1:1]/4x,,,3<8[4:3],
{1},
{4}5x/7xh[1:1],,,6>1[4:3],
{1},
{4}8h[2:1],,7h[4:1],6h[4:1],
{4}5h[4:1],4h[4:1],3h[4:1],2,
{8}1/2,,3,2/4,,6,5/7,,
{8}4,4,5,,2b/7b,,,,
{16}3h[16:3],,,4,,,2/5,,6h[16:3],,,5,,,4/7,,
{16}3h[16:3],,,4,,,2/5,,2/5,,,,1,,,,
{4}5/6h[4:1],2,3h[4:1]/4,7,
{4}6h[4:1],5h[4:1],4h[4:1],3,
{16}2h[16:3],,,1,,,3/8,,7h[16:3],,,8,,,1/6,,
{16}2h[16:3],,,1,,,3/8,,3/8,,,,7,,,,
{4}5/6h[4:1],2,3h[4:1]/4,7,
{4}1x/8x,2x,3x,4x,
{8}5/6,,8,8,,6h[4:1],,5,
{8},4/7,,6,6,,4/5,,
{4}3h[2:1]/6,6,4,1,
{4}2/7h[2:1],2,8,5,
{8}2x,,3/4,3/4,,5/7,5/7,,
{8}1/2,1/2,,7/8,7/8,,1/6,,
{8}4/5,,7,5/7,,2,2/4,,
{8}7,7,8,,1b/6b,,,,
{2}8<5[4:1],1>4[4:1],
{4}8,7,6h[4:1],5,
{2}4>1[4:1],5<8[4:1],
{4}1,2,3h[4:1],4,
{4}5,6,8,5/7,
{4}4,3,1,2/4,
{4}3<6[4:1],,,7,
{4}6>3[4:1],,,2/7,
{4}3h[4:7],5,4,4,
{4}6,5,4,4,
{4}2,1/2,7,7/8,
{8}6,,5/6,,4,4,5,,
{4}3h[4:1]/6h[4:1],,5/7,4,
{4}3h[4:1]/6h[4:1],,2/4,5,
{4}6,8,3,1,
{1}C1xh[2:1],
{2}3-5[4:1],8-6[4:1],
{1}1s5[2:1],
{8}6,6,6h[4:1],,5,,8,,
{8}3,3,3h[4:1],,4,,1,,
{2}7-1[4:1],2-5[4:1],
{4}7-3[4:1],,1,1/8,
{4}2h[4:1],3h[4:1],4,4/5,
{4}7h[4:1],6h[4:1],5,4/5,
{4}3h[2:1]/4,,E5,C1,
{4}E8,E7,E6,E5,
{4}3h[2:1]/4,,E6,C1,
{4}E2,E3,E4,E5,
{4}6h[4:1],B6,3h[4:1],B3,
{4}5h[4:1],E5,4,4/5p4[8:5],
{4},,,3>6[8:5],
{4},,,4x/5x,
{8}3/4,3/4,,5/6,5/6,,4/5,,
{8}3,3,5,5,4,4,6,6,
{16}4,5,4,5,4,5,4,5,4,5,4,,3/6,,,,
{16}3x/5x,,,3x/5x,,,4x/6x,,,4x/6x,,,4x/5x,,,,
{8}2b/7b,,,,4/5,,3,3<6[8:3],
{4},7x,8x,1x,
{8}2h[8:3]/4,,,3,,3>8[8:3]/4,,5xh[8:5],
{4},,,6,
{8}1b/7b,,,,5/6,,7,7<4[8:3],
{4},3x,2x,1x,
{8}8h[4:1],,,1h[4:1]/7h[4:1],,,2h[4:1]/6h[4:1],,
{8},3h[4:1]/5h[4:1],,,3/5,,4/5,,
{4}4/6,8h[4:1],2h[4:1],4,
{4}E4,C1,E1/E7,,
{4}2/8,4h[4:1],6h[4:1],8,
{4}E8,C1,E3/E5,,
{1}4>5[1:1]/5,
{4},,4x/5x,3x/4x<3[2:3],
{1},
{1},
{4}C1xh[2:1],,,1/8,
{8}2b/7-4[8:1],,2,,3,3,4,,
{8}2-5[8:1]/8,,7,,6,6,5,,
{8}4/6-1[8:1],,3,,2,2,1,,
{2}1-5[8:1]/8-4[8:1],2-4[8:1]/7-5[8:1],
{4}2x/7x,,2h[4:1]/5,4h[4:1],
{4}5h[4:1],7h[4:1],5h[4:1],4h[4:1],
{2}3-8[8:1],5-1[8:1],
{4}2,3/5,4/6,1/8,
{8}2b,2,4,4,2,2,8,8,
{8}1,1,7,7,5,5,6,,
{2}7-4[8:1]/8-3[8:1],1-6[8:1]/2-5[8:1],
{4}4x/7x,5x/6x,3x/4x,2x/5x,
{8}7b,7,5,5,7,7,1,1,
{8}4,4,2,2,7,7,8,,
{2}5-2[8:1]/6-1[8:1],3-8[8:1]/4-7[8:1],
{4}1x/6x,2x,3x/8x,5b/6b,
{8}7,7,5,6,2,2,4,3,
{8}6,6,5,,1/8,,2/4,,
{8}3,3,4,2,6,6,5,7,
{2}1-5[8:1],4-1[8:1]/6-1[8:1],
{8}3,3,5,5,2h[4:1],,1,,
{4}7/8,5/6,3/4,1x/8x,
{8}5/6,5/6,4/7,4/7,3/8,3/8,1b/2b,,
{8}3/4,3/4,2/5,2/5,1/6,1/6,7b/8b,,
{8}1x/6x,,,4x/7x,,,7x/8x,1bqq4[8:35]/6xh[8:37],
{1},
{1},
{1},
{1},
{1},
{2},C1f/B2/E3/B3/B6/B7/E7,
{1},
{1},
{1},
E
&inote_5=
(180){1},
{1},
{1}4xqq8[2:3]/8xh[4:3],
{4}7,7,6,6,
{1}1xh[4:3]/5xpp1[2:3],
{4}2,2,3,3,
{4}4/8xh[2:1],,1h[4:1],2h[4:1],
{4}3h[4:1],4h[4:1],5h[4:1],6<3[2:1],
{4}1h[2:1],,,3>6[2:1],
{4}8h[2:1],,,2b/7b,
{16}3/4,,,5,4,,6,,5/7,,,4,5,,3,,
{16}2/4,,,5,4,,6,,5/7,,8,,1/8,,,,
{4}2b/7b,7h[4:1],5h[4:1],4h[4:1],
{4}2h[4:1],1h[4:1],3h[4:1],4,
{16}5/6,,,4,5,,3,,2/4,,,5,4,,6,,
{16}5/7,,,4,5,,3,,2/4,,1,,1/8,,,,
{4}2b/7b,2h[4:1],4h[4:1],5h[4:1],
{4}7h[4:1],B6/B7,C1,B2/B3,
{8}1/8,,3/4,,6,5,4,3h[8:3],
{8},1,1,,3/4,,2/5,,
{8}1/8,,5/6,,3,4,5,6h[8:3],
{8},8,8,,5/6,,4/7,,
{8}3/8<5[8:1],,4,4>1[8:1],,6,6>3[8:1],,
{8}2,2<7[8:1],,5,5,,2b/7b,,
{8}4>5[1:1]/5,,,C1xh[8:7],,,,,
{4},,1/8,2b/7b,
{8}3<6[8:1]/6,,,,7,8,1,2h[4:1],
{8},3,2h[8:1],1,2h[8:1],4,2h[8:1],8,
{16}2,,,,4,6,3,5,2,,1,,8,,7h[4:1],,
{8},6,7h[8:1],8,7h[8:1],5,7h[8:1],1,
{12}7,,,6,6,6,5/7,,,3,3,3,
{8}2/4,,1/8,2/7h[4:1],,6,5,4,
{8}3<6[8:1],,8,7,,3/7,2/6,1qq4[8:3]/5<3[8:3],
{4},,,2b/7b,
{8}5>2[8:1]/6,,1,,7,8,1/6,,
{8}3/4<7[8:1],,8,,2,1,3/8,,
{2}5q1[8:1]/6<8[8:1],1>3[8:1]/8q4[8:1],
{8}4<7[16:3]/5>2[16:3],,,,,1/8,2/7,,
{12}4h[4:1]/5h[4:1],,,,,,3,5,3,6,4,6,
{12}2,4,3,7,5,6,1,4,3,8,5,6,
{8}4/7,,3/4,2/5,,5/6,4/7,,
{8}8h[8:1],7h[8:1],6h[8:1],5h[8:1],4h[8:1],3h[8:1],2h[8:1],1,
{8}2b/7b,8<6[8:1],1,2,,1<6[8:1],2,3,
{8},2<5[8:3],3,4h[4:3],,,,,
{16},,5h[8:1],,1,2,3,4,1,8,7,6,1,2,3,4,
{16}6,5,4,3,2,1,8,7,3,4,5,6,7,8,1,2,
{8}5<8[8:1],,2,3,4>1[8:1],,7,6,
{4}5-1[8:1],5>2[8:1]*<8[8:1],5w1[8:1],5,
{16}3,4,3,,2/5,,6,5,6,,4/7,,3,4,3,,
{16}E7,B6,B5,E5,E1,B1,B2,E3,E8,B7,B6,E6,E2,B2,B3,E4,
{8}C1f,,1/8,,8<5[16:3],8,1v4[16:3],1,
{16},,8,7,6,,,,3/4,,,,6,5,4,,
{16},,,,8,7,6,5,1,8,7,6,5,,7h[4:1],,
{16},,4,6,4,5,3,5,4h[8:1],,,3h[8:1]/5h[8:1],,,2b/6b,,
{16},,,,2,4,2,4,3,5,3,5,4,6,4,6,
{4}5qq4[8:1],7qq6[8:1],1pp2[8:1],8,
{4}8V63[4:1],3>7[4:1],7V14[4:1],4<8[4:1],
{4}8-3[4:1],3s7[16:5],,,
{16}4,,4/5,,,,6,6,5,,,,4/5,,4/5,,
{16}5,4,5,4,5,4,5,4,6,,3,3,4,,,,
{16}1,1,2,2,3,3,4,4,5,5,6,6,7,7,8,8,
{16}1h[8:1],,,2/3,,,8h[8:1],,,6/7,,,1b/8b,,,,
{8}4x>1[8:1]/7x<4[8:1],,,,1,8,7,6pp3[8:5],
{4},E3,E5,E1,
{8}2h[4:1]/3h[4:1],,,E2/E3/E4,,E6/E7/E8,,E1/C1f/E5,
{4},,5/6,3/4,
{8}2>5[8:1]/5<8[8:1],,,,8,1,2,3qq6[8:5],
{4},E7,E5,E1,
{8}2b/7b-3[8:1],,1,2b-5[8:1],,7,6b-1[8:1],,
{8}2,3b-6[8:1],,8,7,,1b/5b,,
{8}3/4,,2/5,3,4,3,2/5,3,
{16}4,,3,,2/5,,3,3,4,,3,,2/5,,,,
{8}5/6,,4/7,6,5,6,4/7,6,
{16}5,,6,,4/7,,6,6,5,,6,,4/7,,,,
{8}1>4[8:1]/6,,5,5<8[8:1],,3,3<6[8:1],,
{8}7,7>2[8:1],,4,4,,2b/7b,,
{8}4/5<4[1:1],,,C1xh[8:7],,,,,
{4},,1/8,2b/7b,
{16}4/6,,,3/5,,,4/6,,3,2,1,8,7,6,5,4,
{8}3x/7x,,4/6,,1/2,3,4/5,6,
{8}7-3[8:1]/8,,2,2h[4:1],,3h[4:1],,4,
{8}4/5,,3/6,,7/8,6,4/5,3,
{8}1/2-6[8:1],,7,7h[4:1],,6h[4:1],,5,
{4}4b/7b,,7/8-4[8:1],2-6[8:1]/8,
{4}2/5-1[8:1],3-6[8:1]/5,3/8-4[8:1],2>1[2:1]/8,
{4}2/5h[2:1],,,7<8[2:1],
{4}3h[2:1],,,2b/7b,
{16}4x,5,4,5,4,5,4,5,3,6,3,6,3,6,3,6,
{16}4,5,4,5,3,6,3,6,4,5,4,5,3,6,3,6,
{16}4,5,4,5,4,5,4,5,3,6,3,6,3,6,3,,
{16}4x/5x,,,2x/4x,,,5x/7x,,1x-4[8:1]/8x-5[8:1],,,,1b/8b,,,,
{16}4x,5,4,5,4,5,4,5,1,8,1,8,1,8,1,8,
{16}3,4,3,4,2,5,2,5,1,6,1,6,8,7,8,7,
{4}1>5[4:1],5<1[4:1],1>5[4:1],5,
{16}7x,,,4x/5x,,,2x/4x,,1x>4[8:1]/8x<5[8:1],,,,1b/8b,,,,
{16}3x,5,4,5,4,5,4,5,7x,5,4,5,4,5,4,5,
{16}2x,5,4,5,4,5,4,5,8x,5,4,5,4,5,4,5,
{16}1x,5,4,5,4,5,4,5,6x,5,4,5,4,5,4,5,
{16}3x,5,4,5,4,5,4,5,7x,5,4,5,4,5,4,5,
{16}2x,5,4,5,7x,5,4,5,3x,5,4,5,8x,5,4,5,
{16}2x,5,4,5,6x,5,4,5,1x,,,,2b/7b,,,,
{24}1x,2,3,7,6,5,2,3,4,8,7,6,1,2,3,7,6,5,2,3,4,8,7,6,
{96}1,,,,2,,,,3,,,,7,,,,6,,,,5,,,,2,,,,3,,,,4,,,,8,,,,7,,,,6,,,,1x,,,2x,,,3x,,,4x,,,5x,,,6x,,,7x,,,8x,,,1b/5b,,,,,,,,,,,,,,,,,,,,,,,,
{8}3x/8x,,7/8,1x/6x,,2/7,3/6,4b>5[8:37]/5b<4[8:37],
{1},
{1},
{1},
{1},
{1},
{2},C1f/B2/B3/E3/B6/E7/B7,
{1},
{1},
{1},
E
