&title=立川浄穢捕物帳
&wholebpm=210
&artist=青島探偵事務所器楽捜査部B担
&des=シチミヘルツ
&shortid=11031
&genre=オンゲキCHUNITHM
&cabinet=DX
&version=maimai DX
&chartconverter=Neskol
&lv_2=4
&des_2=-
&lv_3=7+
&des_3=-
&lv_4=11
&des_4=サファ太
&lv_5=13+
&des_5=シチミヘルツ
&des_6=
&inote_2=
(210){1},
{1},
{1},
{1},
{1},
{1}4x,
{1}4x/5x,
{1}5x,
{1}4x/5x,
{1}4,
{1}4/5,
{1}5,
{1}4b/5b,
{1}4h[1:1],
{1},
{2}4,4,
{1}4,
{1}3h[1:1],
{1},
{2}3,3,
{1}3x/4x,
{2}2,2,
{1}2,
{2}1,1,
{1}1,
{2}8,8,
{1}8,
{2}1,1,
{1}1b/8b,
{1}B2,
{1}B3,
{1}B4,
{1}B5,
{1}B6,
{1}B7,
{1}C1hf[1:1],
{1},
{4}8,8,8,,
{1}8,
{4}7,7,7,,
{1}7,
{4}6,6,6,,
{4}5,5,5,,
{2}4,4,
{1}4/5,
{4}4,4,4,,
{1}4,
{4}3,3,3,,
{1}3,
{4}2,2,2,,
{4}1,1,1,,
{1}8-4[4:3],
{1},
{1}3/4,
{1}4/5,
{1}5h[1:1]/6h[1:1],
{1},
{1}5/6,
{1}4/5,
{1}3h[1:1]/4h[1:1],
{1},
{1}1/2,
{1}1/8,
{1}7h[1:1]/8h[1:1],
{1},
{1}7/8,
{1}1/8,
{2}1/2,1/2,
{1}1/2,
{2}1/8,1/8,
{1}1/8,
{2}7/8,7/8,
{1}7/8,
{1}1h[1:1]/8h[1:1],
{1},
{1}2,
{1}2,
{1}3,
{1}3,
{1}4,
{1}4,
{1}5h[1:1],
{1},
{1}6,
{1}6,
{1}7,
{1}7,
{1}8,
{1}8,
{1}1b/8b,
{1},
{1}E2/E8,
{1},
{1}B2/B7,
{1},
{1}B3/B6,
{1},
{1}C1hf[1:1],
{1},
{4}8,8,8,,
{1}1/8,
{4}7,7,7,,
{1}7/8,
{4}6,6,6,,
{4}5,5,5,,
{2}4/5,4/5,
{1}3x/6x,
{4}4,4,4,,
{1}4/5,
{4}3,3,3,,
{1}3/4,
{4}2,2,2,,
{4}1,1,1,,
{1}8-4[4:3],
{1},
{1}1-5[4:3],
{1},
{2}8b,8,
{2}1,1,
{2}2,2,
{2}3,3,
{2}4,4,
{2}5,5,
{2}6,6,
{1}7h[8:7],
{1},
{1},
{1},
E
&inote_3=
(210){1},
{1},
{1},
{1},
{1},
{2}6h[2:1],5,
{2}5/6,4/5,
{2}3h[2:1],4,
{4}5,5,5,,
{2}7h[2:1],8,
{2}7/8,1/8,
{1}2h[2:1]/7h[2:1],
{1}3b/6b,
{4},2x-5[4:3],,,
{2},6,
{1}6-3[4:3],
{2},2,
{1}2-5[4:3],
{2},6,
{1}4h[2:1]/5h[2:1],
{4}4/5,4/5,4x/5x,,
{2}3h[4:1]/4h[4:1],3/4,
{4}6,6,5/6,,
{4}3,3,3/4,,
{2}4/5,3/6,
{4}7,7,7/8,,
{4}2,2,1/2,,
{4}8,8,1,1,
{2}1/8,2x/7x,
{2}E3,B3,
{1}B5/E5,
{2}E7,B6,
{1}B4/E5,
{2}E2,C1,
{2}E6,E3/E7,
{1}C1xh[1:1],
{1},
{4}3b,3,4,4,
{2}4x/6x,7/8,
{4}7,7,6,6,
{2}4x/6x,2/7,
{4}3,3,2/4,,
{4}6,6,5/7,,
{4}1,1,8,8,
{2}1h[4:1]/8h[4:1],2x/7x,
{4}3,3,3/4,3/4,
{2}2x/5x,3/4,
{4}6,6,5/6,5/6,
{2}4x/7x,1/8,
{4}2,2,1/3,,
{4}7,7,6/8,,
{1}1-5[4:3]/8-4[4:3],
{2},3x/6x,
{2}3h[2:1],4h[2:1],
{2}5h[2:1],6,
{4}7,7,6,6,
{4}5,5,3x/5x,,
{2}6h[2:1],5h[2:1],
{2}4h[2:1],3,
{4}2,2,3,3,
{4}4,4,4x/6x,,
{2}7h[2:1],8h[2:1],
{2}1h[2:1],2,
{4}3,3,2,2,
{4}1,1,1x/7x,,
{2}6h[2:1],5h[2:1],
{2}4x,3x/6x,
{4}2,2,3,3,
{4}4,5,4/6,,
{4}7,7,6,6,
{4}5,4,3/5,,
{4}6,6,7,7,
{4}8,8,1/7,,
{4}3,3,2,2,
{2}1h[4:1]/8h[4:1],2b/7b,
{1}3>6[4:5],
{1},
{1}5p4[4:5],
{1},
{1}3x-8[4:3],
{2},7,
{1}7-4[4:3],
{2},3,
{1}1-6[4:3]/2-5[4:3],
{2},7,
{1}7-4[4:3]/8-3[4:3],
{2},2,
{1}1x-4[4:3]/8x-5[4:3],
{2},3/6,
{1}C1xh[1:2],
{1},
{1},
{1},
{1},
{1},
{1},
{1},
{1}4h[2:1]/5h[2:1],
{1}3/6,
{4}2b,2,1/2,1/2,
{2}3/8,4/5,
{4}7,7,7/8,7/8,
{2}1/6,2/7,
{4}3,4,3/5,,
{4}6,5,4/6,,
{4}7,7,8,8,
{4}1/8,2/7,3x/6x,,
{4}6,5/6,3,3/4,
{4}2x/5x,,1,1,
{4}7,7/8,2,1/2,
{4}3x/8x,,4,4,
{4}5,6,4x/7x,,
{4}4,3,2x/5x,,
{1}1-5[4:3]/2-6[4:3],
{2},4x/7x,
{1}7-3[4:3]/8-4[4:3],
{2},2x/5x,
{4}3,3,4,5,
{4}6,7/8,7/8,,
{4}6,6,5,4,
{4}3,1/2,1/2,,
{4}2,2,3,4,
{4}5/6,4/7,3/8,,
{4}1,1,8,8,
{1}C1xh[8:7],
{1},
{1},
{1},
E
&inote_4=
(210){1},
{1},
{1},
{1},
{1},
{8}2x/7x,,3,3/4,,5,4/5,,
{8}3,3/4,,5,4/5,,6,,
{8}4/7,,6,5/6,,4,4/5,,
{8}6,5/6,,4,4/5,,3,,
{8}2/5,,3,3/4,,6,5/6,,
{8}3,3/4,,6,5/6,,4/7,,
{8}1/8,,2,2/4,,7,5/7,,
{6}6x,7x,8x,1x,2x,3x/6x,
{4},4xh[1:1]/5,5,5,
{4}6,6,5/6,4,
{4}3h[4:3],5,5,4,
{4}2/4,1,8,8,
{4}3,3,4,2/5,
{4}6,6,5,4/7,
{8}2x/8x,2x/8x,,,1x/7x,1x/7x,,,
{4}5/6,4/5,3x/4x,,
{4}6h[2:1],4,5,7,
{4}3h[2:1],5,4,2,
{4}7h[2:1],5,6,8,
{4}5h[2:1]/7,7,6,4/5,
{4}2h[2:1],4,5,3/6,
{4}7h[2:1],8,8,1/6,
{8}2x/4x,2x/4x,,,5x/7x,5x/7x,,,
{4}3/6,4/5,2b/7b,,
{8}7x,7xh[4:3],,E6,,E4,,C1xh[8:5],
{2},B7/E8,
{8}2x,2xh[4:3],,E4,,E6,,C1xh[8:5],
{4},,1x,1x,
{4}2/8,3,1/7,6,
{4}2/5,1,4/7,8<1[8:5],
{1},
{4}4/5,,2/7,1b/8b,
{8}2,2,4,,3-1[8:1]/8-4[8:1],,,,
{4}2x/5x,2,1/2,3/4,
{8}6,6,5,,4-8[8:1]/7-5[8:1],,,,
{4}1x/6x,6,5/7,4/5,
{4}3x/4h[4:1],1,5h[4:1]/6,8,
{4}1/2h[4:1],3h[4:1],4,5/6q3[2:1],
{2}4x,1x,
{8}4/5,,3x,2x/4x,,6x,5x/7x,,
{8}2,2,1,,3-1[8:1]/8-4[8:1],,,,
{4}2x/6x,6,5/7,2/4,
{8}7,7,8,,1-5[8:1]/6-8[8:1],,,,
{4}3x/7x,3,2/4,1/8,
{4}7h[4:1],6h[4:1],5,4/7,
{4}3h[4:1],2h[4:1],1,3/8,
{8}2x-5[8:1],,8,8x-4[8:1],,2,2x-5[8:1],,
{8}8,8,,1/7,1x-5[8:1]/7x-4[8:1],,,,
{6}3x/6x,,,2xh[6:1],3xh[6:1],4xh[6:1],
{4}5x,,6,8,
{8}1x/7x,,2,2/4,,5,4/5,,
{8}2,2/4,,5,4/5,,3/6,,
{6}2x/7x,,,7xh[6:1],6xh[6:1],5xh[6:1],
{4}4x,,3,1,
{8}2x/8x,,7,5/7,,4,4/5,,
{8}7,5/7,,4,4/5,,5/6,,
{6}3x/7x,,,5xh[6:1],6xh[6:1],7xh[6:1],
{4}8x,,1,3,
{8}1/6,,7,5/7,,3,3/5,,
{8}7,5/7,,3,3/5,,2,,
{6}1x/7x,,,4xh[6:1],3xh[6:1],2xh[6:1],
{2}1x,1h[4:1]/8h[4:1],
{8}2b/7b,,6,4/6,,2,2/4,,
{8}6,4/6,,2,2/4,,8,,
{8}2/5,,3,3/5,,7,5/7,,
{8}3,3/5,,7,5/7-3[8:1],,,,
{8}1x,,2,2/4,,7,7/8,,
{8}2,2/4,,7,7/8,,1/6,,
{8}4/5,,2,1/2,,7,5/7,,
{8}2,1/2,,4/5,4/5,,2>8[2:3]/7,,
{1}8b,
{1},
{1}1s5[4:5],
{1},
{4}6h[1:1],,,5,
{4}5h[1:1],,,4,
{1}4>5[1:1],
{4},,,4/5,
{4}3,3,3/4,3,
{4}5,5,4/5,5,
{4}2,2,2/4,2q5[4:3],
{4},,,8,
{4}E8,E7,E6,E5,
{4}E4,E3,E2,E1,
{1}C1xh[2:1],
{1}8-4[4:1],
{1}1b,
{1},
{1},
{1},
{1},
{1},
{1}C1xh[1:1],
{4},,2/7,1x/8x,
{8}2,2,4,,3-8[8:1]/7-4[8:1],,,,
{4}2x/6x,6,4/5,1/2,
{8}7,7,8,,2-5[8:1]/6-1[8:1],,,,
{4}3x/7x,3,2/4,4/5,
{4}5/6h[4:1],1,3h[4:1]/4,8,
{4}1/2h[4:1],3h[4:1],4,5/6<4[2:1],
{2}4x,1x,
{8}1/8,,3x/4x,3x/4x,,5x/7x,5x/7x,,
{8}2,2,1,,5-1[8:1]/7-4[8:1],,,,
{4}2x/6x,2,3/4,1/8,
{8}7,7,5,,3h[4:1]/4-8[8:1],,,,
{8}1x,,3,2x/4x,,7,6b/8b,,
{4}2h[4:1],4h[4:1],5h[4:1],7,
{4}3h[4:1],1h[4:1],8h[4:1],6,
{8}3x-7[8:1],,8,8x-4[8:1],,3,3x-7[8:1],,
{8}8,8x-4[8:1],,3,3,,2x/6x,,
{8}1x-5[8:1],,6,6x-2[8:1],,1,1x-5[8:1],,
{8}6,6x,,4/7,4x/7x-4[8:1],,3x>6[4:3],,
{1}5b,
{4}4,5,6h[4:1],1>6[4:3],
{1}8x,
{4}7,5,4h[4:1],8b,
{8}3,4,2,6,5,7,3,4,
{8}2,6,5,7,4-1[8:1],,,,
{8}7,8,6,2,1,3,8b,,
{6}7xh[6:1],6xh[6:1],5xh[6:1],3xh[6:1],4xh[6:1],C1f,
{1},
{1},
{1},
E
&inote_5=
(210){1},
{8}6,6,6,5,5,5,3,3,
{8}3,4,4,4,5,5,4,4,
{8}6,6,6,5,5,5,3,3,
{8}3,4,4,4,5,5,3x/6x,,
{8}2-4[8:1],1,2,8-4[8:1],1,8,2-4[8:1],1,
{8}2,7-4[8:1],8,7,1,1,2x/8x,,
{8}7-5[8:1],8,7,1-5[8:1],8,1,7-5[8:1],8,
{8}7,2-5[8:1],1,2,8,8,1x/7x,,
{8}2-4[8:1],1,2,8-4[8:1],1,8,2-4[8:1],1,
{8}2,7-4[8:1],8,7,1,1,2x/8x,,
{8}3-1[8:1],4,3,6-8[8:1],5,6,3,3,
{6}1/2,3/8,4/7,1/8,2/7,3b/6b,
{4},4/5h[4:3],3,2,
{4}1h[1:1],4,6,7,
{4}8h[1:1],5,3,2,
{8}1,,2/7,,4,5,3/6,,
{4}3h[1:1]/5,4,6,7,
{4}8h[2:1],5,4,3x/6x,
{8}2/4,2h[8:1]/4h[8:1],,,5/7,5h[8:1]/7h[8:1],,,
{8}1,1,8,8,2x/7x,,4/5,,
{8},,2/8h[4:1],,4,4,5h[4:1],,
{8}1,1,8,8,4,5,3/6,,
{8}2/8h[4:1],,5,,2/5h[4:1],,1,1,
{8}2/4,,6,5/7,,3,2/4,,
{8}1h[4:1],,6,,4h[4:1]/8,,7,7,
{8}1,1,5,4h[4:1],,8,8,,
{8}5/7,5h[8:1]/7h[8:1],,,2/4,2h[8:1]/4h[8:1],,,
{8}7/8,7,1/2,2,3b/7b,,,,
{8}2/4,2/4,,3/5,,4<3[2:1]/6,,7h[8:3],
{8},,,,8x,8x,8x,,
{8}5/7,5/7,,4/6,,3/5>6[2:1],,2h[8:3],
{8},,,,1x,1x,1x,,
{4}2-4[8:1]/4,8x,5/7-5[8:1],1x,
{4}2>5[4:1],5<8[4:1],8>3[4:1],3q4[2:1],
{16}6,,,,,,7x,6x,5x,,,,,,,,
{4},,,3b/6b,
{8}1-5[8:1],1,6-2[8:1],6,8-3[8:1],8,5<8[8:1],5,
{4}1-3[8:1]*-4[8:1],1x,1-6[8:1]*-7[8:1],1x,
{8}8-4[8:1],8,3-7[8:1],3,1-6[8:1],1,4>1[8:1],4,
{4}8-3[8:1]*-5[8:1],8b,2/4,5/7,
{4}1>3[8:1]/5<7[8:1],1/5,1-6[8:1]/5-2[8:1],1/5,
{4}1<6[8:1],4>1[8:1],7<4[8:1],8,
{4}1-6[4:1],6-3[4:1],3-8[4:1],8,
{16}7,6,5,4h[16:3],,,1,2,3,4h[16:3],,,8b,,,,
{8}1-5[8:1],1,6-2[8:1],6,8-3[8:1],8,5<8[8:1],5,
{4}1-3[8:1]*-5[8:1],1x,1-5[8:1]*-7[8:1],1x,
{8}8-4[8:1],8,3-7[8:1],3,1-6[8:1],1,4>1[8:1],4,
{4}8w4[8:1],8b,1/6,3/8,
{4}1-4[8:1]/7-4[8:1],1/7,2-5[8:1]/8-5[8:1],2/8,
{4}1/7-4[8:1],2-5[8:1]/7,2/8-4[8:1],3b/8b,
{64}2-5[8:1],,,,,,,,,,,,,,,,2x,,B3,E5,,,,,7-4[8:1],,,,,,,,,,,,,,,,7x,,B6,E5,,,,,2-6[8:1],,,,,,,,,,,,,,,,
{64}2x,B2,,B6,,,,,8-4[8:1],,,,,,,,,,,,,,,,8x,B8,,B4,,,,,1w5[8:1],,,,,,,,,,,,,,,,1b,C1f/B3/E4/B7/E7,,,,,,,,,,,,,,,
{6}2xh[4:1]/8xh[4:1],,,2/4,4/5,5/7,
{16}2/7,,,,,,,,3,4,3,4,2b,,,,
{8}1x/5,5,5,5/7x,5,5,2x/5,5,
{8}5,5/7x,5,5,1x/5,5,5/7x,5,
{6}3x/5,,,5/7,4/5,2/4,
{16}2/7,,,,,,,,6,5,6,5,7b,,,,
{8}4/8x,4,4,2x/4,4,4,4/7x,4,
{8}4,2x/4,4,4,4/8x,4,2x/4,4,
{6}4/6x,,,1/3,1/8,6/8,
{16}3/6,,,,,,,,2,1,2,1,3b,,,,
{8}4x/8,8,8,6x/8,8,8,3x/8,8,
{8}8,6x/8,8,8,4x/8,8,6x/8,8,
{6}2x/8,,,7/8,1/2,3/4,
{2}5/6,2b/7b,
{8}2x/4x,3,4,5x/7x,6,5,1x/4x,2,
{8}3,4x/8x,7,6,1x/5x,2,3x/7x,8,
{8}5x/7x,6,5,2x/4x,3,4,5x/8x,7,
{8}6,1x/5x,2,3,4x/8x,7,2x/6x,1,
{8}2x/4x,2,2,1x/5x,1,1,2x/6x,2,
{8}2,3x/7x,3,3,4x/8x,7,2x/6x,5,
{8}1x/4x,4,4,2x/5x,5,5,3x/6x,6,
{8}6,4x/7x,7,7,1/8,1/8,2b/7b,,
{1}4h[2:3]/5<2[4:5],
{1},
{1}3V15[4:5]/4h[2:3],
{1},
{1}3h[1:1]/5pp8[4:5],
{2},2<3[4:7],
{1}8h[2:3],
{1},
{4}1>5[4:5],6,6,6,
{4}6,6,6,6,
{4}6>2[4:5]/7,7,7,7,
{4}7,7,7,7,
{4}1-4[8:5],E6,B6,B7,
{4}8-5[8:5],E4,B3,B2,
{64}1-4[2:1],,,,,,,,,,,,,,,,5-8[4:1],,,,,,,,,,,,,,,,C1,E3,B6,B3,E7,,,,,,,,,,,,,,,,,,,,,,,,,,,,
{1},
{1}1b,
{1},
{1},
{1},
{1},
{1},
{1}3h[4:3]/6h[4:3],
{4}3/6,4-1[8:1]/5-8[8:1],4x/5x,2b/7b,
{8}8-3[8:1],8,5-2[8:1],5,7-3[8:1],7,1<6[8:1],1,
{4}4-1[8:1]*-7[8:1],4x,8w4[8:1],8b,
{8}1-6[8:1],1,4-7[8:1],4,2-6[8:1],2,8>3[8:1],8,
{4}5-2[8:1]*-8[8:1],5x,5/7,2/4,
{4}4>2[8:1]/8<6[8:1],4/8,4-7[8:1]/8-3[8:1],4/8,
{4}8>3[8:1],5<8[8:1],2>5[8:1],1,
{4}8-3[4:1],3-6[4:1],6-1[4:1],4,
{16}4,3,2,1h[16:3],,,4,5,6,7,,,4b/8b,,,,
{8}2-6[8:1],2,4-7[8:1],4,5-2[8:1],5,8>3[8:1],8,
{4}4-1[8:1]*-7[8:1],4x,8w4[8:1],8b,
{8}7-3[8:1],7,5-2[8:1],5,4-7[8:1],4,1,1,
{16}2/5,,3,4,3,,2/5,,,,5/6,,4b/7b,,,,
{4}7-4[8:1]/8-4[8:1],7/8,1-5[8:1]/2-5[8:1],1/2,
{4}6-1[8:1]/8,2-7[8:1]/6,1-4[8:1]*-6[8:1]/2,1b,
{64}2-5[8:1],,,,,,,,,,,,,,,,2x,,B3,E5,,,,,7-4[8:1],,,,,,,,,,,,,,,,7x,,B6,E5,,,,,2-6[8:1],,,,,,,,,,,,,,,,
{64}2x,B2,,B6,,,,,8-4[8:1],,,,,,,,,,,,,,,,8x,C1,,B4,,,,,1w5[8:1],,,,,,,,,,,,,,,,1b,B3/E4/B7/E7,,,,,,,,,,,,,,,
{64}8-4[8:1],,,,,,,,,,,,,,,,8x,,C1,B4,,,,,2-5[8:1],,,,,,,,,,,,,,,,2x,,B3,E5,,,,,7-3[8:1],,,,,,,,,,,,,,,,
{64}7x,B7,,B3,,,,,1-5[8:1],,,,,,,,,,,,,,,,1x,B1,,B5,,,,,8w4[8:1],,,,,,,,,,,,,,,,8b,B2/E3/E4/E5/B6/E6,,,,,,,,,,,,,,,
{8}7,7,7,1,1,1,3,3,
{8}3,5,5,5,7,7,7x/8x,,
{8}2,2,2,8,8,8,6,6,
{8}6,4,4,4,2,2,3b/8b,,
{8}6-1[8:1],5,6,3-8[8:1],4,3,5-1[8:1],4,
{8}5,3-8[8:1],4,3,5,5,4x/6x,,
{8}2-5[8:1],1,2,7-4[8:1],8,7,2,2,
{6}1/2,3/8,4/7,7/8,1/6,2b/5b,
{1},
{1},
{1},
E
